#TITLE:Limitless Possibility;
#SUBTITLE:;
#ARTIST:AIKO OI;
#TITLETRANSLIT:;
#SUBTITLETRANSLIT:;
#ARTISTTRANSLIT:;
#CREDIT:DigiMindAxel;
#BANNER:Limitless Possibility.png;
#BACKGROUND:Limitless Possibility-bg.png;
#LYRICSPATH:;
#CDTITLE:GuitarFreaksXG & DrumManiaXG.png;
#MUSIC:Limitless Possibility.mp3;
#METERTYPE:DDR X;
#OFFSET:-4.092;
#SAMPLESTART:24.637;
#SAMPLELENGTH:12.000;
#SELECTABLE:YES;
#BPMS:0.000=140.000;
#STOPS:;
#BGCHANGES:;

//---------------dance-single - ----------------
#NOTES:
     dance-single:
     :
     Easy:
     3:
     0.162,0.234,0.124,0.165,0.000:
2002
0000
0000
3003
,
0220
0000
0330
0001
,
0000
1001
0000
0000
,
0000
0000
0010
0000
,
0000
0000
0200
0000
,
0000
0000
0000
0300
,
1001
0000
0000
0110
,
0000
0000
0002
0000
,
0000
0000
0000
0003
,
1001
0000
0000
0110
,
0000
0000
0200
0000
,
0000
0320
0000
0000
,
0130
0000
0000
0001
,
0000
0000
0010
0000
,
0000
0100
0000
0000
,
1000
0000
0000
0001
,
0000
0000
0100
0000
,
0000
0010
0100
0010
,
1000
0000
0000
0100
,
0000
0000
0010
0000
,
0000
0001
0000
0000
,
0010
0000
0000
0100
,
0000
0000
1000
0000
,
0000
0001
0000
0000
,
1001
0000
0000
0001
,
0000
0000
0100
0000
,
0000
0110
0000
0000
,
0000
0010
0000
0000
,
0100
0000
0010
0000
,
0010
0000
0000
0000
,
0000
0110
0000
0000
,
0100
0000
0000
0001
,
0000
0010
0000
0100
,
0000
0100
0000
0100
,
0000
0100
0000
0010
,
0000
0010
0000
0010
,
0000
0001
0000
0001
,
0000
0001
0000
1000
,
0000
1000
0000
2000
,
0000
0000
3002
0000
,
0000
2003
0000
0000
,
3002
0000
0000
1003
,
0100
0010
0100
1000
,
0010
0100
0010
1000
,
0001
0000
2001
0000
,
0000
3002
0000
0000
,
0103
0000
0010
0000
,
0100
0001
0010
0100
,
1000
0001
0010
0100
,
0220
0000
0000
0000
,
0000
0000
0330
0000
;

//---------------dance-single - ----------------
#NOTES:
     dance-single:
     :
     Medium:
     8:
     0.310,0.391,0.165,0.134,0.041: // measure 1
1001
0000
0000
0000
0001
0000
0000
0000
0000
1000
0000
0000
0000
0000
0000
0000
,  // measure 2
0100
0000
0000
0000
0000
0010
0000
0000
0000
0000
0000
0000
0001
0000
0000
0000
,  // measure 3
0000
0100
0000
0000
0010
0000
0000
0000
0000
0010
0000
0000
0000
0000
0010
0000
,  // measure 4
0000
0010
0000
0000
0000
0000
0010
0000
0000
0000
0010
0000
0000
0000
0100
0000
,  // measure 5
0000
0100
0000
0000
0001
0000
0010
0000
,  // measure 6
0100
1000
0001
0100
,  // measure 7
0110
0000
0000
0110
0000
0000
1001
0000
,  // measure 8
0000
1001
0000
0000
1000
0000
0010
0000
,  // measure 9
0100
0001
1000
0010
,  // measure 10
0110
0000
0000
0110
0000
0000
1001
0000
,  // measure 11
0000
1001
0000
0000
2000
0000
0000
0000
,  // measure 12
0000
0002
0000
3003
,  // measure 13
0001
0000
0000
0100
0000
0000
1000
0000
,  // measure 14
0000
0100
0000
0000
0001
0000
0000
0010
,  // measure 15
0000
0000
1000
0000
0000
0010
0000
0000
,  // measure 16
0001
0000
0100
0010
0100
0010
1000
0000
,  // measure 17
0010
0100
0010
0100
0001
0000
0010
0100
,  // measure 18
0010
0100
1000
0000
0100
0010
0100
0010
,  // measure 19
0001
0000
0000
0010
0000
0000
1000
0000
,  // measure 20
0000
0010
0000
0000
0001
0000
0000
0100
,  // measure 21
0000
0000
1000
0000
0000
0100
0000
0000
,  // measure 22
0001
0000
0100
0010
0100
0010
1000
0000
,  // measure 23
0010
0100
0010
0100
0001
0000
0010
0100
,  // measure 24
0010
0100
1000
0000
0100
0000
0010
0000
,  // measure 25
2002
0000
3003
0220
,  // measure 26
0000
0330
2200
0000
,  // measure 27
3300
0000
0000
0000
1001
0000
0000
0000
1000
0000
0000
0000
0000
0010
0000
0000
,  // measure 28
0000
0000
0000
0000
0100
0000
0000
0000
0000
0001
0000
0000
0000
0000
0000
0000
,  // measure 29
0010
0000
0100
0000
0010
0000
0100
0000
0000
1000
0000
0000
0000
0000
0000
0000
,  // measure 30
1000
0000
1000
0000
0000
1000
0000
0000
,  // measure 31
1000
0000
1001
0000
0000
0001
0000
0000
,  // measure 32
0100
0000
0000
0010
0000
0000
1000
0000
,  // measure 33
0100
0010
0001
2000
,  // measure 34
0000
0100
0000
0100
,  // measure 35
0000
0100
0000
0100
,  // measure 36
0000
0100
0000
3200
,  // measure 37
0000
0010
0000
0010
,  // measure 38
0000
0010
0000
0320
,  // measure 39
0000
0001
0000
0031
,  // measure 40
0001
0001
1000
1000
,  // measure 41
1000
0010
0100
0010
,  // measure 42
1000
0000
0001
0000
1000
0000
0001
0010
,  // measure 43
0001
0010
0000
0001
0100
0001
0100
0000
,  // measure 44
0001
1000
0001
1000
0000
0100
1000
0100
,  // measure 45
1000
0100
0010
0000
0101
0000
0000
0001
,  // measure 46
0000
0000
1000
0000
0000
0100
0000
0000
,  // measure 47
1000
0000
0100
0000
0010
0000
0001
1000
,  // measure 48
0100
1000
0100
1000
0001
0000
0010
0000
,  // measure 49
0100
0010
0001
0100
0001
1000
0100
0000
,  // measure 50
2002
0000
0000
0000
,  // measure 51
0000
0000
3003
0000
;

//---------------dance-single - ----------------
#NOTES:
     dance-single:
     :
     Hard:
     11:
     0.563,0.521,0.382,0.206,0.537:
1001
0000
0000
0000
1000
0100
1000
0000
0000
0010
0100
0010
0000
0000
0000
0000
,
0100
0001
0100
0000
0000
0001
1000
0001
0000
0000
0000
0000
1000
0100
1000
0000
,
0000
0010
0100
0010
0100
0001
0000
0000
0000
0001
0000
0000
0000
0000
0001
0000
,
0000
0001
0000
0000
0000
0000
1000
0001
0000
1000
0001
1000
0000
0000
0100
0010
,
0000
0100
0010
0100
0000
0000
0000
0000
2000
0000
0000
0000
3020
0000
0000
0000
,
2030
0000
0000
0000
3002
0000
0000
0000
0023
0000
0000
0000
0031
1000
0000
1000
,
0001
0000
0000
0001
0000
0000
0011
0000
0000
0011
0000
0000
0001
0000
0000
1000
,
0000
0000
1001
0000
0000
1001
0000
0000
0002
0000
0000
0000
0203
0000
0000
0000
,
0320
0000
0000
0000
2030
0000
0000
0000
3002
0000
0000
0000
0013
0001
0000
0001
,
0010
0000
0000
0010
0000
0000
0110
0000
0000
0110
0000
0000
1000
0000
0000
0010
,
0000
0000
1010
0000
0000
1010
0000
0000
0210
0000
0000
0000
0010
0000
0000
0000
,
0010
0000
0320
0000
1030
0100
0010
0001
,
1000
0000
0000
1000
0000
0000
1000
0000
0000
0010
0000
0000
0100
0000
0000
0100
,
0000
0000
0101
0000
0000
0101
0000
0000
0001
0000
0000
0001
0000
0000
0001
0000
,
0000
0010
0000
0000
0100
0000
0000
0100
0000
0000
0110
0000
0110
0000
0000
0000
,
1000
0000
0000
1000
0000
0001
1000
0000
0010
0000
0100
0000
0010
0000
0000
0100
,
0001
0010
0100
0010
0001
0000
0100
0001
,
0010
0000
0100
0000
1000
0000
0000
0001
1000
0000
0100
0000
0010
0000
0100
0000
,
1000
0000
0000
1000
0000
0000
1000
0000
0000
0001
0000
0000
0010
0000
0000
0010
,
0000
0000
0110
0000
0000
0110
0000
0000
1001
0000
0000
0001
0000
0000
0001
0000
,
0000
1000
0000
0000
0010
0000
0000
0010
0000
0000
0110
0000
0110
0000
0000
0000
,
0001
0000
0000
1000
0000
0001
1000
0000
0100
0000
1000
0000
0001
0000
0000
0010
,
0100
0000
1000
0000
0010
0000
0100
0000
0001
0000
0000
1000
0001
0000
0010
0000
,
0100
0000
0010
0000
0001
0000
1000
0010
1000
0000
0001
0100
0001
0000
0000
0000
,
1001
0000
0000
1000
0000
0001
0000
1000
0000
0010
0100
0000
0110
0000
0000
0100
,
0000
0010
0000
0100
0000
1000
0001
0000
1001
0000
0000
1000
0000
0001
0000
1000
,
0000
0010
0100
0000
0110
0000
0000
0000
0010
0001
0010
0000
0000
0100
1000
0100
,
0000
0000
0000
0000
1000
0001
1000
0000
0000
0001
1000
0001
0000
0000
0000
0000
,
0100
0001
0100
0001
1000
0010
1000
0000
0000
1001
0000
0000
0000
0000
0000
1100
,
0000
0000
0000
0000
1000
0100
0000
0000
0000
0000
1100
0000
0000
0000
0000
0000
,
1000
0100
0000
0000
1001
0000
0000
1000
0000
0000
1010
0000
0000
0010
0000
0000
,
0110
0000
0000
0100
0000
0000
0101
0000
0000
0001
0000
0000
0001
0000
0010
0000
,
0100
1000
0001
0010
0100
1000
1001
0000
,
0001
0010
0100
0000
0100
1000
0010
0000
,
0010
0100
0001
0000
0001
0010
0100
0000
,
0100
1000
0001
0000
0001
0100
0010
0000
,
0010
0100
0001
0000
0001
1000
0100
0000
,
0100
0010
0001
0000
0001
1000
0010
0000
,
0010
0100
0001
0000
0001
1000
0200
0000
,
1000
1300
0020
0001
,
0031
0000
0000
0000
0100
0010
0000
0000
0110
0000
0000
0000
0010
0100
0000
0000
,
0001
1000
0000
0000
1000
0001
0000
0000
0001
1000
0000
0000
0001
0000
0100
0000
,
0010
0100
0101
1000
0100
0010
0100
1100
,
1000
0001
0100
0001
1001
1000
0010
0100
,
0001
0000
0010
0100
0010
0100
0000
0000
1020
0000
0000
0000
0000
0000
2030
0000
,
0000
0000
3002
0000
0000
0023
0000
0000
,
0130
0000
0000
0000
1000
0000
0000
0000
0001
0000
0000
0000
0100
0000
0000
0010
,
0000
1000
0000
0010
0000
1000
0000
0001
1000
0001
1000
0001
1000
0000
0100
0010
,
0100
0010
0100
0010
0001
0000
0100
0001
0100
0001
1000
0010
1000
0010
0000
0000
,
2002
0000
0000
0000
,
0000
0000
3003
0000
;

//---------------dance-single - ----------------
#NOTES:
     dance-single:
     :
     Challenge:
     14:
     0.747,0.782,0.722,0.206,0.934:
1001
0000
0000
0000
0001
0100
0010
0000
0000
0100
0001
0010
0001
0000
0000
0000
,
0010
0100
1000
0000
0000
0100
1000
0010
0100
0000
0000
0000
0001
0010
0001
0000
,
0000
1000
0100
0010
0001
1000
0000
0000
0000
1001
0000
0000
0000
0000
0110
0000
,
0000
0110
0000
0000
0000
0000
0100
0001
0000
0001
0010
0001
0000
0000
0010
0100
,
0000
0100
1000
0100
0000
0000
0000
0000
1000
0100
0000
0000
1000
0001
0000
0000
,
0010
0001
0000
0000
1000
0001
0000
0000
0100
0001
0000
0000
1000
0001
0000
0001
,
1000
0000
0000
1100
0000
0000
1001
0000
0000
1001
0000
0000
0011
0000
0000
0011
,
0000
0000
1001
0000
0000
1001
0000
0000
0001
0100
0000
0000
0001
1000
0000
0000
,
0010
1000
0000
0000
0001
1000
0000
0000
0001
0010
0000
0000
0001
1000
0000
1000
,
0001
0000
0000
0101
0000
0000
1001
0000
0000
1001
0000
0000
1010
0000
0000
1010
,
0000
0000
0110
0000
0000
0110
0000
0000
0101
0000
0000
0000
0001
0000
0000
0000
,
0001
0000
0000
0000
0002
0000
0000
0000
1003
0100
1000
0100
1000
0100
1000
0100
,
1000
0000
0000
1100
0000
0000
0011
0000
0000
0011
0000
0000
0110
0000
0000
0110
,
0000
0000
1001
0000
0000
1001
0000
0000
0101
0000
0000
0101
0000
0000
1010
0000
,
0000
1010
0000
0000
0110
0000
0000
0110
0000
0000
1001
0000
0101
0000
0000
0000
,
1001
0000
0000
0001
0000
1000
0100
1000
0100
0010
0001
0010
0100
0000
0000
1000
,
0001
0100
0001
0100
0010
1000
0010
1000
0002
0000
0000
1003
0001
0000
0010
0000
,
0100
1000
0010
1000
0100
0000
0000
1000
0001
0010
0100
1000
0100
0010
0001
0000
,
1001
0000
0000
1100
0000
0000
0011
0000
0000
0011
0000
0000
0110
0000
0000
0110
,
0000
0000
1001
0000
0000
1001
0000
0000
0101
0000
0000
0101
0000
0000
1010
0000
,
0000
1010
0000
0000
0110
0000
0000
0110
0000
0000
1001
0000
1100
0000
0000
0000
,
1001
0000
0000
0001
0000
1000
0001
0010
0001
0010
0100
1000
0010
0000
0000
0100
,
0000
0001
1000
0100
1000
0100
0010
0001
0100
0000
0000
0001
0000
1000
0010
1000
,
0010
0100
0001
0100
0010
0000
1000
0100
1000
0000
0100
0010
0001
1000
0001
1000
,
0001
0000
0000
1000
0000
0100
0000
0001
0000
0100
1000
0001
0010
0000
0000
0001
,
0000
0010
0000
1000
0000
0010
0001
1000
0100
0000
0000
1000
0000
0010
0000
0001
,
0000
0010
1000
0001
0100
0000
0000
0000
0001
1000
0100
0000
0000
0010
0100
1000
,
0100
0000
0000
0000
1000
0001
0100
0000
0000
0010
1000
0001
0010
0001
0010
0000
,
0001
0010
0100
1000
0100
0010
0001
0000
0000
1001
0000
0000
1000
0100
0000
0000
,
1000
0001
0000
0000
1000
0100
0000
0000
1000
0001
0000
0000
0100
0001
0000
0000
,
1000
0010
0000
0010
1000
0000
0000
1010
0000
0000
0101
0000
0000
0101
0000
0000
,
1001
0000
0000
0011
0000
0000
0110
0000
0000
1100
0000
0000
1000
0000
0010
0000
,
0001
0000
0000
0010
0000
0000
1000
0000
0100
0000
0010
0000
0001
0000
0010
0000
0100
0000
2000
0000
0000
0000
0000
0000
,
3001
0001
0010
0100
1000
1000
0020
0000
,
1030
1000
0002
0000
0103
0100
0001
1000
,
0100
0100
2000
0000
3100
0100
0020
0000
,
0031
0001
0100
0010
1000
1000
0002
0000
,
0103
0100
0002
0000
1003
1000
0020
0000
,
0130
0000
0010
0000
1010
0000
0000
0000
1000
0000
0001
0000
0010
0001
0000
0000
,
0010
0001
0000
0000
0010
0001
0000
0000
1000
0001
0000
0000
1000
0001
0000
0000
,
1000
0001
0000
0000
0100
0001
0100
0000
0010
0100
0010
0000
0100
0001
0100
0000
,
0001
1000
0001
0000
1000
0100
1000
0000
0100
1000
0100
1000
0001
0100
0010
0100
,
0001
0100
0001
0010
0100
0000
1000
0001
0100
0001
0010
0100
1000
0100
0010
0000
,
0001
1000
0010
1000
0001
0010
0100
1000
0001
0000
0010
0001
0100
0001
0010
0100
,
1000
0001
0100
0010
0100
0010
0000
0000
0202
0000
0000
0000
0303
0000
0220
0000
,
0000
0330
2020
0000
3030
0220
0000
0330
,
0011
0000
0000
0000
0110
0000
0000
0000
1100
0000
0000
0000
0110
0000
0000
0001
,
0000
0010
0100
0010
0000
0001
0000
1000
0010
0100
0001
0100
0010
1000
0100
0010
,
0100
1000
0001
0010
0001
0000
0010
0100
1000
0100
0010
0001
1000
0010
0000
0000
,
2002
0000
0000
0000
,
0000
0000
3003
0000
;

//---------------dance-single - ----------------
#NOTES:
     dance-single:
     :
     Beginner:
     1:
     0.099,0.126,0.144,0.000,0.000:
1001
0000
0000
0000
,
1000
0000
0000
0001
,
0000
0010
0000
0000
,
0000
0000
0000
0000
,
0000
0000
0010
0000
,
0000
0000
0000
0000
,
0110
0000
0000
0100
,
0000
0000
0010
0000
,
0000
0000
0000
0000
,
0110
0000
0000
0010
,
0000
0000
0100
0000
,
0000
0000
0000
0000
,
1001
0000
0000
1000
,
0000
0000
1001
0000
,
0000
0001
0000
0000
,
0010
0000
0000
0100
,
0000
0000
0010
0000
,
0000
0100
0000
0000
,
1001
0000
0000
1000
,
0000
0000
1001
0000
,
0000
0001
0000
0000
,
0110
0000
0000
0100
,
0000
0000
0010
0000
,
0000
0100
0000
0000
,
0110
0000
0000
0010
,
0000
0000
0100
0000
,
0000
0010
0000
0000
,
0000
0000
0000
0000
,
0000
0000
0010
0000
,
0000
0000
0000
0000
,
0000
1001
0000
0000
,
1000
0000
0000
0001
,
0000
0000
0000
1001
,
0000
0000
0000
0000
,
0000
0000
0000
0000
,
0000
0000
0000
1000
,
0000
0000
0000
0000
,
0000
0000
0000
0000
,
0000
0000
0000
1000
,
0000
0000
1000
0000
,
0000
0001
0000
0000
,
0001
0000
0000
1001
,
0000
1000
0000
0000
,
0001
0000
1000
0000
,
0000
0000
1001
0000
,
0000
0001
0000
0000
,
0010
0000
0100
0000
,
0010
0000
0000
0000
,
0001
0000
1000
0000
,
1001
0000
0000
0000
;
