#TITLE:Landing on the moon;
#SUBTITLE:;
#ARTIST:SIMON;
#TITLETRANSLIT:;
#SUBTITLETRANSLIT:;
#ARTISTTRANSLIT:;
#CREDIT:DigiMindAxel;
#BANNER:Landing on the moon.png;
#BACKGROUND:Landing on the moon-bg.png;
#LYRICSPATH:;
#CDTITLE:CROSSxBEATS.png;
#MUSIC:Landing on the moon.mp3;
#METERTYPE:DDR X;
#OFFSET:-7.168;
#SAMPLESTART:69.755;
#SAMPLELENGTH:12.000;
#SELECTABLE:YES;
#BPMS:0.000=138.000;
#STOPS:;
#BGCHANGES:;

//---------------dance-single - ----------------
#NOTES:
     dance-single:
     :
     Easy:
     3:
     0.186,0.213,0.132,0.076,0.000:
1002
0000
0000
0000
,
2003
0000
0000
0000
,
3200
0000
0000
0000
,
0320
0000
0000
0000
,
0031
1000
0000
1000
,
0000
0001
0000
0001
,
0000
1000
0000
1000
,
0000
0001
0000
0001
,
1000
0100
0000
0100
,
0000
0010
0000
0010
,
0000
0100
0000
0100
,
2000
0000
0000
3001
,
1000
0100
1000
0000
,
0010
0000
0100
0000
,
0001
1000
0001
0000
,
0010
0000
0100
0000
,
0010
0001
0010
0000
,
0001
0000
1000
0000
,
0010
1000
0010
0000
,
0100
0000
0001
0000
,
1000
0001
1000
0000
,
0100
0000
0010
0000
,
0100
1000
0100
0000
,
1000
0000
0001
0000
,
0100
0001
0100
0000
,
0001
0000
0010
0000
,
0110
0000
0000
0000
,
1001
0000
0000
0000
,
0110
0000
0000
0000
,
1001
0000
0000
0000
,
0110
0000
0000
0000
,
0010
0100
0010
0000
,
0110
0000
0000
0000
,
1001
0000
0000
0000
,
0110
0000
0000
0000
,
1001
0000
0000
0000
,
1001
0000
0100
0000
,
0010
0001
0010
0001
,
0100
0000
0010
0000
,
1000
0000
0100
0000
,
1000
0001
1000
0001
,
0100
0000
0001
0000
,
0100
0000
0010
0000
,
1000
0000
0100
0000
,
1000
0001
1000
0001
,
0010
0000
0100
0000
,
0010
0000
0100
0000
,
1000
0000
0001
0000
,
0100
0001
0100
0001
,
1000
0000
0100
0000
,
0010
0000
0100
0000
,
1000
0000
0001
1000
,
0001
0000
1001
0000
,
0100
0000
0110
0000
,
0020
0000
0000
0000
,
0030
0220
0000
0000
,
0000
0000
0330
0000
;

//---------------dance-single - ----------------
#NOTES:
     dance-single:
     :
     Medium:
     6:
     0.394,0.454,0.293,0.604,0.009:
2001
0000
0000
0000
,
3200
0000
0000
0000
,
0320
0000
0000
0000
,
0032
0000
0000
0000
,
1003
0100
1000
0000
,
0002
0000
0203
0000
,
0301
1000
0001
0000
,
0020
0000
0032
0000
,
1003
0100
1000
0000
,
0200
0000
0320
0000
,
0031
0000
1000
0000
0001
0000
0000
1000
,
0100
0100
0100
0110
,
0101
0001
0100
0010
,
0100
0000
0001
0000
1000
0100
1000
0000
,
0010
0100
0001
0010
,
0100
0000
1000
0000
0010
0100
0010
0000
,
1001
0000
0001
1000
0100
0000
1000
0000
,
0010
0000
0100
0001
0010
0001
0100
0000
,
0001
0010
0100
1000
,
0010
0100
0010
0000
1000
0001
0010
0000
,
2002
0000
0000
3003
,
0100
1000
0100
1000
0001
0100
0001
0100
,
0001
1000
0100
0010
,
0001
1000
0010
0000
1000
0010
0100
0000
,
1001
0010
0100
1000
,
0010
1000
0010
1000
0001
0010
0001
0000
,
1001
0000
0000
1001
0000
0000
0000
0000
,
1100
0000
0000
1100
0000
0000
0000
0000
,
0011
0000
0011
0000
,
1001
0000
1001
0000
,
0110
0010
0100
0010
,
1000
0100
0010
0001
,
0110
0000
0110
0000
,
0101
0000
0101
0000
,
1010
0000
1010
0000
,
2002
0000
0000
3003
,
1001
0002
0023
0230
,
0320
0032
0203
0320
,
0230
0302
0023
0230
,
2300
0001
0100
3001
,
1001
2000
3020
0230
,
0320
2030
3200
0320
,
0032
0023
0230
0320
,
0032
1000
0100
1003
,
1001
2000
3002
0203
,
0302
2003
3200
0320
,
0032
0023
0230
0320
,
0032
1000
0010
1003
,
1001
0002
2003
3200
,
2300
3002
0203
0320
,
2030
3020
0230
0320
,
2030
0001
0010
3001
,
1001
0000
0000
0000
1000
0000
0000
0000
1100
0000
0000
0100
0000
0000
0000
0000
,
1001
0000
0000
0000
0100
0000
0000
0000
0101
0000
0000
0100
0000
0000
0001
0000
,
1000
1000
1000
1000
,
0000
0220
0000
0000
,
0000
0000
0330
0000
;

//---------------dance-single - ----------------
#NOTES:
     dance-single:
     :
     Hard:
     10:
     0.536,0.507,0.274,0.378,0.420: // measure 1
1001
0002
0023
0230
,  // measure 2
0320
0032
0023
0032
,  // measure 3
2003
3020
0230
0320
,  // measure 4
2030
0001
0001
3001
,  // measure 5
1000
0000
0001
0000
0100
0000
0000
0200
0000
0000
0000
0000
0301
0000
0000
0000
,  // measure 6
1000
0100
0010
0000
0001
1000
0001
0000
,  // measure 7
1000
0000
0001
0000
0010
0000
0000
0020
0000
0000
0000
0000
0130
0000
0000
0000
,  // measure 8
1000
0000
0010
0000
0100
0000
0000
0200
0000
0000
0000
0000
0301
0000
0000
0000
,  // measure 9
1001
0000
0000
0000
1000
0000
0000
2000
0000
0000
0000
0000
3100
0000
0000
0000
,  // measure 10
0010
0001
0100
0000
0001
1000
0001
0000
,  // measure 11
1000
0000
0100
0000
0010
0000
0000
0020
0000
0000
0000
0000
0130
0000
1000
0001
,  // measure 12
1000
0002
0000
0000
0100
0000
0000
0100
0000
0000
0103
0000
0110
0000
0000
0000
,  // measure 13
1001
0000
0000
0000
2000
0000
0000
0020
0000
0000
0000
0000
0000
0000
0000
0000
,  // measure 14
3030
0000
1000
0001
0010
0001
1000
0000
,  // measure 15
0100
0000
0000
0010
0000
0000
0200
0000
0000
0000
1300
0000
0000
0000
0010
0000
,  // measure 16
0010
0000
0000
0000
0100
0000
0000
0001
0000
0000
0020
0000
0000
0000
0031
0000
,  // measure 17
1001
0000
0000
0000
0002
0000
0000
0020
0000
0000
0000
0000
0000
0000
0000
0000
,  // measure 18
0033
0000
0001
1000
0010
1000
0001
0000
,  // measure 19
1000
0000
0000
0100
0000
0000
2000
0000
0000
0000
3001
0000
0000
0000
1000
0000
,  // measure 20
1000
0000
0000
0000
0010
0000
0000
0100
0000
0000
0002
0000
0000
0000
1003
0000
,  // measure 21
2100
0100
0100
3100
,  // measure 22
1000
0001
0100
1000
0100
0001
1000
0010
,  // measure 23
0100
0000
0000
0001
0000
0000
0200
0000
0000
0000
0310
0000
0000
0000
1000
0000
,  // measure 24
1000
0000
0000
0000
0100
0000
0000
1000
0000
0000
0002
0000
0000
0000
0103
0000
,  // measure 25
0102
0100
0100
0103
,  // measure 26
0001
1000
0100
0001
0100
1000
0001
0000
,  // measure 27
0101
0000
0000
0101
0000
0000
1001
0000
0000
0010
0100
0010
0000
0000
0000
0000
,  // measure 28
1010
0000
0000
0000
1010
0000
0000
1001
0000
0000
0000
0100
0010
0100
0000
0000
,  // measure 29
0001
0000
0100
0000
0001
0000
1000
0000
1100
0000
0000
1100
0000
0000
0000
0000
,  // measure 30
1000
0000
0010
0000
1000
0000
0001
0000
0011
0000
0000
0011
0000
0000
0000
0000
,  // measure 31
0010
0100
1000
0100
0010
0000
0100
0010
,  // measure 32
0001
0010
0100
1000
0001
0000
0100
0000
,  // measure 33
0110
0000
0000
0000
0001
0000
0100
0000
0101
0000
0000
0101
0000
0000
0000
0000
,  // measure 34
1000
0000
0010
0000
0100
0000
0010
0000
1010
0000
0000
1010
0000
0000
0000
0000
,  // measure 35
0001
0000
0010
0000
0100
0000
0010
0000
0001
0000
0000
0000
1000
0000
0001
1000
,  // measure 36
0001
2000
0000
0000
0100
0000
0000
0100
0000
0000
3100
0000
0000
0000
0000
0000
,  // measure 37
1001
0000
0000
0000
1000
0000
0000
1000
0100
0000
0000
0100
0010
0000
0000
0001
,  // measure 38
0100
0000
0000
0100
0001
0000
0000
0001
1000
0000
0000
1000
0001
0000
0000
0010
,  // measure 39
0001
0000
0000
0001
0100
0000
0000
0100
0010
0000
0000
0010
1000
0000
0000
1000
,  // measure 40
0002
0000
0010
0000
0000
0010
0000
0000
0010
0000
0000
0010
0000
0000
0013
0000
,  // measure 41
1001
0000
0000
0000
0001
0000
0000
0001
0100
0000
0000
0100
0010
0000
0000
1000
,  // measure 42
0100
0000
0000
0100
1000
0000
0000
1000
0001
0000
0000
0001
1000
0000
0000
0100
,  // measure 43
0010
0000
0000
0010
0001
0000
0000
0001
0100
0000
0000
0100
0010
0000
0000
0010
,  // measure 44
2000
0000
0010
0000
0000
0010
0000
0000
0010
0000
0000
0010
0000
0000
3010
0000
,  // measure 45
1001
0000
0000
0000
0001
0000
0000
0001
1000
0000
0000
1000
0100
0000
0000
0100
,  // measure 46
0010
0000
0000
0001
0100
0000
0000
0100
0010
0000
0000
0010
1000
0000
0000
0100
,  // measure 47
0010
0000
0000
0010
0001
0000
0000
0001
0010
0000
0000
0010
0100
0000
0000
0100
,  // measure 48
2000
0000
0010
0000
0000
0010
0000
0000
0010
0000
0000
0010
0000
0000
3010
0000
,  // measure 49
1001
0000
0000
0000
1000
0000
0000
1000
0001
0000
0000
0001
0010
0000
0000
0100
,  // measure 50
0010
0000
0000
0010
0001
0000
0000
0001
0100
0000
0000
0100
0010
0000
0000
0010
,  // measure 51
1000
0000
0000
1000
0001
0000
0000
0001
0010
0000
0000
0010
0100
0000
0000
0100
,  // measure 52
2000
0000
0010
0000
0000
0010
0000
0000
0010
0000
0000
0010
0000
0000
3010
0000
,  // measure 53
1002
0000
0000
0000
1000
0000
0000
0000
1003
0100
1000
0001
0000
0000
0000
0000
,  // measure 54
2001
0000
0000
0000
0001
0000
0000
0000
3001
0100
0001
1000
0000
0000
0100
1000
,  // measure 55
0100
2000
0000
0000
0001
0000
0000
0001
0000
0000
0001
0000
0001
0000
0000
3001
,  // measure 56
0000
0220
0000
0000
,  // measure 57
0000
0000
0330
0000
;

//---------------dance-single - ----------------
#NOTES:
     dance-single:
     :
     Challenge:
     12:
     0.640,0.614,0.312,0.123,0.713: // measure 1
0002
0000
1000
0000
0000
0000
1000
0000
0000
0000
1000
0000
0000
0000
1003
0001
,  // measure 2
2000
0000
0010
0000
0000
0000
0010
0000
0000
0000
0010
0000
0000
0000
3010
0100
,  // measure 3
0020
0000
1000
0000
0000
0000
1000
0000
0000
0000
1000
0000
0000
0000
1030
0001
,  // measure 4
2000
0000
0001
0000
0000
0000
0001
0000
0000
0000
3001
0100
0000
0100
0001
1000
,  // measure 5
0001
0000
1000
0000
0200
0000
0000
0010
0000
0000
0310
0000
0000
0000
0001
0100
,  // measure 6
0001
0000
0010
0000
0100
0000
0000
0000
1000
0000
0010
0000
0100
0000
0010
0100
,  // measure 7
0010
0000
1000
0000
0200
0000
0000
0010
0000
0000
0310
0000
0000
0000
0001
0100
,  // measure 8
0001
0000
0100
0000
0020
0000
0000
1000
0000
0000
1030
0000
0000
0000
0001
1000
,  // measure 9
0001
0000
0010
0000
0200
0000
0000
1000
0000
0000
1300
0000
0000
0000
0001
0100
,  // measure 10
0001
0000
0010
0000
0100
0000
0000
0000
1000
0000
0010
0000
0100
0000
0001
1000
,  // measure 11
0001
0000
0100
0000
0020
0000
0000
0100
0000
0000
0130
0000
0000
0000
0001
0100
,  // measure 12
0001
1000
0000
0000
0100
0000
1000
0100
0000
0100
0010
0000
0110
0000
0000
0000
,  // measure 13
1001
0000
0000
0000
0100
0000
0000
0100
0000
0000
0100
0000
0001
0000
0010
0000
,  // measure 14
0100
0000
0000
0000
0010
0000
0000
0010
0000
0000
0010
0000
0001
0000
0100
0000
,  // measure 15
0010
0000
0000
0010
0000
0000
0110
0000
0000
0000
1010
0000
0000
0000
1000
0000
,  // measure 16
0001
0000
0000
0000
0100
0000
0000
0100
0000
0000
0110
0000
0000
0000
0101
0000
,  // measure 17
1001
0000
0000
0000
0010
0000
0000
0010
0000
0000
0010
0000
1000
0000
0100
0000
,  // measure 18
0010
0000
0000
0000
0100
0000
0000
0100
0000
0000
0100
0000
1000
0000
0010
0000
,  // measure 19
0100
0000
0000
0100
0000
0000
0110
0000
0000
0000
0101
0000
0000
0000
0001
0000
,  // measure 20
1000
0000
0000
0000
0010
0000
0000
0010
0000
0000
0110
0000
0000
0000
1010
0000
,  // measure 21
1001
0000
0000
0000
0001
0000
0100
0010
0000
0000
0100
0000
0001
0000
0010
0100
,  // measure 22
0000
1000
0010
1000
0000
0001
0100
0001
0000
1000
0001
0000
0010
0000
0100
0000
,  // measure 23
1000
0000
0000
1000
0000
0000
1100
0000
0000
0000
0110
0000
0000
0000
1000
0000
,  // measure 24
0001
0000
0000
0000
0010
0000
0000
0010
0000
0000
0110
0000
0000
0000
0101
0000
,  // measure 25
1001
0000
0000
0000
1000
0000
0100
0010
0000
0000
0100
0000
1000
0000
0010
0100
,  // measure 26
0000
0001
0010
0001
0000
1000
0100
1000
0000
0001
1000
0001
0100
0001
1000
0000
,  // measure 27
1100
0000
0000
0011
0000
0000
1100
0000
0000
0100
0010
0100
0010
0000
1000
0001
,  // measure 28
1000
0000
0000
0000
1001
0000
0000
0101
0000
0000
0000
0010
0100
0010
0000
1000
,  // measure 29
0001
0000
0010
0000
0100
0000
1000
0000
0010
1000
0001
0010
0000
0000
0000
0000
,  // measure 30
0001
0000
0100
0000
0010
0000
1000
0000
0100
1000
0001
0100
0000
0000
0000
0000
,  // measure 31
0001
0000
0100
0000
0001
1000
0000
1000
0000
1000
0001
0000
1000
0000
0100
0010
,  // measure 32
0100
0000
1000
0000
0010
0100
0000
0100
0000
0100
0010
0000
1000
0001
1000
0000
,  // measure 33
1001
0000
0000
0000
1100
0000
0000
0000
0100
0010
0001
0100
0000
0000
0000
0000
,  // measure 34
0010
0000
1000
0000
0100
0000
0010
0000
0001
0100
0010
0100
0000
0000
0000
0000
,  // measure 35
0001
0000
1000
0000
0010
0100
0000
0100
0000
0100
0010
0000
1000
0000
0001
1000
,  // measure 36
0001
0010
0000
0000
0001
0000
0010
0100
0000
0100
1000
0000
0002
0000
0003
0000
,  // measure 37
1001
0000
0000
0001
0100
0000
0000
0100
0010
0000
0000
0010
1000
0000
0001
1000
,  // measure 38
0001
0000
0000
0001
0010
0000
0000
0010
0100
0000
0000
0100
0010
0000
0001
1000
,  // measure 39
0001
0000
0000
0001
0100
0000
0000
0100
0010
0000
0000
0010
1000
0000
0100
0010
,  // measure 40
0100
0000
1000
0000
0000
1010
0000
0000
0010
0000
0000
0110
0000
0000
0100
0001
,  // measure 41
0100
0000
0000
0100
0001
0000
0000
0001
1000
0000
0000
1000
0100
0000
1000
0001
,  // measure 42
1000
0000
0000
1000
0100
0000
0000
0100
0010
0000
0000
0010
0001
0000
0100
0010
,  // measure 43
0100
0000
0000
0100
0010
0000
0000
0010
1000
0000
0000
1000
0100
0000
1000
0001
,  // measure 44
1000
0000
0001
0000
0000
0011
0000
0000
0010
0000
0000
0110
0000
0000
0010
1000
,  // measure 45
0010
0000
0000
0010
1000
0000
0000
1000
0100
0000
0000
0100
0010
0000
0100
1000
,  // measure 46
0100
0000
0000
0100
1000
0000
0000
1000
0001
0000
0000
0001
0100
0000
0010
1000
,  // measure 47
0010
0000
0000
0010
0100
0000
0000
0100
0001
0000
0000
0001
1000
0000
0100
1000
,  // measure 48
0100
0000
0010
0000
0000
0110
0000
0000
0100
0000
0000
0101
0000
0000
0001
1000
,  // measure 49
0001
0000
0000
0001
0100
0000
0000
0100
1000
0000
0000
1000
0100
0000
0010
0100
,  // measure 50
0010
0000
0000
1000
0100
0000
0000
0100
0001
0000
0000
0001
0100
0000
0010
0100
,  // measure 51
0010
0000
0000
1000
0100
0000
0000
0100
0001
0000
0000
0001
0100
0000
0010
0100
,  // measure 52
0010
0000
1000
0000
0000
1001
0000
0000
0001
0000
0000
0011
0000
0000
0001
0010
,  // measure 53
0200
0000
1000
0000
0000
1000
0000
0000
1300
0001
0100
0010
0000
0000
0100
0001
,  // measure 54
0200
0000
0001
0000
0000
0001
0000
0000
0301
1000
0100
0010
0000
0000
0001
0100
,  // measure 55
0001
1000
0000
0000
0100
0000
1000
0100
0000
0100
0010
0000
0001
0000
0001
0100
,  // measure 56
0000
0000
0010
0100
0020
0000
0000
0000
0000
0000
0000
0000
0000
0000
0000
0000
,  // measure 57
0000
0000
0030
0000
;

//---------------dance-single - ----------------
#NOTES:
     dance-single:
     :
     Beginner:
     2:
     0.104,0.209,0.094,0.000,0.000:
1000
0000
0000
0000
,
0000
0000
0000
0000
,
0001
0000
0000
0000
,
0000
0000
0000
0000
,
1000
0000
0000
0000
,
0100
0000
0000
0000
,
0010
0000
0000
0000
,
0100
0000
0000
0000
,
1000
0000
0000
0000
,
0001
0000
0000
0000
,
0100
0000
0000
0000
,
0001
0000
0000
0000
,
1000
0000
0000
0000
,
0100
0000
0000
0000
,
1000
0000
0000
0000
,
0100
0000
0000
0000
,
0010
0000
0000
0000
,
0001
0000
0000
0000
,
0010
0000
0000
0000
,
0100
0000
0000
0000
,
0010
0000
0000
0000
,
0001
0000
0000
0000
,
1000
0000
0000
0000
,
0100
0000
0000
0000
,
0010
0000
0000
0000
,
0100
0000
0000
0000
,
1001
0000
0000
0000
,
0001
0000
0000
0000
,
1001
0000
0000
0000
,
1000
0000
0000
0000
,
0110
0000
0000
0000
,
0010
0000
0000
0000
,
0110
0000
0000
0000
,
0100
0000
0000
0000
,
1001
0000
0000
0000
,
0001
0000
0000
0000
,
1000
0000
0100
0000
,
1000
0000
0100
0000
,
1000
0000
0100
0000
,
1000
0000
0000
0000
,
0001
0000
0100
0000
,
0001
0000
0100
0000
,
0001
0000
0100
0000
,
0001
0000
0000
0000
,
0010
0000
0100
0000
,
0010
0000
0100
0000
,
0010
0000
0100
0000
,
0010
0000
0000
0000
,
0001
0000
1000
0000
,
0001
0000
1000
0000
,
0001
0000
1000
0000
,
0001
0000
0000
0000
,
1001
0000
1001
0000
,
1001
0000
1001
0000
,
0000
0000
0000
0000
,
0000
0110
0000
0000
;
