#TITLE:La Señorita Virtual;
#SUBTITLE:(FROM NONSTOP MEGAMIX);
#ARTIST:2MB;
#TITLETRANSLIT:La Senorita Virtual;
#SUBTITLETRANSLIT:;
#ARTISTTRANSLIT:;
#CREDIT:DigiMindAxel;
#BANNER:La Senorita Virtual (FROM NONSTOP MEGAMIX).png;
#BACKGROUND:La Senorita Virtual (FROM NONSTOP MEGAMIX)-bg.png;
#LYRICSPATH:La Senorita Virtual (FROM NONSTOP MEGAMIX).lrc;
#CDTITLE:Konami original REMIX.png;
#MUSIC:La Senorita Virtual (FROM NONSTOP MEGAMIX).mp3;
#METERTYPE:DDR X;
#OFFSET:-6.442;
#SAMPLESTART:26.191;
#SAMPLELENGTH:12.000;
#SELECTABLE:YES;
#BPMS:0.000=182.000;
#STOPS:;
#BGCHANGES:;

//---------------dance-single - ----------------
#NOTES:
     dance-single:
     :
     Easy:
     7:
     0.370,0.515,0.418,0.162,0.000: // measure 1
0001
1000
0001
1000
,  // measure 2
0010
0100
0010
0100
,  // measure 3
0001
0010
0100
1000
,  // measure 4
0100
0100
0100
0100
,  // measure 5
1000
0100
0010
0001
,  // measure 6
0100
0010
0100
0010
,  // measure 7
1000
0001
0010
0100
,  // measure 8
2000
0000
0000
0000
,  // measure 9
3001
1000
0001
0000
,  // measure 10
0100
0010
0100
0010
,  // measure 11
1000
0100
1000
0000
,  // measure 12
0001
0100
0001
0100
,  // measure 13
0001
1000
0001
0000
,  // measure 14
0010
0001
0010
0001
,  // measure 15
0100
0010
0100
0000
,  // measure 16
0220
0000
0000
0330
,  // measure 17
1001
1000
0001
1000
,  // measure 18
0100
0010
0001
0000
,  // measure 19
1000
0001
1000
0001
,  // measure 20
0010
0100
1000
0000
,  // measure 21
1001
0000
0110
0000
,  // measure 22
1001
0001
1000
0001
,  // measure 23
0010
0100
1000
0010
,  // measure 24
0200
0000
0000
0000
,  // measure 25
0310
0100
0001
0010
,  // measure 26
0100
1000
0100
0010
,  // measure 27
0100
0010
0001
1000
,  // measure 28
0001
0100
0010
1000
,  // measure 29
0010
0100
0001
1000
,  // measure 30
0001
0010
0001
1000
,  // measure 31
0100
1000
0001
1000
,  // measure 32
1001
0000
0000
0000
,  // measure 33
1001
1001
1001
0010
,  // measure 34
0100
0101
0101
1001
,  // measure 35
1001
0001
0100
0001
,  // measure 36
0110
0110
1000
0001
,  // measure 37
1001
1001
1001
0000
,  // measure 38
1100
1100
1100
1000
,  // measure 39
0001
0010
0100
1000
,  // measure 40
0110
0110
0001
0010
,  // measure 41
2002
0000
0000
0000
,  // measure 42
0000
0000
0000
3003
,  // measure 43
0220
0000
0000
0000
,  // measure 44
0000
0000
0000
0330
,  // measure 45
0202
0000
0000
0303
,  // measure 46
2020
0000
0000
3030
,  // measure 47
1001
0000
1100
0000
,  // measure 48
0011
0011
0001
1000
;

//---------------dance-single - ----------------
#NOTES:
     dance-single:
     :
     Medium:
     10:
     0.547,0.573,0.525,0.189,0.000: // measure 1
1010
0000
1000
0010
0000
0010
0100
0000
,  // measure 2
0001
0000
0010
0001
0000
0001
1000
0000
,  // measure 3
0100
0000
1000
0100
0000
0100
0010
0000
,  // measure 4
0001
0000
0100
0010
0000
0010
1000
0000
,  // measure 5
1001
0000
0001
1000
0000
1000
0100
0000
,  // measure 6
0010
0001
1000
0010
0000
0010
1000
0000
,  // measure 7
0100
0010
0001
1000
0000
1000
0001
0000
,  // measure 8
2002
0000
0000
3003
,  // measure 9
0110
0110
0110
0100
,  // measure 10
0001
0100
0010
0100
0001
0010
0100
1000
,  // measure 11
0010
0000
0100
0001
0000
0001
1000
0000
,  // measure 12
0001
0000
1000
0100
0000
0100
0010
0000
,  // measure 13
1001
1001
1001
1000
,  // measure 14
0010
0100
0001
0010
0100
1000
0001
0100
,  // measure 15
0001
0000
0010
0100
0000
1000
0100
0000
,  // measure 16
2002
0000
0000
3003
,  // measure 17
1100
0000
0011
0000
1001
0000
0001
0100
,  // measure 18
0010
0100
0000
0101
0000
0000
0000
2000
,  // measure 19
0000
3001
1000
0100
1000
0100
0010
0001
,  // measure 20
0000
1000
0000
0110
0000
0000
0000
0200
,  // measure 21
1000
0000
0300
0020
0001
0000
0030
0001
,  // measure 22
1000
0100
0000
0001
0000
0100
0000
1000
,  // measure 23
0000
1001
0000
0000
1000
0001
0010
0001
,  // measure 24
0000
0011
0000
2002
0000
0000
3003
0000
,  // measure 25
0001
1000
0100
1000
0000
1000
0100
0000
,  // measure 26
0010
0001
0100
0010
0000
0010
0100
0000
,  // measure 27
0001
1000
0100
1000
0000
1000
0100
0000
,  // measure 28
0010
0001
0100
0001
0000
0001
0100
0000
,  // measure 29
0001
1000
0100
1000
0000
1000
0100
0000
,  // measure 30
1000
0100
0010
0100
0000
0100
0010
0000
,  // measure 31
0001
0100
0010
0100
0000
0100
0010
0000
,  // measure 32
2002
0000
0000
3003
,  // measure 33
1100
1100
1100
1001
,  // measure 34
0001
1000
0100
0010
0001
0010
0100
1000
,  // measure 35
0001
0000
0100
0000
0010
0000
0200
0001
,  // measure 36
0000
0001
0000
0301
1000
0100
0010
0000
,  // measure 37
0101
0101
0101
1001
,  // measure 38
1000
0010
0100
0001
0100
0010
1000
0000
,  // measure 39
0100
0000
0010
0000
0100
0000
2000
0001
,  // measure 40
0000
0001
0000
3001
1000
0100
0010
0001
,  // measure 41
1000
1001
0110
0000
,  // measure 42
0000
0010
0100
0001
0010
0001
0100
0000
,  // measure 43
1001
1001
0110
0000
,  // measure 44
0000
0000
0000
0000
,  // measure 45
1001
0101
0101
0000
,  // measure 46
1001
1010
1010
0000
,  // measure 47
0011
0000
0001
1000
0100
0000
0001
0100
,  // measure 48
1000
0000
0010
0100
0001
0010
0100
2000
,  // measure 49
0000
0000
0000
0000
,  // measure 50
0000
0000
0000
0000
,  // measure 51
3000
0000
0000
0000
;

//---------------dance-single - ----------------
#NOTES:
     dance-single:
     :
     Hard:
     12:
     0.635,0.606,0.499,0.081,0.000: // measure 1
0001
1000
0100
1000
0000
1000
0001
0000
,  // measure 2
0100
0001
1000
0100
0000
0100
0010
0000
,  // measure 3
0001
1000
0010
1000
0000
1000
0001
0000
,  // measure 4
0010
0100
1000
0010
0000
0010
0100
0000
,  // measure 5
1001
1000
0001
0100
0001
0010
0100
0000
,  // measure 6
1000
0100
0010
0010
0010
0100
1000
0000
,  // measure 7
0001
1000
0100
1000
0010
1000
0100
0000
,  // measure 8
2002
0000
0000
3003
,  // measure 9
0101
0000
0110
0000
0101
0001
1000
0000
,  // measure 10
0001
0010
1000
0010
0001
0100
1000
0100
,  // measure 11
0001
0000
1000
0001
0000
0001
1000
0100
,  // measure 12
0000
0001
0000
0100
1000
0010
0100
0001
,  // measure 13
1001
0000
1100
0000
1001
0001
0100
0000
,  // measure 14
0001
0010
1000
0010
0001
0100
1000
0100
,  // measure 15
0001
0000
0010
0100
0000
0100
1000
0001
,  // measure 16
0200
0000
0001
0001
0000
0001
0301
0000
,  // measure 17
0100
0010
0100
1000
0100
0001
0010
0100
,  // measure 18
0010
0001
0000
0101
0000
0100
0001
1000
,  // measure 19
0100
0010
0100
1000
0010
0001
0010
0100
,  // measure 20
0000
0110
0000
0101
0000
0100
0001
1000
,  // measure 21
1100
0000
0001
1000
1100
0000
0100
1000
,  // measure 22
0100
0010
0000
0011
0000
1100
0000
1001
,  // measure 23
0000
1001
0000
0000
0001
1000
0100
0010
,  // measure 24
0001
0000
0100
0000
0100
0100
0100
0100
,  // measure 25
0001
1000
0100
0010
0000
0010
0100
0000
,  // measure 26
1000
0001
0100
0001
0000
0001
1000
0000
,  // measure 27
0100
1000
0010
0100
0000
0100
0001
0000
,  // measure 28
0010
0100
1000
1000
1000
0100
0010
0000
,  // measure 29
0001
1000
0100
1000
0000
1000
0001
0000
,  // measure 30
0100
0001
1000
0100
0000
0100
0010
0000
,  // measure 31
0001
1000
0010
1000
0000
1000
0001
0000
,  // measure 32
2002
0000
0000
3003
,  // measure 33
0110
0000
1001
0000
0110
0010
1000
0100
,  // measure 34
0010
0001
1000
1000
0001
0001
0100
0010
,  // measure 35
0100
0000
0001
1000
0000
0100
0000
0001
,  // measure 36
0000
0100
1000
0001
1000
0100
1000
0000
,  // measure 37
1001
0000
0110
0000
1001
0001
1000
0010
,  // measure 38
0100
0001
1000
1000
0001
0001
1000
0100
,  // measure 39
1000
0010
0100
0001
0000
0001
1000
0000
,  // measure 40
0010
0100
0010
0001
0010
1000
0100
0010
,  // measure 41
0011
0000
0001
0001
1000
0000
0001
0001
,  // measure 42
1000
0000
0001
0001
1000
0000
0001
0001
,  // measure 43
1001
0000
1000
1000
0001
0000
1000
1000
,  // measure 44
0001
0000
1000
1000
0001
0000
1000
1000
,  // measure 45
1001
0000
0011
0000
0011
0000
0100
0010
,  // measure 46
0110
0000
1010
0000
1010
0000
0100
0001
,  // measure 47
1001
0000
1000
0001
0101
0000
0001
1000
,  // measure 48
1100
0000
0011
0000
1001
1000
0010
0200
,  // measure 49
0000
0000
0000
0000
,  // measure 50
0000
0000
0000
0000
,  // measure 51
0300
0000
0000
0000
;

//---------------dance-single - ----------------
#NOTES:
     dance-single:
     :
     Beginner:
     4:
     0.179,0.192,0.135,0.000,0.000: // measure 1
0001
0000
1000
0000
,  // measure 2
0001
0000
1000
0000
,  // measure 3
0001
0000
1000
0000
,  // measure 4
0010
0000
0100
0000
,  // measure 5
0010
0000
0100
0000
,  // measure 6
0001
0000
0100
0000
,  // measure 7
0001
0000
1000
0000
,  // measure 8
0001
0000
0000
0000
,  // measure 9
1000
0001
1000
0000
,  // measure 10
0010
0000
0100
0000
,  // measure 11
0010
0000
0000
0000
,  // measure 12
0100
0000
0000
0000
,  // measure 13
0001
1000
0001
0000
,  // measure 14
0100
0000
0010
0000
,  // measure 15
0100
0000
0000
0000
,  // measure 16
0110
0000
0000
0000
,  // measure 17
1000
0000
1000
0000
,  // measure 18
1001
0000
0000
0000
,  // measure 19
0001
0000
0001
0000
,  // measure 20
1001
0000
0000
0000
,  // measure 21
1000
0000
0100
0000
,  // measure 22
0010
0000
0001
0000
,  // measure 23
0010
0000
0100
0000
,  // measure 24
1000
0000
0000
0000
,  // measure 25
0001
0000
0100
0000
,  // measure 26
0001
0000
0100
0000
,  // measure 27
0010
0000
1000
0000
,  // measure 28
0010
0000
1000
0000
,  // measure 29
0010
0000
0100
0000
,  // measure 30
0010
0000
0100
0000
,  // measure 31
0001
0000
1000
0000
,  // measure 32
1001
0000
0000
0000
,  // measure 33
0001
1000
0001
0000
,  // measure 34
0100
0000
0100
0000
,  // measure 35
0010
0000
0010
0000
,  // measure 36
1000
0000
1000
0000
,  // measure 37
0001
1000
0001
0000
,  // measure 38
0010
0000
0010
0000
,  // measure 39
0100
0000
0100
0000
,  // measure 40
1000
0000
0001
0000
,  // measure 41
1001
0000
0000
0000
,  // measure 42
0000
0000
0000
0000
,  // measure 43
0110
0000
0000
0000
,  // measure 44
0000
0000
0000
0000
,  // measure 45
1001
0000
0000
0000
,  // measure 46
1001
0000
0000
0000
,  // measure 47
0110
0000
1001
0000
,  // measure 48
0001
0000
1000
0000
;
