#TITLE:LOVE THIS FEELIN';
#SUBTITLE:;
#ARTIST:AKIRA YAMAOKA;
#TITLETRANSLIT:;
#SUBTITLETRANSLIT:;
#ARTISTTRANSLIT:;
#CREDIT:DigiMindAxel;
#BANNER:LOVE THIS FEELIN'.png;
#BACKGROUND:LOVE THIS FEELIN'-bg.png;
#LYRICSPATH:;
#CDTITLE:GUITARFREAKS & drummania.png;
#MUSIC:LOVE THIS FEELIN'.mp3;
#METERTYPE:DDR X;
#OFFSET:-6.800;
#SAMPLESTART:53.452;
#SAMPLELENGTH:12.000;
#SELECTABLE:YES;
#BPMS:0.000=185.000;
#STOPS:;
#BGCHANGES:-21.000=LOVE THIS FEELIN'.avi=1.000=1=1=0,
99999=-nosongbg-=1.000=0=0=0 // don't automatically add -songbackground-
;

//---------------dance-single - ----------------
#NOTES:
     dance-single:
     :
     Easy:
     6:
     0.329,0.341,0.264,0.101,0.000:
1000
0000
0001
0000
,
1000
0000
1001
1001
,
0020
0000
0230
0000
,
0310
0100
0001
1000
,
1001
0000
0000
0000
,
0000
0000
0000
0000
,
0001
0000
0100
0000
,
0001
0000
1000
0000
,
1001
0000
0000
0000
,
0000
0000
0000
0000
,
1001
0000
0000
0001
0000
0000
1001
0000
,
0000
1000
0000
0000
1001
0000
0000
0000
,
1000
0001
0010
0001
,
1000
0100
1000
0100
,
1000
0001
0100
0010
,
1000
0001
0100
0001
,
1000
0100
1000
0100
,
0010
0001
1000
0001
,
0100
0000
0100
0000
,
0010
0000
0010
0000
,
1000
0100
0010
0001
,
0001
1000
1000
0001
,
0100
0100
0100
0000
,
0010
0010
0010
0000
,
1000
0100
1000
0100
,
1000
0001
1000
0001
,
1000
1000
0001
0001
,
1000
0100
0010
0001
,
1001
0000
1001
0000
,
0110
0000
0110
0000
,
1000
0001
1000
0010
,
0100
0010
1000
0001
,
1001
0000
1001
0000
,
0110
0000
0110
0000
,
1000
0001
1000
0001
,
0010
0100
1000
0000
,
1002
0000
0000
0000
,
1003
0010
1000
0001
,
0010
0200
0000
2300
,
0000
3002
0000
1003
,
0100
0010
0100
1000
,
0001
1000
0010
0100
,
2002
0000
0000
0000
,
0000
0000
3003
0000
,
0010
0100
0010
1000
,
0001
1000
0100
1000
,
0001
1001
0000
0110
,
0000
1001
0000
0000
,
0001
0010
0100
1000
,
0100
0010
0001
1000
,
0000
1000
0000
0000
0001
0000
0000
0001
,
0000
0000
0100
0000
0000
0100
0000
0000
,
0010
0000
0000
0010
0000
0000
1000
0000
,
0000
0100
0000
0000
0010
0000
0000
0001
,
0000
1001
0000
0000
;

//---------------dance-single - ----------------
#NOTES:
     dance-single:
     :
     Hard:
     11:
     0.600,0.545,0.829,0.163,0.000:
1001
1001
1100
1100
,
0010
0100
0010
0000
1000
0001
0010
0000
,
1001
1001
0101
0101
,
0010
0100
0010
0000
1000
0001
0010
0000
,
1002
0000
0000
0100
0000
0000
1003
0000
,
0000
0001
1000
0001
1000
0100
0010
0001
,
1000
0000
0000
1001
0000
1100
0000
1001
,
0000
0000
0010
0000
0100
0001
0100
0001
,
2000
0000
0000
0100
0000
0000
3001
0000
,
0000
1000
0001
1000
0001
0010
0100
0000
,
1001
0000
0000
0110
0000
0000
1001
0000
,
0000
0110
0000
0000
0101
0000
0000
0000
,
0001
1000
0001
1000
0001
1000
0001
0010
,
0100
0010
0001
0200
0000
0000
0310
0000
,
1000
0001
1000
0001
1000
0001
1000
0010
,
0100
0010
1000
0002
0000
0000
0103
0000
,
0001
0010
0001
0010
0001
0100
0010
0100
,
0001
1000
0100
0020
0000
0000
0130
0000
,
1000
0010
0100
0000
0010
0000
0110
0000
,
0100
0101
0001
1001
,
1000
0100
0010
0100
1000
0000
1000
0000
,
1001
0000
1001
0000
0001
0200
0000
0301
,
1000
1001
1001
0100
,
0110
0000
0110
0000
0010
1000
0100
0000
,
1000
0100
0010
0100
1000
0000
1000
0000
,
1001
0000
1001
0000
0010
0200
0000
0310
,
1000
0000
1010
0000
1010
0000
1000
0001
,
0020
0230
0320
0031
,
0100
0010
0000
0000
1000
0100
0000
0000
,
0010
0100
0000
0000
1000
0001
0000
0000
,
1001
1001
0110
0100
,
0001
0010
0100
1000
0100
0010
0001
0000
,
1000
0010
0000
0000
0100
0010
0000
0000
,
1000
0001
0000
0010
0000
0100
0000
0000
,
1100
0000
1100
0000
1100
0000
0010
0001
,
0100
0010
0110
0110
,
1002
0000
0000
0100
0000
0103
0000
0000
,
0001
1000
0001
0000
0000
0010
0001
0100
,
0000
0001
1000
0100
0000
0010
0100
1000
,
0000
0001
1000
0100
0000
0010
0100
1000
,
0010
0110
0101
0101
,
1010
0000
1010
0000
0000
1000
0001
0010
,
0000
1001
0000
0000
0110
0000
0000
1001
,
0000
0000
0110
0000
0000
0010
0100
0000
,
1002
0000
0000
0010
0000
0013
0000
0000
,
0001
1000
0002
0000
0000
1003
0100
0010
,
0000
0001
1000
0010
0000
1000
0100
0010
,
0000
0001
1000
0010
0000
1000
0100
0010
,
0100
1100
1100
0110
,
0110
0000
0101
0000
0000
0001
1000
0100
,
0000
1100
0000
0000
0011
0000
0000
1010
,
0000
0000
0101
0000
0000
0110
0000
0000
,
0110
0000
0000
1001
0000
0000
1001
0000
,
0000
1100
0000
0000
0011
0000
0000
1100
,
0000
1001
0000
0000
;

//---------------dance-single - ----------------
#NOTES:
     dance-single:
     :
     Challenge:
     13:
     0.691,0.722,0.591,0.226,0.195:
1000
0100
0010
0000
0001
1000
0010
0000
,
0110
0000
0110
0000
0010
0010
0010
0000
,
0100
1000
0010
0000
1000
0001
0100
0000
,
0110
0000
0110
0000
0100
0100
0100
0000
,
1001
0000
0000
1100
0000
0000
0011
0000
,
0000
0000
0001
1000
0001
0100
0010
1000
,
0002
0000
2003
0010
0000
3010
0000
1010
,
0000
0000
0000
1000
0000
0000
0001
0000
0000
0000
0000
0000
0001
0000
0000
0000
0000
0000
1000
0000
0100
0000
1000
0000
,
0001
0000
0000
0101
0000
0000
1010
0000
,
0000
0000
1000
0001
1000
0100
0010
0001
,
1001
0000
0000
0110
0000
0000
1001
0000
,
0000
0110
0000
0000
1001
0000
0000
0000
,
0001
1000
0001
1000
0010
1000
0001
1000
,
0001
0010
0100
0010
0001
0100
0010
0000
,
1000
0001
1000
0001
0010
0001
1000
0001
,
1000
0010
0100
0010
1000
1000
0001
0001
,
1000
0100
1000
0001
1000
0001
1000
0010
,
1000
0001
0010
0100
0010
0001
0100
0010
,
1000
0100
0010
0000
1001
0000
1000
0000
,
0100
1000
0010
0000
0100
0100
0001
0001
,
1000
0100
1000
0010
0200
0000
0301
0000
,
1001
0000
1100
0000
0002
1000
0000
1003
,
0010
0100
0010
0100
0001
0000
0010
0100
,
1000
0100
0010
0001
2000
0001
0000
3001
,
1000
0010
1000
0001
0020
0000
0130
0000
,
1100
0000
0011
0000
0002
1000
0000
1003
,
0001
0100
0100
0001
0001
1000
0001
0010
,
0100
1000
0100
1000
0001
0100
0001
0100
0010
1000
0001
1000
,
0002
0010
0003
0000
2000
0100
3000
0000
,
0020
0100
0030
0000
0200
0010
0300
0000
,
1001
0000
1000
0010
1000
0001
0010
0001
,
1000
0000
0100
0000
0001
0000
0100
0000
1000
0000
0001
1000
0001
1000
0001
0000
,
0200
0010
0300
0000
0002
1000
0003
0000
,
2000
0001
3000
1001
0000
1001
0000
0000
,
1001
0000
1100
0000
0011
0000
0001
0010
,
1000
0010
0001
1000
0010
0100
0001
0000
,
1002
0000
0100
0100
0000
0103
0000
0001
,
1000
0100
1000
0001
0000
0001
1000
0010
,
0000
0000
1000
0001
1000
0000
0001
0000
0000
0000
0100
0010
0100
0000
0010
0000
,
0000
0000
1000
0001
1000
0000
0001
0000
0000
0000
1000
0100
1000
0000
0000
0000
,
1001
0000
0000
0001
0100
0000
0000
0100
0010
0000
0000
0010
0100
0000
0000
0100
,
0001
0000
0000
0001
1000
0000
0000
1000
0100
0000
0000
0100
1000
0000
0001
0000
,
0000
1001
0000
0000
0011
0000
0000
1001
,
0000
0000
1010
0000
0000
0010
0110
0000
,
2001
0000
0100
0100
0000
3100
0000
1000
,
0001
0100
0001
1000
0000
1000
0100
0010
,
0000
0000
0001
1000
0001
0000
1000
0000
0000
0000
0001
0010
0001
0000
0010
0000
,
0000
0000
0001
1000
0001
0000
1000
0000
0000
0000
0010
1000
0010
0000
0000
0000
,
1001
0000
0000
1000
0100
0000
0000
0100
0010
0000
0000
0010
0001
0000
0000
0001
,
1000
0100
0010
0001
0010
0100
1000
0001
,
0000
0101
0000
0000
1010
0000
0000
0101
,
0000
0000
1010
0000
0000
0110
0000
0000
,
0110
0000
0000
1001
0000
0000
1001
0000
,
0000
0011
0000
0000
1100
0000
0000
0011
,
0000
2002
0000
3003
;

//---------------dance-single - ----------------
#NOTES:
     dance-single:
     :
     Medium:
     9:
     0.510,0.477,0.503,0.075,0.000:
1000
1000
0010
0010
,
1001
0000
1001
0000
0001
1000
0001
0000
,
0010
0010
0001
0001
,
1001
0000
1001
0000
0010
0100
0010
0000
,
1000
0000
0000
0100
0000
0000
0010
0000
,
0000
0001
0000
0000
1000
0000
1000
0000
,
1001
0000
0000
0001
0000
1000
0000
0001
,
0000
0100
0010
0110
,
0001
0000
0000
0100
0000
0000
0010
0000
,
0000
1000
0000
0000
0001
0000
0001
0000
,
1001
0000
0000
1001
0000
0000
0110
0000
,
0000
0110
0000
0000
1001
0000
0000
0000
,
0001
1000
0001
0000
1000
0100
1000
0000
,
0001
0010
0001
0000
0100
0000
0110
0000
,
0110
0000
0010
1000
0010
0000
1000
0001
,
1000
0000
0001
0010
0001
0000
1001
0000
,
0001
0100
0001
0000
0010
0100
0010
0000
,
0001
1000
0001
0000
0010
0000
0100
0000
,
1000
0100
1000
0001
,
0100
0000
0001
0000
1000
0100
0010
0001
,
1000
0000
0100
0010
0100
0000
1000
0000
,
0002
0000
2003
0000
3001
1000
0000
1000
,
0001
0000
0100
0000
0010
0100
0010
0000
,
2000
0000
3002
0000
1003
0001
0000
0001
,
1000
0100
0010
0001
,
2000
0000
3002
0000
1003
0001
0000
0001
,
1000
0000
0010
1000
0100
0000
1000
0001
,
1000
0100
0010
0001
,
1001
0000
1001
0000
,
0110
0000
0110
0000
,
0010
0100
0010
0000
1000
0100
1000
0000
,
0001
0010
0001
0000
1000
0001
1000
0000
,
1001
0000
1001
0000
,
0110
0000
0000
0110
0000
0110
0000
0000
,
0100
1000
0100
0000
0010
0100
0010
0000
,
0001
1000
0001
1000
0010
0000
0100
0000
,
0110
0000
0000
1001
0000
1001
0000
0000
,
1000
0001
0010
0001
0000
1000
0010
0100
,
0000
0001
1000
0000
0000
1000
0001
0000
,
0000
0100
0010
0000
0000
0010
0100
0000
,
0001
0010
0001
0000
0010
0100
0010
0000
,
0100
1000
0100
0010
0000
0001
1000
0010
,
0000
0110
0000
0000
0110
0000
0000
1001
,
0000
0000
1001
0000
0000
1001
0000
0000
,
1001
0000
0001
1000
0001
0000
1000
0000
,
0010
0100
0010
1000
0000
0100
0010
0001
,
0000
1000
0001
0000
0000
0001
1000
0000
,
0000
0010
0100
0000
0000
0100
0010
0000
,
1000
0100
1000
0000
0001
0100
0001
0000
,
0010
0100
0010
0001
0000
0100
0010
1000
,
0000
1001
0000
0000
1000
0000
0000
1001
,
0000
0000
0110
0000
0000
0100
0000
0000
,
0110
0000
0000
1001
0000
0000
1000
0000
,
0000
1001
0000
0000
0110
0000
0000
0010
,
0000
0110
0000
0000
;

//---------------dance-single - ----------------
#NOTES:
     dance-single:
     :
     Beginner:
     2:
     0.135,0.205,0.138,0.000,0.000: // measure 1
0001
0000
0001
0000
,  // measure 2
0001
0000
0000
0000
,  // measure 3
1000
0000
1000
0000
,  // measure 4
1000
0000
0000
0000
,  // measure 5
1001
0000
0000
0000
,  // measure 6
0000
0000
0000
0000
,  // measure 7
0010
0000
0000
0000
,  // measure 8
0000
0000
0000
0000
,  // measure 9
0110
0000
0000
0000
,  // measure 10
0000
0000
0000
0000
,  // measure 11
0100
0000
0000
0000
,  // measure 12
0000
0000
0000
0000
,  // measure 13
0001
0000
1000
0000
,  // measure 14
0001
0000
1000
0000
,  // measure 15
0001
0000
1000
0000
,  // measure 16
0001
0000
0000
0000
,  // measure 17
0100
0000
0001
0000
,  // measure 18
0100
0000
0001
0000
,  // measure 19
0100
0000
0000
0000
,  // measure 20
0000
0000
0000
0000
,  // measure 21
0010
0000
1000
0000
,  // measure 22
0010
0000
1000
0000
,  // measure 23
0001
0000
0000
0000
,  // measure 24
0000
0000
0000
0000
,  // measure 25
0010
0000
0001
0000
,  // measure 26
0010
0000
0001
0000
,  // measure 27
1000
0000
0000
0000
,  // measure 28
1000
0000
0000
0000
,  // measure 29
1001
0000
0000
0000
,  // measure 30
0000
0000
0000
0000
,  // measure 31
0100
0000
1000
0000
,  // measure 32
0100
0000
1000
0000
,  // measure 33
0010
0000
0000
0000
,  // measure 34
0000
0000
0000
0000
,  // measure 35
0100
0000
0100
0000
,  // measure 36
0100
0000
0100
0000
,  // measure 37
0110
0000
0000
0000
,  // measure 38
0000
0000
0000
0000
,  // measure 39
0000
0010
0000
0100
,  // measure 40
0000
0001
0000
0100
,  // measure 41
0001
0000
0000
0000
,  // measure 42
0000
0000
0000
0000
,  // measure 43
1001
0000
0000
0110
,  // measure 44
0000
0000
0000
0000
,  // measure 45
0100
0000
0000
0000
,  // measure 46
0010
0000
0000
0000
,  // measure 47
0000
1000
0000
0100
,  // measure 48
0000
0010
0000
0100
,  // measure 49
1000
0000
0000
0000
,  // measure 50
0001
0000
0000
0000
,  // measure 51
0000
1001
0000
0000
,  // measure 52
0000
0000
0000
0110
,  // measure 53
0000
0000
0000
1001
,  // measure 54
0000
0000
0110
0000
,  // measure 55
0000
0110
0000
0000
;
