#TITLE:リリーゼと炎龍レーヴァテイン;
#SUBTITLE:;
#ARTIST:黒猫ダンジョン;
#TITLETRANSLIT:LILIEZE TO ENRYUU LAEVATEINN;
#SUBTITLETRANSLIT:;
#ARTISTTRANSLIT:KURONEKO DUNGEON;
#CREDIT:DigiMindAxel;
#BANNER:LILIEZE TO ENRYUU LAEVATEINN.png;
#BACKGROUND:LILIEZE TO ENRYUU LAEVATEINN-bg.png;
#LYRICSPATH:;
#CDTITLE:REFLEC BEAT.png;
#MUSIC:LILIEZE TO ENRYUU LAEVATEINN.mp3;
#METERTYPE:DDR X;
#OFFSET:-5.280;
#SAMPLESTART:34.400;
#SAMPLELENGTH:12.000;
#SELECTABLE:YES;
#BPMS:0.000=200.000;
#STOPS:;
#BGCHANGES:;

//---------------dance-single - ----------------
#NOTES:
     dance-single:
     :
     Easy:
     7:
     0.282,0.305,0.173,0.109,0.000:
1000
0000
0001
0000
,
1000
0000
0001
0000
,
1000
0000
0001
0000
,
1000
0000
0000
0000
,
1001
0000
0010
0000
,
0010
0000
0010
0000
,
0110
0000
0100
0000
,
0100
0000
0100
0000
,
1001
0000
0001
0000
,
0001
0000
0001
0000
,
1001
0000
1000
0000
,
1000
0000
1000
0000
,
0001
0100
0001
0100
,
0002
0000
1000
0000
,
1003
0100
1000
0100
,
2000
0000
0001
0000
,
3001
0010
0001
0010
,
0002
0000
1000
0000
,
1003
0100
1000
0100
,
2000
0000
0001
0000
,
3001
1000
0001
0000
,
1000
0001
1000
0000
,
0001
1000
0001
0000
,
1000
0001
1000
0001
,
0000
0000
0100
0000
,
0010
0000
0100
0000
,
0010
0000
0100
0000
,
0001
0000
0100
0000
,
0001
0000
1000
0000
,
0100
0000
1000
0000
,
0100
0000
0010
0000
,
0100
0000
0010
0000
,
0001
0000
1001
0000
,
1000
0000
0001
0000
,
1000
0000
1001
0000
,
0001
0000
1000
0000
,
0001
0000
0110
0000
,
0100
0000
0010
0000
,
0100
0000
0110
0000
,
0010
0000
0100
0000
,
0010
0000
2002
0000
,
0000
0000
3003
0000
,
0000
0000
0220
0000
,
0000
0000
0330
0000
,
0000
0000
2002
0000
,
0000
0000
0000
3003
,
0000
0000
0220
0000
,
0000
0000
0000
0330
,
0000
0000
0010
0000
,
0100
0000
0001
1000
,
0001
0000
0010
0000
,
0001
0000
0100
0010
,
0100
0000
0001
0000
,
1000
0000
0100
0000
,
1000
0000
0100
0000
,
0010
0000
0100
0000
,
0010
0000
0001
0000
,
1001
0000
0000
0000
,
1001
0000
1001
0000
,
0000
0000
1000
0000
,
1001
0000
0001
0000
,
1001
0000
1000
0000
,
0001
0000
1000
0000
,
0100
0000
0010
0001
,
0010
0000
0100
0010
,
0100
0000
0010
0001
,
0010
0000
0100
0010
,
0100
0000
1000
0010
,
1000
0000
0010
0100
,
0010
0000
1000
0010
,
1000
0000
0010
0100
,
0010
0000
1000
0001
,
1000
0000
0100
1000
,
0100
0000
1000
0001
,
1000
0000
0001
0100
,
0001
0000
1000
0001
,
1000
0000
0100
0010
,
0100
0000
0010
0000
0001
0000
0000
1000
,
0000
0000
0001
0000
0000
1000
0000
0000
,
0001
0000
0000
0000
0100
0000
0000
0010
,
0000
0000
0100
0000
0000
0010
0000
0000
,
0100
0000
0000
0000
1001
0000
0000
0001
,
0000
0000
0001
0000
0000
0001
0000
0000
,
0001
0000
0000
0001
0000
0000
1001
0000
;

//---------------dance-single - ----------------
#NOTES:
     dance-single:
     :
     Medium:
     10:
     0.539,0.650,0.410,0.273,0.009:
0001
0100
0001
0100
,
0010
0100
0010
1000
,
0100
1000
0100
0010
,
0100
0010
0001
1000
,
1001
0000
1001
0000
,
0110
0000
0110
0000
,
0101
0000
0101
0000
,
1010
0000
1010
0000
,
1001
0000
1001
0000
,
0110
0000
0110
0000
,
1100
0000
1100
0000
,
0011
0000
0011
0000
,
0001
0010
0100
1000
,
0001
1000
0010
1000
0001
0000
1000
0000
,
0001
0100
0010
1000
,
0001
1000
0100
1000
0001
0000
1000
0000
,
0100
0010
0001
1000
,
0010
0100
0001
0100
0010
0000
1000
0000
,
0010
0100
0001
1000
,
0100
0010
0001
0010
0100
0000
1000
0000
,
0002
0100
0100
0103
,
0020
1000
1000
1030
,
0002
1000
1000
1003
,
0200
1000
1000
1300
,
0000
0000
1001
0001
,
0100
0001
0000
1000
0100
0000
1000
0001
,
0000
1000
0100
0000
0000
0000
1000
0000
,
0001
0100
0000
0001
1000
0000
0001
0100
,
0000
0001
0010
0000
1001
0000
1000
0000
,
0010
0100
0000
0001
0100
0000
0001
1000
,
0000
0100
0010
0000
0001
0000
1000
0000
,
0001
0010
0000
0001
1000
0000
0001
0100
,
0000
0001
1000
0000
1001
0000
0010
0000
,
0100
1000
0100
0001
,
0100
1000
0001
0000
1001
0000
0100
0000
,
0010
0001
0010
1000
,
0010
0001
1000
0000
1001
0000
0010
0000
,
0001
1000
0001
0000
1000
0000
0100
0000
,
0010
0100
0010
0000
1001
0000
0100
0000
,
1000
0001
1000
0000
0001
0000
0100
0000
,
0010
0100
0010
0000
0101
0000
0000
0100
,
0000
0000
0110
0000
0000
0010
0000
0000
,
1010
0000
0000
0000
0110
0000
0000
0010
,
0000
0000
0011
0000
0000
0100
0000
0000
,
1100
0000
0000
0000
1001
0000
0000
0001
,
0000
0000
0101
0000
0000
0100
0000
0000
,
0110
0000
0000
0000
1001
0000
0000
1000
,
0000
0000
1100
0000
0000
0100
0000
0000
,
0110
0000
0000
0000
0010
0100
0000
0001
,
1000
0100
0010
0001
,
1000
0001
0100
0001
2000
0000
3200
0000
,
0320
0230
2300
3002
,
0203
0000
0301
0000
1001
0000
1000
0100
,
0010
0100
1000
0000
0010
0100
0010
0000
,
1000
0001
0020
0032
,
0203
0302
0023
0032
,
2003
3200
1300
1000
,
1100
0000
0200
0000
,
0310
0000
0100
0000
0010
0000
0100
0000
0000
0000
0000
0000
,
0000
0000
0001
0001
,
0101
0000
0100
0100
,
0110
0000
1000
0001
,
1001
0000
0002
0000
,
2003
0000
0000
0000
3001
0000
1000
0100
,
1000
0000
0001
0000
0100
0001
0100
0000
,
0010
0100
0010
0000
1001
0000
0001
0100
,
0000
0100
0020
0000
1000
0000
0000
0000
,
1030
0000
0000
0000
1001
0000
1000
0100
,
1000
0000
0001
0000
0100
0001
0010
0000
,
0001
1000
0001
0000
1001
0000
0000
0110
,
0000
0000
0100
1000
0010
0000
0100
0000
,
0010
0000
0100
0001
0010
0000
0001
1000
,
0001
0000
0010
0000
0100
0010
0100
0000
,
1000
0010
1000
0000
1001
0000
0001
0010
,
0000
0010
0200
0000
1000
0000
0000
0000
,
1300
0000
0001
1000
0010
0000
0100
0001
,
0100
0000
0001
0000
1000
0100
1000
0000
,
0100
0010
0100
0000
1000
0001
0000
1000
,
0100
0000
1000
0001
0000
1000
0100
0000
,
1000
0001
0000
0000
0100
0010
0000
1000
,
0001
0000
0100
0010
0000
1000
0001
0000
,
0100
0010
0000
0000
2001
0000
0000
3200
,
0000
0000
0302
0000
0000
0203
0000
0000
,
2300
0000
0000
3002
0000
0000
1003
0001
;

//---------------dance-single - ----------------
#NOTES:
     dance-single:
     :
     Hard:
     13:
     0.711,0.650,0.419,0.264,0.036: // measure 1
1000
0010
1000
0010
1000
0100
0010
0100
,  // measure 2
0010
0100
1000
0010
1000
0010
1000
0001
,  // measure 3
0010
0001
0010
0001
0010
0100
0010
0100
,  // measure 4
0010
0001
0100
0001
0100
0001
0100
0001
,  // measure 5
2000
0100
3200
0010
,  // measure 6
0320
0001
0031
0100
,  // measure 7
0210
0010
0320
1000
,  // measure 8
2030
0001
3001
0010
,  // measure 9
0021
0001
0032
1000
,  // measure 10
2003
0010
3010
0100
,  // measure 11
0201
0001
0302
1000
,  // measure 12
2003
0100
3200
0010
,  // measure 13
0310
0001
0100
0001
0020
0000
0230
0000
,  // measure 14
1300
0001
0010
0100
1000
0100
0010
0000
,  // measure 15
0001
1000
0010
1000
0002
0000
0023
0000
,  // measure 16
0130
0010
0001
1000
0100
0010
0001
0000
,  // measure 17
0100
0001
1000
0001
0200
0000
0302
0000
,  // measure 18
0013
0100
1000
0001
0010
0100
1000
0000
,  // measure 19
0001
1000
0010
1000
0002
0000
2003
0000
,  // measure 20
3100
0010
0001
0010
0100
1000
0001
0000
,  // measure 21
1000
0100
0010
0000
0100
0010
0001
0000
,  // measure 22
1000
0001
0100
0000
0001
1000
0010
0000
,  // measure 23
1000
0100
0010
0000
0100
0010
0001
0000
,  // measure 24
1000
0001
0100
0000
0010
1000
0001
0010
,  // measure 25
0000
0000
0000
0000
1001
0000
0001
1000
,  // measure 26
0100
1000
0000
1000
0001
0000
0010
0100
,  // measure 27
0000
0100
1000
0001
1000
0000
0001
1000
,  // measure 28
0010
1000
0000
1000
0001
0000
1000
0010
,  // measure 29
0100
0001
0010
0100
1000
0000
0001
1000
,  // measure 30
0100
1000
0000
1000
0001
0000
0010
0001
,  // measure 31
0000
0001
0100
0010
0100
0000
0001
1000
,  // measure 32
0010
1000
0000
1000
0001
0000
0010
0001
,  // measure 33
0100
0010
1000
0000
0001
1000
0100
0000
,  // measure 34
1000
0000
1100
0000
0010
0001
1000
0010
,  // measure 35
0100
0001
1000
0000
0001
1000
0010
0000
,  // measure 36
1000
0000
1010
0000
1000
0001
0100
0001
,  // measure 37
1000
0100
0010
0001
1000
0010
0100
0000
,  // measure 38
0010
0000
1010
0000
1000
0100
0010
0001
,  // measure 39
0010
0100
1000
0000
0001
0100
0010
0000
,  // measure 40
0100
0000
0110
0000
0001
0010
0100
1000
,  // measure 41
0100
0010
0001
0000
1001
0000
0000
1100
,  // measure 42
0000
0000
0011
0000
0000
1001
0000
0000
,  // measure 43
0001
0010
0100
1000
1001
0000
0000
0101
,  // measure 44
0000
0000
1010
0000
0000
0110
0000
0000
,  // measure 45
1000
0100
0010
0001
1001
0000
0000
1100
,  // measure 46
0000
0000
0011
0000
0000
0110
0000
0000
,  // measure 47
0001
0010
0100
1000
1001
0000
0000
0101
,  // measure 48
0000
0000
1010
0000
0000
0110
0000
0000
,  // measure 49
1000
0100
0010
0001
1000
1000
0000
0001
,  // measure 50
1000
0010
0100
0010
1000
0100
1000
0000
,  // measure 51
0100
1000
0001
0000
1000
0100
0001
0100
,  // measure 52
1000
0100
0001
0100
1000
0001
0010
0100
,  // measure 53
1000
0100
0010
0000
1001
0000
0001
0100
,  // measure 54
0010
0100
0001
0010
0001
0000
0010
0001
,  // measure 55
1000
0000
0001
0100
1000
0100
0001
0100
,  // measure 56
1000
0100
0001
1000
0010
0100
0001
0100
,  // measure 57
0010
1000
0100
0000
1100
0000
1100
0000
,  // measure 58
1001
0000
0000
0000
0000
0000
0001
1000
0001
1000
0001
1000
,  // measure 59
0100
0000
0100
0000
0100
0000
1100
0000
0000
0000
0000
0000
,  // measure 60
1000
0001
0101
0101
,  // measure 61
1001
0000
0110
0110
,  // measure 62
1001
0000
1100
1100
,  // measure 63
1001
0000
0000
0000
0000
0000
1000
0001
1000
0001
0000
0000
,  // measure 64
0010
0000
0100
0000
2000
0000
3010
0100
,  // measure 65
0002
0000
1000
0000
1003
0001
0010
0000
,  // measure 66
0100
0010
0001
0100
0101
0000
0001
1000
,  // measure 67
0100
0010
0002
0000
1000
0000
0100
0000
,  // measure 68
1000
0000
0103
0000
1001
0000
0001
0010
,  // measure 69
0100
0000
0010
0001
1000
0010
0001
0010
,  // measure 70
1000
0001
1000
0000
0100
1000
0010
0200
,  // measure 71
0000
0000
0301
0100
0020
0000
0000
0230
,  // measure 72
0000
0000
0310
0000
1001
0000
1000
0010
,  // measure 73
0100
0000
0010
1000
0100
0010
0100
1000
,  // measure 74
0001
0100
0010
0000
1001
0000
1000
0001
,  // measure 75
0010
0100
2000
0000
0001
0000
0010
0000
,  // measure 76
0001
0000
3010
0000
1001
0000
0001
1000
,  // measure 77
0200
0000
1000
0000
1300
0010
0100
0010
,  // measure 78
1000
0100
0010
0001
1000
1000
0000
0001
,  // measure 79
0001
0000
1000
1000
0000
0001
0001
0000
,  // measure 80
0100
0110
0000
0000
0010
0010
0000
0100
,  // measure 81
0100
0000
0010
0010
0000
0100
0100
0000
,  // measure 82
0001
1001
0000
0000
1001
0000
0001
0100
,  // measure 83
0000
0100
1000
0000
1000
0100
0000
0100
,  // measure 84
0001
0000
0001
1000
0000
1000
0010
0010
;

//---------------dance-single - ----------------
#NOTES:
     dance-single:
     :
     Challenge:
     17:
     0.978,1.000,0.346,0.109,0.620: // measure 1
0001
0100
0001
0100
0001
0010
0100
0010
,  // measure 2
0100
0010
0001
0100
0001
0100
0001
1000
,  // measure 3
0100
1000
0100
1000
0010
0100
0010
0100
,  // measure 4
0010
1000
0001
1000
0001
1000
0001
1000
,  // measure 5
1001
0000
0000
0001
0000
1000
0100
0000
0000
1000
0000
0001
,  // measure 6
0100
0000
0000
0001
1000
0100
1000
0000
0000
0100
1000
0010
,  // measure 7
0100
0000
0000
0001
0000
1000
0010
0000
0000
1000
0000
0001
,  // measure 8
0010
0000
0000
0001
1000
0010
1000
0000
0000
0100
0010
0001
,  // measure 9
0100
0000
0000
0001
0000
1000
0010
0000
0000
1000
0000
0001
,  // measure 10
0100
0000
0000
0001
1000
0100
1000
0000
0000
0010
0100
0001
,  // measure 11
0010
0000
0000
0001
0000
1000
0010
0000
0000
1000
0000
0001
,  // measure 12
0010
0000
0000
0001
1000
0100
0020
0000
0000
0100
0000
0000
,  // measure 13
0130
1000
0010
0001
0010
1000
0100
0010
,  // measure 14
0001
1000
0001
0000
0100
0000
0010
0000
1000
0000
0010
0000
0100
0000
0001
0000
,  // measure 15
1000
0000
0010
0000
0001
0000
0010
0000
1000
0001
1000
0001
1000
0001
1000
0000
,  // measure 16
0001
0100
1000
0100
0001
0010
0100
0010
,  // measure 17
0001
0000
1000
0000
0010
1000
0010
1000
0010
1000
0010
0000
1000
0000
0001
0000
,  // measure 18
0010
0000
0100
0000
0010
0000
0001
0000
0100
0010
0100
0010
0100
0010
0100
0000
,  // measure 19
0001
0000
1000
0010
1000
0000
0100
0000
0010
0000
0100
0000
1000
0000
0010
0000
,  // measure 20
0100
0001
0100
0000
0001
0000
1000
0000
0010
0000
1000
0001
1000
0001
1000
0001
,  // measure 21
1000
0010
0100
0001
1000
0010
0100
0001
,  // measure 22
1000
0100
0010
0001
1000
0100
0010
0001
,  // measure 23
1000
0010
0100
0010
1000
0010
0100
0010
,  // measure 24
1000
0100
0001
0100
1000
1000
0001
0001
,  // measure 25
0000
0000
1000
0000
0001
0100
0001
0100
0001
0000
1000
0000
1100
0000
0000
0000
,  // measure 26
0100
1000
0001
0100
0101
0000
0200
0010
,  // measure 27
0000
0310
1000
0000
0010
1000
1001
0000
,  // measure 28
0001
0000
0100
0000
0010
0000
0100
0000
0101
0000
0000
0000
0001
0000
1000
0001
,  // measure 29
1000
0001
1000
0100
1000
0100
1000
0100
1000
0000
0001
0000
0011
0000
0000
0000
,  // measure 30
0010
0100
1000
0010
1010
0000
0200
0001
,  // measure 31
0000
0301
1000
0000
0100
0010
0110
0000
,  // measure 32
0100
0000
0001
0000
1000
0000
0100
0000
1100
0000
0000
0000
1000
0000
0001
1000
,  // measure 33
0001
1000
0001
1000
0001
0100
0001
0100
0001
0000
0010
0000
1000
0000
0010
0000
,  // measure 34
0001
0001
1000
1000
0001
0100
1000
0100
,  // measure 35
0001
1000
0100
0010
0001
0100
1000
0100
,  // measure 36
0001
1000
0001
1000
0001
0000
1000
0000
0001
0000
0010
0000
1000
0000
0010
0000
,  // measure 37
0001
0000
0100
0000
0010
1000
0010
1000
0001
0000
0010
0000
0100
0000
0001
0000
,  // measure 38
0100
1000
0001
0100
0010
0001
0010
1000
,  // measure 39
0001
0001
1000
1000
0001
0010
0100
0010
,  // measure 40
0001
1000
0001
1000
0001
0000
1000
0000
0001
0000
0100
0000
0010
0000
0001
0000
,  // measure 41
0010
1000
0001
0000
1001
0001
0100
0010
,  // measure 42
1000
0001
1000
0000
0001
0000
1000
0000
0010
0000
0100
0000
0001
0000
1000
0000
,  // measure 43
0001
1000
0001
0000
0100
0000
0000
0000
1001
0000
1000
0000
0100
0000
0010
0000
,  // measure 44
0001
1000
0001
0000
1000
0000
0001
0000
0010
0000
0100
0000
1000
0000
0001
0000
,  // measure 45
1000
0001
1000
0000
0010
0000
0000
0000
1001
0000
1000
0000
0010
0000
0100
0000
,  // measure 46
0001
1000
0001
0000
1000
0000
0001
0000
0010
0000
0100
0000
1000
0000
0001
0000
,  // measure 47
1000
0001
1000
0000
0010
0000
0000
0000
1001
0000
0001
0000
0100
0000
0010
0000
,  // measure 48
1000
0001
1000
0000
0001
0000
1000
0000
0100
0000
0010
0000
0001
0000
1000
0000
,  // measure 49
0001
1000
0001
0000
1000
0000
0100
1000
0010
0000
0010
0000
1000
0000
0001
1000
,  // measure 50
0001
0000
1000
0100
1000
0000
0001
0000
1000
0000
0100
0000
0010
0000
0100
0000
,  // measure 51
1000
0000
0010
0000
0100
0010
0100
0000
0001
0010
0001
0000
1000
0001
1000
0000
,  // measure 52
0001
1000
0001
0000
1000
0100
1000
0000
0001
1000
0001
1000
0010
1000
0010
1000
,  // measure 53
0010
0000
1000
0000
0001
1000
0001
1000
0001
0000
0100
0001
0100
0000
0010
0100
,  // measure 54
0010
0000
1000
0001
1000
0000
0001
0000
1000
0000
0010
0000
0100
0000
0010
0000
,  // measure 55
1000
0001
1000
0001
1000
0001
1000
0000
0100
1000
0100
0000
0010
0100
0010
0000
,  // measure 56
0001
0010
0001
0000
1000
0001
1000
0000
0010
1000
0010
1000
0010
1000
0010
1000
,  // measure 57
0001
0000
0000
1000
0000
0000
0001
0000
0000
1000
0000
0000
0010
0000
0000
0100
0000
0000
0010
0000
0000
0100
0000
0000
0010
0000
0000
0000
1000
0000
0000
0000
0100
0000
0000
0000
0010
0000
0000
0000
0001
0000
0000
0000
0010
0000
0000
0000
,  // measure 58
0100
1000
0010
0100
0010
1000
0001
0100
1000
0100
0001
1000
,  // measure 59
0001
0000
0101
0000
0110
0000
1010
0000
0000
0010
1000
0100
,  // measure 60
1000
0010
1000
0100
1000
0010
1000
0000
0000
1001
0000
0000
,  // measure 61
0110
0000
0000
0100
0010
0001
1000
0000
0000
1001
0000
0000
,  // measure 62
0110
0000
0000
0010
0100
1000
0001
0000
0000
1001
0000
0000
,  // measure 63
0110
0000
0000
0010
0100
0010
1000
0100
0010
0001
0000
0000
,  // measure 64
0100
0010
0100
0010
0100
0010
0100
0010
1000
0000
0100
0000
0010
0000
0100
0000
,  // measure 65
2000
0000
0001
0000
3001
1000
0100
0001
,  // measure 66
0100
1000
0001
0100
0210
0000
0301
1000
,  // measure 67
0100
0010
0002
0000
0100
0000
0010
0000
,  // measure 68
0103
0000
0010
0000
0100
0000
0001
1000
0001
0000
0010
0000
0100
0000
0020
0000
,  // measure 69
0001
0000
0031
0000
1000
0010
0001
0010
,  // measure 70
1000
0000
0100
0000
0010
0000
0000
0000
0001
1000
0001
1000
0001
0000
0010
0000
,  // measure 71
0100
1000
1001
0000
0100
1000
0010
0200
,  // measure 72
0001
0000
0000
0000
0301
1000
0001
1000
0002
0000
0000
0000
1003
0000
0100
0000
,  // measure 73
0020
0000
0100
0000
0130
1000
0010
0001
,  // measure 74
0010
0000
1000
0000
0001
0000
1000
0001
1000
0000
0100
0000
0010
0000
0001
0000
,  // measure 75
0010
0100
2000
0000
0010
0000
0100
0000
,  // measure 76
3010
0000
0100
0000
0010
0000
1000
0001
1000
0000
0100
0000
0010
0000
0100
0000
,  // measure 77
2000
0000
0001
0000
3001
0100
0010
0100
,  // measure 78
0001
0100
0001
0000
1000
0001
1000
0000
0001
0000
0101
0000
0000
0000
0100
0000
,  // measure 79
0110
0000
0010
1010
0000
1000
1001
0000
,  // measure 80
0110
0110
0000
0000
1000
1100
0000
0100
,  // measure 81
0110
0000
0010
0011
0000
0001
1001
0000
,  // measure 82
0110
0110
0000
0000
1000
0100
0001
0100
,  // measure 83
1000
0010
0001
0010
1000
0100
0001
0100
,  // measure 84
1000
0010
0001
0010
1000
0001
0101
0101
;

//---------------dance-single - ----------------
#NOTES:
     dance-single:
     :
     Beginner:
     4:
     0.130,0.191,0.118,0.000,0.000:
0001
0000
0000
0000
,
0000
1000
0000
0000
,
0000
0000
0010
0000
,
0000
0000
0000
0000
,
1001
0000
0000
0000
,
1000
0000
0000
0000
,
1001
0000
0000
0000
,
0001
0000
0000
0000
,
1001
0000
0000
0000
,
1000
0000
0000
0000
,
1001
0000
0000
0000
,
0001
0000
0000
0000
,
1000
0000
0000
0000
,
0010
0000
0000
0000
,
0100
0000
0000
0000
,
0001
0000
0000
0000
,
0100
0000
0000
0000
,
0010
0000
0000
0000
,
1000
0000
0000
0000
,
0001
0000
0000
0000
,
1000
0000
0000
0000
,
1000
0000
0000
0000
,
1000
0000
0000
0000
,
1000
0000
0000
0000
,
0000
0000
0000
0001
,
0000
0000
0000
0000
,
0000
0000
0010
0000
,
0000
0000
0000
0000
,
0000
0000
0100
0000
,
0000
0000
0000
0000
,
0000
0000
1000
0000
,
0000
0000
0000
0000
,
0000
0000
0001
0000
,
1000
0000
0001
0000
,
0000
0000
1000
0000
,
0001
0000
1000
0000
,
0000
0000
0001
0000
,
1000
0000
0001
0000
,
0000
0000
1000
0000
,
0001
0000
1000
0000
,
0000
0000
0010
0000
,
0100
0000
0010
0000
,
0000
0000
0100
0000
,
0010
0000
0100
0000
,
0000
0000
0001
0000
,
1000
0000
0001
0000
,
0000
0000
1000
0000
,
0001
0000
1000
0000
,
0000
0000
1001
0000
,
0001
0000
0010
0000
,
0100
0000
1000
0000
,
0001
0000
1000
0000
,
0000
0000
0001
0000
,
1000
0000
0001
0000
,
0010
0000
0100
0000
,
1000
0000
0001
0000
,
1000
0000
1001
0000
,
0000
0000
0000
0000
,
0110
0000
0000
0000
,
0000
0000
1001
0000
,
0000
0000
0000
0000
,
0110
0000
0000
0000
,
1001
0000
0000
0000
,
0000
0000
0001
0000
,
0000
0000
0010
0000
,
0000
0000
0100
0000
,
0000
0000
0000
0000
,
0000
0000
0010
0000
,
0000
0000
0001
0000
,
0000
0000
0100
0000
,
0000
0000
0000
0000
,
0000
0000
0010
0000
,
0000
0000
1000
0000
,
0000
0000
0100
0000
,
0000
0000
0000
0000
,
0000
0000
1000
0000
,
0000
0000
0001
0000
,
0000
0000
1001
0000
,
0000
0000
0000
0000
,
0000
0000
0110
0000
,
0000
0000
0000
0000
,
0000
0000
0010
0000
,
0000
0000
0000
0000
,
0100
0000
0000
0110
;
