#TITLE:LA LA LA LA YO-DEL;
#SUBTITLE:;
#ARTIST:DJ Simon;
#TITLETRANSLIT:;
#SUBTITLETRANSLIT:;
#ARTISTTRANSLIT:;
#CREDIT:DigiMindAxel;
#BANNER:LA LA LA LA YO-DEL.png;
#BACKGROUND:LA LA LA LA YO-DEL-bg.png;
#LYRICSPATH:;
#CDTITLE:pop'n stage.png;
#MUSIC:LA LA LA LA YO-DEL.mp3;
#METERTYPE:DDR X;
#OFFSET:-9.404;
#SAMPLESTART:12.244;
#SAMPLELENGTH:12.000;
#SELECTABLE:YES;
#BPMS:0.000=165.000;
#STOPS:;
#BGCHANGES:;

//---------------dance-single - ----------------
#NOTES:
     dance-single:
     :
     Easy:
     4:
     0.231,0.301,0.087,0.065,0.000:
0000
0000
0000
0000
,
1000
0001
1000
0001
,
1001
0000
1000
0000
,
0010
0000
0010
0000
,
1000
0000
1000
0000
,
0001
0000
0001
0000
,
0010
0000
0010
0000
,
0100
0000
0100
0000
,
2000
0000
0000
0000
,
3100
0010
0001
0000
,
1000
0010
0000
0100
,
0000
0010
0000
1000
,
0000
0001
0000
0010
,
0000
0100
0000
1000
,
0000
0001
0000
1000
,
0000
0010
0000
0100
,
0000
0001
0000
0001
,
0000
0100
0000
0010
,
1000
0001
1000
0001
,
1001
0010
0100
1000
,
0100
0010
0000
0000
,
0001
0010
0100
1000
,
0100
0010
0000
0000
,
0001
1000
0001
1000
,
0010
0100
0010
0100
,
0001
0010
0001
0010
,
0001
1000
0100
1000
,
0100
0000
0100
0000
,
1000
0100
0010
0000
,
1001
0000
0010
0000
,
1001
1000
0002
0000
,
0203
0000
0000
0000
,
0320
0000
0000
0000
,
1030
0000
0010
0000
,
1000
0000
0001
0000
,
0100
0000
0001
0000
,
0010
0001
0010
0100
,
1000
0000
0010
0000
,
0100
0000
0001
0000
,
1000
0100
0010
0001
,
0100
0010
0100
0000
,
0001
0000
0000
0000
,
0000
0000
0100
0000
,
0000
0000
0000
0000
,
0010
0000
0000
0000
,
1000
0001
1000
0001
,
1001
0000
0010
0000
,
0100
0000
0010
0000
,
0100
0000
0001
0000
,
0010
0001
0010
0100
,
1000
0000
0010
0000
,
1000
0000
0001
0000
,
0200
0000
0320
0000
,
1030
0100
0010
0000
,
0001
0010
0100
1000
,
1001
1001
1001
0000
;

//---------------dance-single - ----------------
#NOTES:
     dance-single:
     :
     Challenge:
     12:
     0.660,0.662,0.314,0.238,0.287: // measure 1
0001
1000
0001
0000
1000
0000
1000
0000
0100
0000
0100
0000
1000
0000
1000
0000
,  // measure 2
1001
1001
1001
1001
,  // measure 3
2000
0100
0000
3200
0010
0000
0310
0000
,  // measure 4
0002
0000
0100
0000
0000
0000
0203
0000
0010
0000
0000
0000
0310
0000
0000
1000
,  // measure 5
0002
0000
0100
0000
0000
0000
0203
0000
0010
0000
0000
0000
0310
0000
0000
1000
,  // measure 6
0001
0000
0010
0000
0100
0000
0000
1000
0001
0000
0010
0000
0100
0000
0000
0000
,  // measure 7
2000
0000
0010
0000
0000
0000
3020
0000
0100
0000
0000
0000
0130
0000
0000
0001
,  // measure 8
2000
0100
0000
3200
0010
0000
0310
0000
,  // measure 9
0001
0000
1000
0010
1000
0010
1000
0010
1000
0000
0001
0100
0001
0100
0001
0100
,  // measure 10
0001
1001
0110
0000
,  // measure 11
0001
0000
0100
0000
0010
0000
0100
0000
0001
0000
0000
0000
0011
0000
0000
0001
,  // measure 12
1000
0000
0001
0000
0010
0000
0001
0000
1000
0000
0000
0000
1010
0000
0000
0010
,  // measure 13
0100
0000
0001
0000
0010
0000
0100
0000
0010
0000
0000
0000
0011
0000
0000
0001
,  // measure 14
1000
0000
0100
0000
0010
0000
0000
0001
1000
0000
0100
0000
0010
0000
0000
0000
,  // measure 15
0001
0000
1000
0000
0100
0000
0010
0000
0100
0000
0000
0000
1010
0000
0000
1000
,  // measure 16
0001
0100
0010
0100
0001
0000
1001
0000
,  // measure 17
0001
0000
1000
0100
1000
0100
1000
0100
1000
0000
0001
0010
0001
0010
0001
0010
,  // measure 18
0001
0011
1001
0000
,  // measure 19
0110
0110
0110
0110
,  // measure 20
0101
0000
0010
0000
0100
0000
1000
0100
,  // measure 21
0001
0000
0100
1000
0001
0000
0000
0000
,  // measure 22
1000
0000
0010
0000
0100
0000
0001
1000
,  // measure 23
0001
0000
1000
0000
0100
0000
0001
0000
0100
0000
1000
0000
0000
0000
0001
1000
,  // measure 24
0001
0010
0100
0010
0001
0010
0100
0010
,  // measure 25
0001
1000
0010
0100
0010
1000
0010
0100
,  // measure 26
0001
0010
1000
0010
0001
0010
1000
0010
,  // measure 27
0001
0100
1000
0100
0001
0100
1000
0100
,  // measure 28
0002
1000
0000
1003
0010
0000
0010
0100
,  // measure 29
0001
0010
1000
0010
0001
0000
1000
0001
,  // measure 30
0010
0000
0000
0010
0100
0000
1000
0000
0010
0000
0000
0010
0100
0000
0001
0000
,  // measure 31
0010
0000
0000
0010
0100
0000
1000
0000
0002
0000
0000
0000
0100
0000
0000
0000
,  // measure 32
0010
0100
0010
0100
,  // measure 33
0013
0000
0001
0000
0100
0000
0010
0000
1000
0001
1000
0001
1000
0001
1000
0001
,  // measure 34
2000
0000
0010
0000
0000
0000
3010
0000
0100
0000
0001
0000
0010
0000
0000
0001
,  // measure 35
2000
0000
0001
0000
0000
0000
3001
0000
1000
0000
0010
0000
0100
0000
0000
0001
,  // measure 36
2000
0000
0100
0000
0000
0000
3100
0000
1000
0000
0001
0000
0100
0000
0000
0001
,  // measure 37
1000
0000
0100
0000
0010
0000
0000
0001
1000
0000
0100
0000
0010
0000
0000
0000
,  // measure 38
0002
0000
0100
0000
0000
0000
0103
0000
0001
0000
0010
0000
0100
0000
0000
1000
,  // measure 39
0002
1000
0000
1003
0001
0100
0010
0000
,  // measure 40
1000
0000
0001
0010
0001
0010
0001
0010
0001
0000
1000
0001
1000
0001
1000
0001
,  // measure 41
1000
1001
0110
0000
,  // measure 42
0100
0001
0000
0001
0000
0000
0010
0100
,  // measure 43
0000
0100
1000
0000
1000
0010
0000
0010
,  // measure 44
0000
0000
1000
0001
0000
0001
0010
0000
,  // measure 45
0010
0100
0000
0100
1000
0000
0001
0000
,  // measure 46
1001
0110
1001
1001
,  // measure 47
2000
0000
0001
0000
0000
0000
3001
0000
1000
0000
0010
0000
0100
0000
0000
0001
,  // measure 48
0020
0000
0001
0000
0000
0000
0031
0000
1000
0000
0001
0000
0100
0000
0000
0001
,  // measure 49
2000
0000
0001
0000
0000
0000
3001
0000
1000
0000
0100
0000
0010
0000
0000
0001
,  // measure 50
1000
0000
0010
0000
0100
0000
0000
0001
1000
0000
0010
0000
0100
0000
0000
0000
,  // measure 51
0020
0000
1000
0000
0000
0000
1030
0000
0001
0000
0010
0000
0100
0000
0000
0010
,  // measure 52
0002
1000
0000
1003
0001
0100
0010
0000
,  // measure 53
1000
0000
0100
0010
0100
0010
0100
0010
0100
0000
1000
0001
1000
0001
1000
0001
,  // measure 54
1000
1001
1100
0000
,  // measure 55
1000
0001
1000
0000
0001
0000
0001
0000
0100
0000
0100
0000
0010
0000
0010
0000
,  // measure 56
0110
1001
0110
0000
;

//---------------dance-single - ----------------
#NOTES:
     dance-single:
     :
     Beginner:
     1:
     0.090,0.150,0.033,0.000,0.000:
0000
0000
0000
0000
,
1000
0000
0000
0000
,
0001
0000
0000
0000
,
1000
0000
0000
0000
,
0001
0000
0000
0000
,
1000
0000
0000
0000
,
0010
0000
0000
0000
,
0100
0000
0000
0000
,
0010
0000
0000
0000
,
0000
0000
0000
0000
,
1000
0000
0000
0000
,
0001
0000
0000
0000
,
1000
0000
0000
0000
,
0001
0000
0000
0000
,
0100
0000
0000
0000
,
0010
0000
0000
0000
,
1000
0000
0000
0000
,
0001
0000
0000
0000
,
1001
0000
0000
0000
,
0010
0000
0000
0000
,
0001
0000
0000
0000
,
0100
0000
0000
0000
,
0001
0000
0000
0000
,
1000
0000
0000
0000
,
0000
0000
0000
0000
,
0001
0000
0000
0000
,
0000
0000
0000
0000
,
1000
0000
0000
0000
,
0001
0000
0000
0000
,
0100
0000
0100
0000
,
0100
0000
0000
0000
,
0010
0000
0000
0000
,
0000
0000
0000
0000
,
1000
0000
0001
0000
,
1000
0000
0001
0000
,
0100
0000
0010
0000
,
0100
0000
0000
0000
,
0001
0000
1000
0000
,
0001
0000
1000
0000
,
0010
0000
0000
0000
,
0000
0000
0000
0000
,
1000
0000
0000
0000
,
0000
0000
0000
0000
,
0000
0000
0000
0000
,
0100
0000
0000
0000
,
0000
0000
0000
0000
,
0010
0000
0000
0000
,
0001
0000
0000
0000
,
1000
0000
0000
0000
,
0001
0000
0000
0000
,
1000
0000
0000
0000
,
0001
0000
0000
0000
,
0100
0000
0100
0000
,
0100
0000
0000
0000
,
0010
0000
0000
0000
,
1001
0000
1001
0000
;

//---------------dance-single - ----------------
#NOTES:
     dance-single:
     :
     Hard:
     9:
     0.525,0.511,0.314,0.152,0.000:
0001
0010
0100
1000
,
1001
0110
1001
0000
,
0001
1000
0000
1000
0200
0000
1300
0000
,
0001
1000
0000
1000
0020
0000
1030
0000
,
0001
1000
0000
1000
0200
0000
1300
0000
,
0010
1000
0100
0000
0100
1000
0010
0000
,
1000
0001
0000
0001
0200
0000
0310
0000
,
1000
0001
0000
0001
0020
0000
0130
0000
,
1000
0001
0100
1000
0100
0001
1000
0000
,
1001
0110
1001
0000
,
0001
1000
0100
1000
0001
0000
0011
0000
,
0010
0100
1000
0100
0010
0000
0101
0000
,
0100
0010
0001
0010
0100
0000
1010
0000
,
1000
0100
0001
0000
0001
0100
1000
0000
,
0010
1000
0001
0010
0100
0000
1100
0000
,
1000
0001
0100
0010
1000
0000
1010
0000
,
1000
0001
0010
1000
0010
0001
1000
0000
,
1001
0110
1001
0000
,
1001
1001
1001
1001
,
1000
0000
0100
0000
0010
0000
0001
0100
,
1000
0000
0100
0001
1000
0000
0000
0000
,
0001
0000
0010
0000
0100
0000
1000
0001
,
1000
0001
0010
1000
0010
0001
0000
1000
,
0001
0010
0100
0000
0010
0100
1000
0000
,
0001
0100
0010
0000
0100
0010
1000
0000
,
0100
0010
0001
0000
1000
0100
0010
0001
,
0100
1000
0100
0010
1000
0000
0001
1000
,
0100
0010
0000
0010
0100
0000
0100
0000
,
1000
0010
0001
0010
1000
0000
0002
1000
,
1003
0000
0020
0100
0130
0000
0002
1000
,
1003
0000
0010
0100
0002
0000
0000
0000
,
1003
0100
0010
0001
,
0100
1000
0100
0001
,
1000
0010
0000
0010
0100
0001
0010
0000
,
0001
1000
0000
1000
0010
0100
0010
0000
,
1000
0001
0000
0001
0100
0010
0100
0000
,
0001
1000
0100
0010
0001
1000
0100
0000
,
1000
0001
0000
0001
0100
0010
1000
0000
,
0001
1000
0000
1000
0100
0010
0100
0000
,
1000
0001
0010
1000
0010
0001
1000
0000
,
1001
0110
1001
0000
,
2000
0000
0000
3100
0000
0000
0020
0000
,
0000
0031
0000
0000
2000
0000
0000
3010
,
0000
0000
0200
0000
0000
0301
0000
0000
,
2000
0000
0000
3001
0000
0000
0100
0000
,
0110
0110
0110
0110
,
1000
0010
0000
0010
0100
0001
0010
0000
,
0001
0100
0000
0100
0010
1000
0100
0000
,
1000
0001
0000
0001
1000
0100
0010
0000
,
0001
1000
0010
0100
0001
1000
0010
0100
,
0001
0100
0000
0100
0010
1000
0100
0000
,
1000
0001
0000
0001
1000
0100
0010
0000
,
0001
1000
0100
0001
0100
1000
0001
0000
,
1001
0110
1001
0000
,
0001
0010
1000
0010
0001
0100
1000
0100
,
0001
1000
1001
0000
;

//---------------dance-single - ----------------
#NOTES:
     dance-single:
     :
     Medium:
     7:
     0.410,0.391,0.358,0.098,0.000:
0001
0010
0100
1000
,
0010
0110
1001
0000
,
0001
0001
0001
0001
,
0001
1000
0100
0000
0100
0000
0100
0000
,
0100
0010
0001
0000
0001
0000
0001
0000
,
0001
1000
0100
0000
0010
0100
0010
0000
,
0001
0000
0001
0000
0001
0000
0001
1000
,
0010
0010
0010
0010
,
0010
1000
0001
0000
0010
0001
0010
0000
,
0100
1100
1001
0000
,
0001
0101
0100
0101
,
0001
1001
1000
1001
,
0001
0011
0010
0011
,
0001
1000
0010
0000
0100
0010
0100
0000
,
0001
1001
1000
1001
,
0100
1100
0100
1100
,
1000
0100
0001
0100
,
1000
0001
1000
0000
,
1001
1001
1001
1001
,
1000
0100
0010
0001
,
1000
2002
3003
0000
,
1000
0100
0010
0001
,
1000
0000
2002
0000
3003
0000
0000
0001
,
1000
0100
0010
0001
,
0010
0100
1000
0100
,
0010
0001
0010
0100
,
1000
0100
0010
0001
,
1000
0000
1000
0001
0100
0000
0100
0000
,
0100
0000
0100
0001
0010
0000
0000
0000
,
1001
0000
0110
0000
,
1001
0000
0010
0100
0020
0000
0000
0000
,
0100
0000
0100
0000
,
0100
0000
0130
0000
,
1001
0000
1000
0000
1000
0100
0010
0000
,
0010
0000
0010
0000
0010
0001
0100
0000
,
0100
0000
0100
0000
0100
0001
1000
0000
,
0100
1000
0010
0000
0100
0010
0100
0000
,
0001
0000
0001
0000
0001
0100
0010
0000
,
0010
0000
0010
0000
0010
0100
1000
0000
,
0001
1000
0010
0000
0100
0010
0100
0000
,
0001
0101
1001
0000
,
0200
0000
0000
0000
,
0000
0000
0302
0000
,
0000
0000
0000
0000
,
2003
0000
0000
0000
,
3010
0110
2001
0000
,
3001
0010
0000
0001
1000
0000
1000
0000
,
0100
0010
0000
0001
0100
0000
0100
0000
,
0001
1000
0000
0100
1000
0000
1000
0000
,
0001
1000
0001
0000
0010
0100
0010
0000
,
0001
0100
0000
0001
1000
0000
1000
0000
,
0100
0010
0000
0001
0100
0000
0100
0000
,
0010
0100
0010
0000
1000
0001
1000
0000
,
0010
1010
1001
0000
,
0001
0010
1000
0010
,
1001
0110
1001
0000
;
