#TITLE:恋は渾沌の隷也;
#SUBTITLE:;
#ARTIST:後ろから這いより隊G;
#TITLETRANSLIT:KOI WA CHAOS NO SHIMOBENARI;
#SUBTITLETRANSLIT:;
#ARTISTTRANSLIT:USHIROKARA HAIYORITAI G;
#GENRE:;
#CREDIT:DigiMindAxel;
#BANNER:KOI WA CHAOS NO SHIMOBENARI.png;
#BACKGROUND:KOI WA CHAOS NO SHIMOBENARI-bg.png;
#LYRICSPATH:KOI WA CHAOS NO SHIMOBENARI.lrc;
#CDTITLE:DigiMindAxel original simfile.png;
#MUSIC:KOI WA CHAOS NO SHIMOBENARI.mp3;
#METERTYPE:DDR X;
#OFFSET:-3.815;
#SAMPLESTART:67.565;
#SAMPLELENGTH:12.000;
#SELECTABLE:YES;
#BPMS:0.000=158.000
;
#STOPS:
;
#BGCHANGES:-10.000=KOI WA CHAOS NO SHIMOBENARI.avi=1.000=1=0=0,
227.000=KOI WA CHAOS NO SHIMOBENARI-bg.png=1.000=1=0=1,
99999=-nosongbg-=1.000=0=0=0 // don't automatically add -songbackground-
;
#KEYSOUNDS:;
#ATTACKS:;

//---------------dance-single - ----------------
#NOTES:
     dance-single:
     :
     Easy:
     5:
     0.279,0.338,0.087,0.087,0.000,164.000,8.000,8.000,0.000,0.000,0.000,0.279,0.338,0.087,0.087,0.000,164.000,8.000,8.000,0.000,0.000,0.000: // measure 0
0001
1000
0001
0000
,  // measure 1
1000
0100
1000
0000
,  // measure 2
0001
0010
0001
0000
,  // measure 3
0200
0010
0010
0310
,  // measure 4
1000
0010
1000
0000
,  // measure 5
0001
0100
0001
0000
,  // measure 6
1000
0000
1000
0000
1001
0000
0000
0020
,  // measure 7
0000
0000
0000
0130
,  // measure 8
0001
1000
0001
1000
,  // measure 9
0100
0000
1000
0000
,  // measure 10
0001
1000
0100
0000
,  // measure 11
1000
0001
0100
0000
,  // measure 12
0001
1000
0001
1000
,  // measure 13
0010
0000
0100
0000
,  // measure 14
0010
0100
0010
0000
,  // measure 15
0100
0000
0001
0000
,  // measure 16
2000
0000
0000
0000
,  // measure 17
3001
0000
1000
0000
,  // measure 18
0002
0000
0000
0000
,  // measure 19
1003
0000
0001
0000
,  // measure 20
2000
0000
0000
0000
,  // measure 21
3010
0000
0100
0000
,  // measure 22
0020
0000
0000
0000
,  // measure 23
0130
0010
0100
0010
,  // measure 24
1000
0100
1000
0000
,  // measure 25
0010
0100
0001
0000
,  // measure 26
1000
0001
1000
0001
,  // measure 27
0100
0000
0001
0000
,  // measure 28
1000
0100
1000
0000
,  // measure 29
0010
0100
0001
0000
,  // measure 30
0010
0100
0010
0000
,  // measure 31
0100
0000
0010
0000
,  // measure 32
1000
0100
0010
0001
,  // measure 33
1000
0000
1000
0000
,  // measure 34
0010
0100
0001
1000
,  // measure 35
0010
0000
0010
0000
,  // measure 36
1000
0100
0010
0001
,  // measure 37
1000
0000
1000
0000
,  // measure 38
0010
0100
0001
1000
,  // measure 39
0010
0000
0010
0000
,  // measure 40
0000
0110
0000
0000
0000
0000
0000
0000
,  // measure 41
1001
1000
0001
0000
,  // measure 42
1000
1000
1000
0100
,  // measure 43
0010
0001
0010
0000
,  // measure 44
0001
0001
0001
0010
,  // measure 45
0100
1000
0010
0010
,  // measure 46
0110
0100
0001
1000
,  // measure 47
0100
0010
0001
0000
,  // measure 48
0110
0010
1000
0010
,  // measure 49
0100
0001
1000
0001
,  // measure 50
1000
1000
0100
0100
,  // measure 51
1000
1000
0001
1000
,  // measure 52
0001
0001
0010
0010
,  // measure 53
0001
0001
0100
0100
,  // measure 54
0110
0000
0000
0000
0110
0000
0000
1000
,  // measure 55
0000
0100
1000
2002
,  // measure 56
0000
0000
0000
3003
;

//---------------dance-single - ----------------
#NOTES:
     dance-single:
     :
     Medium:
     9:
     0.492,0.461,0.238,0.076,0.000,289.000,22.000,7.000,0.000,0.000,0.000,0.492,0.461,0.238,0.076,0.000,289.000,22.000,7.000,0.000,0.000,0.000: // measure 0
0001
0100
0001
0000
0100
0001
0100
0000
,  // measure 1
0001
0100
0001
0000
1000
0100
1000
0000
,  // measure 2
0010
0100
0010
0000
1000
0100
1000
0000
,  // measure 3
0010
0100
0010
0000
1000
0001
1000
0000
,  // measure 4
0100
1000
0100
0000
0010
0100
0010
0000
,  // measure 5
0100
1000
0100
0000
0010
0100
0010
0000
,  // measure 6
1001
0000
1001
0000
1100
0000
0000
1001
,  // measure 7
0000
0100
0010
0001
,  // measure 8
1000
0010
0100
0010
,  // measure 9
1000
0100
0001
0100
,  // measure 10
1000
0001
1000
0001
,  // measure 11
0010
0100
1000
0110
,  // measure 12
0001
0100
0010
0100
,  // measure 13
0001
0010
1000
0010
,  // measure 14
0001
1000
0100
1000
,  // measure 15
0001
0010
0100
1000
,  // measure 16
0010
0100
0010
0000
0100
0010
0100
0000
,  // measure 17
0001
0101
0001
0101
,  // measure 18
0100
0010
0100
0000
0010
0100
0010
0000
,  // measure 19
1000
1100
1000
1100
,  // measure 20
0001
1000
0001
0000
1000
0001
1000
0000
,  // measure 21
0010
0110
0100
0110
,  // measure 22
1000
0001
1000
0000
0001
1000
0001
0000
,  // measure 23
0100
0010
0100
0010
0100
0000
0110
0000
,  // measure 24
0002
0000
0100
0000
0103
0000
0010
0100
,  // measure 25
0010
0000
1000
0100
1000
0000
0010
0000
,  // measure 26
0100
0001
1000
0001
1000
0000
0100
0000
,  // measure 27
1000
0010
0100
0110
,  // measure 28
2000
0000
0100
0000
3100
0000
1000
0001
,  // measure 29
1000
0000
0010
0100
0010
0000
0100
0000
,  // measure 30
0001
1000
0001
1000
0100
0000
1000
0000
,  // measure 31
0010
0100
0001
1001
,  // measure 32
0100
0010
0100
0000
0001
0000
0100
0000
,  // measure 33
1000
0100
0001
1000
,  // measure 34
0010
0100
0010
0000
1000
0001
1000
0000
,  // measure 35
0001
0010
1000
0010
,  // measure 36
0001
1000
0001
0000
1000
0100
1000
0000
,  // measure 37
0010
0100
0010
0000
1000
0100
1000
0000
,  // measure 38
0001
0100
1000
0100
,  // measure 39
0001
0000
1000
0000
0010
0100
0010
0100
,  // measure 40
0000
0001
0001
1000
1000
0000
0000
0100
,  // measure 41
1000
1000
0001
0001
1000
0000
1001
0000
,  // measure 42
0201
0000
0310
0000
0100
0001
0010
0000
,  // measure 43
0100
1000
0010
1000
0100
0000
0100
0000
,  // measure 44
1000
0100
0010
0000
0100
1000
0100
0000
,  // measure 45
0010
0001
0010
0000
0001
0010
0100
0000
,  // measure 46
1020
0000
0130
0000
0010
1000
0100
0000
,  // measure 47
0010
0001
0100
0001
0010
0000
0010
0000
,  // measure 48
0001
0100
0010
0000
1000
0001
1000
0000
,  // measure 49
0010
0100
0001
0000
1000
0001
1000
0000
,  // measure 50
0120
1000
0100
1000
,  // measure 51
0100
0000
1030
0000
0001
0010
0100
1000
,  // measure 52
0000
0010
0100
0010
0100
0001
1000
0001
,  // measure 53
1000
0100
0010
0001
1000
0010
0100
0001
,  // measure 54
1000
0000
1001
0000
0011
0000
0000
1001
,  // measure 55
0000
0100
0010
0100
1000
0000
2002
0000
,  // measure 56
0000
0000
0000
3003
;

//---------------dance-single - ----------------
#NOTES:
     dance-single:
     :
     Hard:
     13:
     0.684,0.677,0.303,0.206,0.206,395.000,28.000,19.000,0.000,0.000,0.000,0.684,0.677,0.303,0.206,0.206,395.000,28.000,19.000,0.000,0.000,0.000: // measure 0
1000
0000
0001
0000
1000
0000
0100
0000
1000
0001
1000
0001
0100
0000
0001
0000
,  // measure 1
1000
0010
1000
0000
0001
1000
0000
0010
0000
0000
1000
0000
0100
0000
0010
0000
,  // measure 2
0002
0000
0000
0000
0203
0000
0000
0000
0310
1000
0000
2000
0000
0000
3001
0000
,  // measure 3
2000
0000
0000
3200
0000
0000
0320
0000
0000
0000
0001
0000
0031
0000
0000
0000
,  // measure 4
1000
0001
1000
0000
0100
0000
1000
0000
0001
1000
0001
1000
0100
0000
1000
0000
,  // measure 5
0001
0100
0001
0000
1000
0010
0000
0100
0000
0000
0001
0000
0010
0000
0100
0000
,  // measure 6
1100
0000
0000
0000
1100
0000
0000
0000
1000
0001
0000
0001
0000
0000
0102
0000
,  // measure 7
0000
1003
1000
0010
0100
0000
0110
0000
,  // measure 8
0001
0100
0010
0100
0001
0000
0010
0000
,  // measure 9
0100
0010
0001
0010
0100
0000
1000
0000
,  // measure 10
0010
0000
0100
0010
0200
0000
0001
0000
0301
0000
0000
0000
1001
0000
0000
0000
,  // measure 11
1000
0100
0001
0100
1000
0000
1001
0000
,  // measure 12
1000
0100
0010
0100
1000
0000
0010
0000
,  // measure 13
0100
0001
0010
0001
0100
0000
0010
0000
,  // measure 14
1000
0000
0001
1000
0002
0000
0100
0000
0103
0000
0000
0000
0101
0000
0000
0000
,  // measure 15
0001
0010
1000
0010
0001
0000
1001
0000
,  // measure 16
0001
0010
1000
0010
0001
0010
1000
0010
,  // measure 17
0001
0011
1000
1100
,  // measure 18
1000
0100
0001
0100
1000
0100
0001
0100
,  // measure 19
1000
1010
0100
0101
,  // measure 20
0001
0100
1000
0100
0001
0100
1000
0100
,  // measure 21
0001
0011
0100
1100
,  // measure 22
1000
0100
0001
0100
1000
0100
0001
0100
,  // measure 23
1000
1000
0001
0001
0100
0010
0110
0000
,  // measure 24
1000
0001
0010
0100
0010
0001
1000
0000
,  // measure 25
0010
0100
0001
0100
0010
0100
0001
1000
,  // measure 26
0001
0000
1000
0100
2000
0000
0001
0000
3001
0000
0000
0000
1001
0000
0000
0000
,  // measure 27
1000
0100
0001
0100
1000
0000
1001
0000
,  // measure 28
0001
1000
0100
0010
0100
1000
0001
0000
,  // measure 29
0100
0010
1000
0010
0100
0010
1000
0001
,  // measure 30
1000
0000
0001
0100
0002
0000
1000
0000
1003
0000
0000
0000
1001
0000
0000
0000
,  // measure 31
0001
0100
1000
0100
0001
0000
1001
0000
,  // measure 32
1000
0100
1000
0010
0100
0001
0010
0200
,  // measure 33
0000
0010
0010
0310
0000
0001
0100
1000
,  // measure 34
0100
0001
0100
0010
1000
0100
0010
0100
,  // measure 35
2000
0100
0001
3100
,  // measure 36
1000
0010
0100
0001
0010
0001
0100
0020
,  // measure 37
0000
0100
0100
0130
0000
0001
0010
1000
,  // measure 38
0010
0001
0010
0100
1000
0001
0100
0020
,  // measure 39
0000
1000
1000
1030
0001
0001
0100
0010
,  // measure 40
0000
1000
1000
0001
0001
0000
0100
0010
,  // measure 41
1000
1000
0001
0001
0100
0000
0110
0000
,  // measure 42
1001
0000
0000
0000
1001
0000
0000
0000
1000
0010
0000
0010
0100
0000
0001
0000
,  // measure 43
1000
0000
0100
0000
1000
0001
0000
0200
0000
0000
0010
0000
0310
0000
1000
0000
,  // measure 44
0001
0010
1000
0010
0001
1000
0010
0100
,  // measure 45
0000
0000
0010
0000
0100
0000
0010
0000
1000
0001
0000
0001
0100
0000
0010
0000
,  // measure 46
0110
0000
0000
0000
0110
0000
0000
0000
0001
1000
0000
1000
0010
0000
1000
0000
,  // measure 47
0001
0000
0010
0000
0001
0100
0000
0020
0000
0000
0100
0000
0130
0000
0001
0000
,  // measure 48
1000
0100
0001
0100
1000
0010
0100
0010
,  // measure 49
0000
0100
0010
0100
0001
0010
0100
1000
,  // measure 50
0001
0100
0010
0100
0010
0100
0001
0001
,  // measure 51
1000
1000
0001
1000
0100
0001
0100
1000
,  // measure 52
0001
0000
1000
0100
1000
0000
0010
0100
0010
0000
1000
0001
1000
0000
0001
0010
,  // measure 53
0001
0000
0100
0010
0100
0000
0001
1000
0001
0000
0010
0000
0100
0000
1000
0000
,  // measure 54
1001
0000
0000
0000
1001
0000
0000
0000
1000
0010
0000
0100
0000
0000
0110
0000
,  // measure 55
0000
0001
0001
0010
0100
0000
0220
0000
,  // measure 56
0000
0000
0000
0330
;

//---------------dance-single - ----------------
#NOTES:
     dance-single:
     :
     Beginner:
     2:
     0.094,0.151,0.119,0.000,0.000,50.000,11.000,0.000,0.000,0.000,0.000,0.094,0.151,0.119,0.000,0.000,50.000,11.000,0.000,0.000,0.000,0.000: // measure 0
0001
0000
0000
0000
,  // measure 1
0001
0000
0000
0000
,  // measure 2
0010
0000
0000
0000
,  // measure 3
0010
0000
0000
0000
,  // measure 4
0100
0000
0000
0000
,  // measure 5
0100
0000
0000
0000
,  // measure 6
1000
0000
0000
0000
,  // measure 7
1000
0000
0000
0000
,  // measure 8
1001
0000
0000
0000
,  // measure 9
0000
0000
0000
0000
,  // measure 10
0100
0000
0000
0000
,  // measure 11
0000
0000
0000
0000
,  // measure 12
0110
0000
0000
0000
,  // measure 13
0000
0000
0000
0000
,  // measure 14
0010
0000
0000
0000
,  // measure 15
0000
0000
0000
0000
,  // measure 16
1001
0000
0000
0000
,  // measure 17
1000
0000
0000
0000
,  // measure 18
0001
0000
0000
0000
,  // measure 19
0001
0000
0000
0000
,  // measure 20
1000
0000
0000
0000
,  // measure 21
1000
0000
0000
0000
,  // measure 22
0001
0000
0000
0000
,  // measure 23
0001
0000
0000
0000
,  // measure 24
1001
0000
0000
0000
,  // measure 25
1000
0000
0000
0000
,  // measure 26
0100
0000
0000
0000
,  // measure 27
1000
0000
0000
0000
,  // measure 28
0001
0000
0000
0000
,  // measure 29
0100
0000
0000
0000
,  // measure 30
0001
0000
0000
0000
,  // measure 31
1000
0000
0000
0000
,  // measure 32
1001
0000
0000
0000
,  // measure 33
0000
0000
0000
0000
,  // measure 34
0010
0000
0000
0000
,  // measure 35
0000
0000
0000
0000
,  // measure 36
0100
0000
0000
0000
,  // measure 37
0000
0000
0000
0000
,  // measure 38
0010
0000
0000
0000
,  // measure 39
0000
0000
0000
0000
,  // measure 40
1001
0000
0000
0000
,  // measure 41
1000
0000
0000
0000
,  // measure 42
1001
0000
0000
0000
,  // measure 43
0010
0000
0000
0000
,  // measure 44
0100
0000
0000
0000
,  // measure 45
0010
0000
0000
0000
,  // measure 46
1001
0000
0000
0000
,  // measure 47
0100
0000
0000
0000
,  // measure 48
0010
0000
0000
0000
,  // measure 49
0100
0000
0000
0000
,  // measure 50
1001
0000
0000
0000
,  // measure 51
0000
0000
0000
0000
,  // measure 52
0001
0000
1000
0000
,  // measure 53
0001
0000
1000
0000
,  // measure 54
1001
0000
0000
0100
,  // measure 55
0000
0000
0000
0110
;
