#TITLE:君がくれたあの日;
#SUBTITLE:;
#ARTIST:茅原実里;
#TITLETRANSLIT:KIMI GA KURETA ANO HI;
#SUBTITLETRANSLIT:;
#ARTISTTRANSLIT:MINORI CHIHARA;
#CREDIT:DigiMindAxel;
#BANNER:KIMI GA KURETA ANO HI.png;
#BACKGROUND:KIMI GA KURETA ANO HI-bg.png;
#LYRICSPATH:KIMI GA KURETA ANO HI.lrc;
#CDTITLE:DigiMindAxel original simfile.png;
#MUSIC:KIMI GA KURETA ANO HI.mp3;
#METERTYPE:DDR X;
#OFFSET:-6.880;
#SAMPLESTART:64.115;
#SAMPLELENGTH:12.000;
#SELECTABLE:YES;
#BPMS:0.000=155.000;
#STOPS:;
#BGCHANGES:-16.000=KIMI GA KURETA ANO HI.avi=1.000=1=1=0,
99999=-nosongbg-=1.000=0=0=0 // don't automatically add -songbackground-
;

//---------------dance-single - ----------------
#NOTES:
     dance-single:
     :
     Beginner:
     3:
     0.159,0.233,0.174,0.000,0.000: // measure 1
0001
0000
0000
0000
,  // measure 2
1000
0000
0000
0000
,  // measure 3
1001
0000
0000
0000
,  // measure 4
0010
0000
0000
0000
,  // measure 5
0100
0000
0100
0000
,  // measure 6
0100
0000
0000
0000
,  // measure 7
0001
0000
0100
0000
,  // measure 8
0001
0000
0100
0000
,  // measure 9
0010
0000
0000
0000
,  // measure 10
0100
0000
0000
0000
,  // measure 11
0010
0000
0000
0000
,  // measure 12
0000
0000
0000
0000
,  // measure 13
1000
0000
0000
0000
,  // measure 14
0001
0000
0000
0000
,  // measure 15
0010
0000
0000
0000
,  // measure 16
0100
0000
0000
0000
,  // measure 17
1000
0000
0000
0000
,  // measure 18
0001
0000
0000
0000
,  // measure 19
1000
0000
0000
0000
,  // measure 20
0001
0000
1000
0001
,  // measure 21
1000
0000
0100
0000
,  // measure 22
1000
0000
0100
0000
,  // measure 23
1000
0000
0001
0000
,  // measure 24
1000
0000
0001
0000
,  // measure 25
1000
0000
0000
0000
,  // measure 26
0001
0000
1000
0000
,  // measure 27
1001
0000
0001
0000
,  // measure 28
0100
0000
0000
0000
,  // measure 29
0001
0000
0100
0000
,  // measure 30
0010
0000
0000
0000
,  // measure 31
1000
0000
0100
0000
,  // measure 32
0010
0000
0000
0000
,  // measure 33
0001
0000
1000
0000
,  // measure 34
0001
0000
1000
0000
,  // measure 35
0001
0000
0000
0000
,  // measure 36
1000
0000
0000
0000
,  // measure 37
1001
0000
0000
0000
,  // measure 38
1001
0000
1000
0001
,  // measure 39
1000
0000
0000
0000
,  // measure 40
0010
0000
0010
0000
,  // measure 41
0100
0010
0100
0000
,  // measure 42
1001
0000
1000
0001
,  // measure 43
1000
0000
0000
0000
,  // measure 44
0010
0000
0000
0110
,  // measure 45
0000
0000
0000
0000
,  // measure 46
1001
0000
1000
0001
,  // measure 47
1000
0000
0000
0000
,  // measure 48
0001
0000
0100
0000
,  // measure 49
0010
0100
0010
0000
,  // measure 50
1001
0000
0001
1000
,  // measure 51
0001
0000
0000
0000
,  // measure 52
1000
0000
0100
0000
,  // measure 53
1000
0001
1000
0000
,  // measure 54
1001
0000
0001
0000
,  // measure 55
1000
0000
1000
0000
,  // measure 56
1001
0000
1001
0000
,  // measure 57
1001
0000
0000
0000
,  // measure 58
0110
0000
0110
0000
,  // measure 59
0000
0000
0000
0000
,  // measure 60
1001
0000
1000
0000
,  // measure 61
0001
0000
1000
0000
,  // measure 62
1001
0001
0001
0000
,  // measure 63
1000
1000
1000
0000
,  // measure 64
1001
0000
0001
0000
,  // measure 65
0110
0000
0000
0000
,  // measure 66
1001
0000
0000
0000
,  // measure 67
0000
0000
0000
0000
,  // measure 68
0110
0000
0000
0000
;

//---------------dance-single - ----------------
#NOTES:
     dance-single:
     :
     Medium:
     10:
     0.464,0.442,0.156,0.287,0.043: // measure 1
1001
1000
1000
1000
,  // measure 2
1001
0001
0001
0001
,  // measure 3
1001
0000
0000
0000
0000
0000
0000
0000
0100
0000
0000
0100
0000
0000
0100
0000
,  // measure 4
0020
0000
2030
3002
,  // measure 5
1003
0000
0001
0000
1000
0000
0010
1000
,  // measure 6
0002
0000
0103
0010
,  // measure 7
1000
0100
1000
0000
0010
0100
0010
0000
,  // measure 8
1000
0001
1000
0000
0001
0100
0001
0000
,  // measure 9
0110
0000
0010
0000
0100
0000
0010
0100
,  // measure 10
0010
0100
0002
0000
,  // measure 11
1003
0010
0100
0000
0001
1000
0001
0000
,  // measure 12
0010
0100
1000
0100
2000
0000
0000
0000
,  // measure 13
3001
0100
0001
0100
,  // measure 14
0001
1000
0001
1000
,  // measure 15
0001
1000
0100
1000
,  // measure 16
0100
0010
0001
1000
,  // measure 17
0010
0100
0010
0000
0100
0000
0001
0000
,  // measure 18
1000
0100
1000
0000
0001
0000
1000
0000
,  // measure 19
0010
0100
0010
0000
1000
0001
1000
0000
,  // measure 20
0010
0000
1001
1001
,  // measure 21
0100
0010
0100
0010
1000
0000
0001
0000
,  // measure 22
1000
0001
1000
0010
0100
0000
0001
0000
,  // measure 23
1000
0100
1000
0001
,  // measure 24
0010
0000
0001
1000
0001
0000
0010
0100
,  // measure 25
0010
0000
0001
0000
1000
0010
1000
0010
,  // measure 26
0100
0001
1001
1001
,  // measure 27
1100
0000
0000
0000
0011
0000
0000
0001
,  // measure 28
0100
0010
0200
0000
0000
0310
1000
0001
,  // measure 29
1000
0000
0100
0010
0001
0000
0010
0100
,  // measure 30
1000
0000
0010
0000
0100
0000
0001
1000
,  // measure 31
0002
0203
0320
2030
,  // measure 32
3001
0000
0100
0000
0010
0000
0100
0001
,  // measure 33
1000
0000
1000
0000
0001
1000
0100
0000
,  // measure 34
0100
0000
1000
0100
0010
0000
0001
1000
,  // measure 35
0020
0000
0230
0320
,  // measure 36
2030
0000
0000
0000
,  // measure 37
3001
0000
0000
1000
0000
0000
2002
0000
0000
0000
0000
0000
3003
0000
0000
0000
,  // measure 38
0001
0010
0100
1000
0100
0010
0001
0100
,  // measure 39
0010
0000
0000
0010
0000
0000
0020
0000
0000
0000
0000
0000
0030
0000
1000
0000
,  // measure 40
0001
0010
0001
0000
1000
0100
1000
0001
,  // measure 41
1000
0010
0100
0001
0100
0000
0010
1000
,  // measure 42
0010
0000
0000
0010
0000
0000
0010
0000
0000
0000
1000
0000
0100
0000
0010
0000
,  // measure 43
0001
0000
0000
0001
0000
0000
0001
0000
0000
0000
0000
0000
0100
0000
0000
0000
,  // measure 44
0110
0000
0010
0100
0000
0001
1000
0001
,  // measure 45
0000
1000
0001
2000
0000
0000
0000
0000
,  // measure 46
3001
0000
0000
0001
0000
0000
0001
0000
0000
0000
1000
0000
0100
0000
0010
0000
,  // measure 47
0100
0000
0000
0100
0000
0000
0100
0000
0000
0000
0000
0000
0000
0000
1000
0000
,  // measure 48
0001
0010
0100
1000
0100
0010
0001
0000
,  // measure 49
1001
1000
0010
0100
,  // measure 50
0001
0000
0000
0001
0000
0000
0001
0000
0000
0000
0100
0000
0010
0000
1000
0000
,  // measure 51
0010
0000
0000
0010
0000
0000
0010
0000
0000
0000
0000
0000
0000
0000
1000
0000
,  // measure 52
0002
0023
0230
2300
,  // measure 53
3002
0000
0000
0000
,  // measure 54
1003
0010
0100
0000
0001
1000
0001
0000
,  // measure 55
0010
0100
1000
0100
0010
0001
0100
0000
,  // measure 56
0202
0000
0000
0303
0000
0001
0010
0100
,  // measure 57
2000
0000
0000
3000
,  // measure 58
1001
0000
0000
0000
0000
0000
0000
0000
0100
0000
0000
0100
0000
0000
0100
0000
,  // measure 59
1001
0000
2000
3002
,  // measure 60
0203
0000
0000
0000
0310
0000
0100
0010
,  // measure 61
0100
0001
1000
0000
0100
0010
0001
0000
,  // measure 62
1000
0100
1000
0100
0010
0001
0010
0001
,  // measure 63
1000
0010
0100
0001
0100
0010
1000
0000
,  // measure 64
1020
0000
0000
0100
0230
0000
0000
0001
,  // measure 65
0302
1000
1000
1003
,  // measure 66
0001
0001
0000
0010
0010
0000
0100
0100
,  // measure 67
0000
1000
1000
0000
0010
0010
0000
0000
,  // measure 68
0100
0100
0000
0001
0001
0000
0100
0110
;

//---------------dance-single - ----------------
#NOTES:
     dance-single:
     :
     Hard:
     12:
     0.611,0.590,0.287,0.165,0.174: // measure 1
1000
0000
0100
0000
1000
0000
0001
1000
0000
0001
0010
0000
0001
0000
0001
0000
,  // measure 2
1000
0000
0100
0000
1000
0000
0001
1000
0000
0001
0010
0000
0001
0000
0001
0000
,  // measure 3
2000
0000
0000
0000
0000
0000
0000
0000
0001
0000
0000
0001
0000
0000
3001
0000
,  // measure 4
0200
0000
0000
0000
0000
0000
0000
0000
0301
1000
0001
0000
1000
0100
1000
0000
,  // measure 5
0001
0010
0100
0010
0001
0000
1001
1000
,  // measure 6
0020
0100
0230
0001
,  // measure 7
0301
0001
1000
1000
0100
0100
1000
1000
,  // measure 8
0001
0001
0010
0010
0001
0001
1000
0000
,  // measure 9
1010
0000
0000
0000
0010
0000
1000
0000
0100
0000
0010
0000
0001
0000
0100
0001
,  // measure 10
0010
0001
1000
0010
0100
0010
1000
0000
,  // measure 11
1001
0001
0001
0100
0010
0010
1000
0001
,  // measure 12
0001
0000
1000
0000
0010
0000
0010
0000
0110
0000
0000
0000
1000
0001
1000
0001
,  // measure 13
1000
0100
0010
0000
0001
0000
0010
0000
,  // measure 14
1000
0010
0100
0000
1000
0000
0100
0000
,  // measure 15
0001
1000
0010
0000
0100
0000
0001
1000
,  // measure 16
0100
0000
0001
0000
0100
0000
1000
0001
,  // measure 17
0010
0000
0000
1000
0000
0000
0010
0000
0001
0000
0000
0000
1000
0000
0001
0000
,  // measure 18
0100
0000
0000
1000
0000
0000
0100
0000
0001
0000
0000
0000
1000
0000
0001
0000
,  // measure 19
0010
0000
0000
1000
0000
0000
0010
0000
0001
0000
0000
0100
0000
0000
1000
0000
,  // measure 20
0200
0000
0301
1001
,  // measure 21
1000
0010
0100
0010
1000
0000
0100
0000
,  // measure 22
0010
0100
1000
0001
0000
0001
1000
0100
,  // measure 23
2000
0001
3001
0100
,  // measure 24
0010
1000
0100
0010
0001
0010
0100
1000
,  // measure 25
0001
0000
0000
0100
0000
0000
0001
0000
1000
0000
0000
0010
0000
0000
1000
0000
,  // measure 26
0001
0000
0101
0110
,  // measure 27
1020
0000
0000
1000
2000
0000
3030
1000
,  // measure 28
0001
0010
0001
0100
0010
1000
0100
0000
,  // measure 29
1001
0000
0001
0100
0000
0100
0001
0010
,  // measure 30
0100
0000
1000
0001
0000
0001
1000
0100
,  // measure 31
0020
0032
2003
3001
,  // measure 32
1000
0000
0000
0100
0000
0000
0001
0000
0100
0000
0000
1000
0000
0000
0001
0000
,  // measure 33
1001
0000
1000
0010
0110
0000
0100
1000
,  // measure 34
1001
0000
0000
0000
0001
0000
0100
0000
0110
0000
0000
0000
1000
0000
0001
1000
,  // measure 35
0100
1000
0001
1000
0100
0010
0001
0000
,  // measure 36
1000
0010
0100
0010
1000
0010
0100
0010
,  // measure 37
1010
0000
0000
0110
0000
0000
0202
0000
0000
0000
0000
0000
0303
0000
0000
0000
,  // measure 38
0001
0000
0000
0001
1000
0000
0100
0000
1000
0000
0001
0000
0100
0000
0010
0000
,  // measure 39
1000
0000
0000
1000
0001
0000
0010
0000
0100
0000
0000
0000
0010
0000
0001
1000
,  // measure 40
0010
1000
0010
0100
0001
0010
0001
0000
,  // measure 41
1000
1000
0010
0010
0100
0100
0001
0001
,  // measure 42
1000
0000
0000
1000
0001
0000
0010
0000
0001
0000
1000
0000
0010
0000
0100
0000
,  // measure 43
0001
0000
0000
0001
1000
0000
0100
0000
0010
0000
0000
0000
0100
0000
1000
0000
,  // measure 44
0001
0100
0010
0100
0000
0001
1000
0100
,  // measure 45
0000
0100
0010
0002
0000
0000
1003
0000
,  // measure 46
0001
0000
0000
0001
1000
0000
0010
0000
1000
0000
0100
0000
0010
0000
0001
0000
,  // measure 47
1000
0000
0000
1000
0001
0000
0100
0000
0010
0000
0000
0000
1000
0000
0100
1000
,  // measure 48
0010
1000
0010
0100
0001
0010
0100
0000
,  // measure 49
0010
0010
0001
0001
1000
1000
0010
0010
,  // measure 50
1000
0000
0000
1000
0001
0000
0010
0000
0001
0000
1000
0000
0010
0000
0100
0000
,  // measure 51
0010
0000
0000
0010
1000
0000
0100
0000
0010
0000
0000
0000
0001
0000
0010
0001
,  // measure 52
0100
0010
1000
0100
0001
0100
1000
0000
,  // measure 53
0010
0100
0001
0000
0001
0010
0100
1000
,  // measure 54
0001
0100
0010
0001
0010
0100
0001
1000
,  // measure 55
0010
0100
1000
0100
0010
1000
0001
0000
,  // measure 56
1002
0000
1000
0000
1003
0001
0010
0100
,  // measure 57
2000
0001
0001
3001
,  // measure 58
0110
0000
0000
0100
0000
0000
0001
0000
1001
0000
0000
1100
0000
0000
0011
0000
,  // measure 59
1002
0000
1000
1000
,  // measure 60
1003
0001
0100
1000
0100
0010
1000
1000
,  // measure 61
0001
0000
0000
0100
0000
0000
1000
0000
0100
0000
0000
0001
0000
0000
0100
0000
,  // measure 62
1000
1000
0001
0001
0010
0010
0100
0010
,  // measure 63
0001
0000
0001
0000
1000
0000
1000
0000
0010
0000
0010
0000
0100
0000
0001
0010
,  // measure 64
0200
0000
0000
0000
1300
0000
0001
0100
0020
0000
0000
0000
0130
0000
0001
1000
,  // measure 65
0010
0000
0000
0010
0000
0000
0100
0000
0001
0000
0000
0001
0000
0000
1000
0000
,  // measure 66
1100
0100
0000
1001
0001
0000
0101
0100
,  // measure 67
0000
0110
0010
0000
1001
1000
0000
0000
,  // measure 68
1100
1100
0000
0011
0011
0000
1001
1001
;

//---------------dance-single - ----------------
#NOTES:
     dance-single:
     :
     Easy:
     6:
     0.318,0.324,0.200,0.269,0.000: // measure 1
0002
0000
0000
0000
,  // measure 2
2003
0000
0000
0000
,  // measure 3
3001
0000
2000
0000
,  // measure 4
3002
0000
0203
0320
,  // measure 5
0130
0001
1000
0001
,  // measure 6
2001
0000
3001
1000
,  // measure 7
0001
0010
0100
1000
,  // measure 8
0100
0010
0001
1000
,  // measure 9
1002
0000
0000
1003
,  // measure 10
0001
0100
0010
0100
,  // measure 11
2002
0000
0000
0000
,  // measure 12
0000
0000
3003
0000
,  // measure 13
1000
0010
1000
0010
,  // measure 14
1000
0001
1000
0001
,  // measure 15
1000
0100
1000
0100
,  // measure 16
1000
0001
1000
0001
,  // measure 17
1000
0100
1000
0100
,  // measure 18
1000
0001
1000
0001
,  // measure 19
1000
0010
1000
0010
,  // measure 20
1000
0000
1001
1001
,  // measure 21
0001
0010
0001
0010
,  // measure 22
0001
1000
0001
1000
,  // measure 23
0001
0100
0001
0100
,  // measure 24
0001
1000
0001
1000
,  // measure 25
0001
0010
0001
0010
,  // measure 26
0001
0000
0100
0100
,  // measure 27
0110
0000
1001
0000
,  // measure 28
0002
0000
2003
0000
,  // measure 29
3001
0100
0010
0100
,  // measure 30
0001
0010
0100
1000
,  // measure 31
1001
0000
0110
0000
,  // measure 32
1001
0010
0100
0010
,  // measure 33
2001
0000
3002
0000
,  // measure 34
2003
0000
3001
0000
,  // measure 35
0210
0000
0310
1000
,  // measure 36
0002
0000
0000
0000
,  // measure 37
2000
0000
3003
0000
,  // measure 38
0001
0100
0010
0100
,  // measure 39
0001
0010
0100
0000
,  // measure 40
1000
0010
0100
0010
,  // measure 41
1000
0100
0010
0100
,  // measure 42
1000
0001
0010
0001
,  // measure 43
1000
0100
0010
0000
,  // measure 44
2002
0000
0000
0000
0000
3003
0000
0110
,  // measure 45
0000
0000
0000
0110
0000
0000
0000
0000
,  // measure 46
0010
0100
0010
1000
,  // measure 47
0001
0010
0100
0000
,  // measure 48
1000
0001
0100
0001
,  // measure 49
1000
0100
0010
0001
,  // measure 50
0100
0010
0100
0001
,  // measure 51
1000
0100
1000
0000
,  // measure 52
0010
0010
0010
0010
,  // measure 53
0220
0000
0000
0330
,  // measure 54
0100
1000
0100
1000
,  // measure 55
0001
1000
0001
1000
,  // measure 56
0002
0000
2003
0000
,  // measure 57
3002
0000
0000
0000
,  // measure 58
1003
0000
0110
0000
,  // measure 59
0220
0000
0000
0330
,  // measure 60
0020
0000
0130
0010
,  // measure 61
1000
0100
0010
0001
,  // measure 62
1000
1000
0001
0001
,  // measure 63
1000
1000
0001
0001
,  // measure 64
0200
0000
0320
0000
,  // measure 65
2030
0000
0000
0000
,  // measure 66
3001
0000
0000
1001
0000
0000
1000
0000
,  // measure 67
0000
1001
0000
0000
0100
0000
0000
0000
,  // measure 68
0110
0000
0000
0110
0000
0000
1001
0000
;
