#TITLE:KARISOME;
#SUBTITLE:;
#ARTIST:七誌;
#TITLETRANSLIT:;
#SUBTITLETRANSLIT:;
#ARTISTTRANSLIT:NANASHI;
#GENRE:;
#CREDIT:DigiMindAxel;
#BANNER:KARISOME.png;
#BACKGROUND:KARISOME-bg.png;
#LYRICSPATH:KARISOME.lrc;
#CDTITLE:pop'n music.png;
#MUSIC:KARISOME.mp3;
#OFFSET:-7.830;
#SAMPLESTART:67.794;
#SAMPLELENGTH:12.000;
#SELECTABLE:YES;
#METERTYPE:DDR X;
#BPMS:0.000=130.000
;
#STOPS:
;
#BGCHANGES:;
#KEYSOUNDS:;
#ATTACKS:;

//---------------dance-single - ----------------
#NOTES:
     dance-single:
     :
     Easy:
     5:
     0.228,0.211,0.169,0.201,0.004,153.000,21.000,25.000,0.000,0.000,0.000,0.228,0.211,0.169,0.201,0.004,153.000,21.000,25.000,0.000,0.000,0.000: // measure 0
1001
1000
0001
0000
,  // measure 1
0010
0001
0010
0000
,  // measure 2
0001
1000
0001
0000
,  // measure 3
1000
0100
1000
0000
,  // measure 4
1001
0001
1000
0000
,  // measure 5
0010
1000
0010
0000
,  // measure 6
0100
0000
0001
0000
0100
0000
0000
2002
,  // measure 7
0000
0000
0000
3003
,  // measure 8
1001
0000
0000
0000
,  // measure 9
1000
0000
0000
0000
,  // measure 10
0001
0000
0000
0000
,  // measure 11
1000
0000
0000
0000
,  // measure 12
0020
0000
0000
0000
,  // measure 13
0230
0000
0000
0000
,  // measure 14
0320
0000
0130
0010
,  // measure 15
2002
0000
0000
3003
,  // measure 16
1001
0010
0001
0000
,  // measure 17
0100
0010
0100
0000
,  // measure 18
0001
1000
0001
0000
,  // measure 19
1000
0100
1000
0000
,  // measure 20
1001
0010
1000
0000
,  // measure 21
0010
0100
0010
0000
,  // measure 22
0100
0001
0100
0000
,  // measure 23
2002
0000
3003
0000
,  // measure 24
2000
0000
0000
0000
,  // measure 25
3200
0000
0000
0000
,  // measure 26
0320
0000
0000
0000
,  // measure 27
0032
0000
2003
0000
,  // measure 28
3001
1000
0001
0000
,  // measure 29
0010
0001
0010
0000
,  // measure 30
0100
1000
0100
0000
,  // measure 31
2002
0000
0000
3003
,  // measure 32
0220
0000
0000
0000
,  // measure 33
0330
0110
0010
0100
,  // measure 34
0010
0100
0010
0000
,  // measure 35
1000
0001
1000
0001
,  // measure 36
2000
0000
3000
0000
,  // measure 37
0001
1001
1000
0001
,  // measure 38
0010
0100
1000
0000
,  // measure 39
0010
0100
0010
1000
,  // measure 40
0001
0001
0001
0000
,  // measure 41
0000
1001
1000
0001
,  // measure 42
2002
0000
0000
3003
,  // measure 43
0100
1000
0100
1000
,  // measure 44
0001
0100
0001
0000
,  // measure 45
1000
0001
1000
0001
,  // measure 46
0010
0001
0010
0001
,  // measure 47
0100
0001
0200
0000
,  // measure 48
0310
0100
0010
0100
,  // measure 49
0010
0000
1001
1001
,  // measure 50
2000
0000
3100
1000
,  // measure 51
0100
1000
0001
0001
,  // measure 52
0100
0001
0100
0001
,  // measure 53
1000
0000
1001
1001
,  // measure 54
0001
0100
0001
0100
,  // measure 55
0010
1000
0001
0001
,  // measure 56
0010
0000
0001
0000
1000
0000
0000
2002
,  // measure 57
0000
0000
0000
3003
,  // measure 58
0110
0000
0000
0100
0000
0000
1001
0000
0000
0000
0000
0000
0000
0000
0000
0000
;

//---------------dance-single - ----------------
#NOTES:
     dance-single:
     :
     Medium:
     7:
     0.340,0.281,0.273,0.104,0.020,249.000,34.000,13.000,0.000,0.000,0.000,0.340,0.281,0.273,0.104,0.020,249.000,34.000,13.000,0.000,0.000,0.000: // measure 0
1001
1000
0001
0100
,  // measure 1
0010
1000
1001
1001
,  // measure 2
0010
0100
0010
1000
,  // measure 3
0001
0100
0110
0110
,  // measure 4
1000
0001
1000
0001
,  // measure 5
0010
0100
1001
1001
,  // measure 6
0010
0000
0000
0000
0100
0000
0000
0000
0010
0000
0000
0001
0000
0000
2002
0000
,  // measure 7
0000
0000
0000
3003
,  // measure 8
1001
0000
0100
0000
0100
0000
0100
1000
,  // measure 9
0100
0000
0100
0000
0100
0000
0100
0010
,  // measure 10
0100
0000
0100
0000
0100
0000
0100
1000
,  // measure 11
0100
0010
0001
1000
,  // measure 12
1001
0000
0010
0000
0010
0000
0010
0001
,  // measure 13
0010
0000
0010
0000
0010
0000
0010
0100
,  // measure 14
0010
0000
0010
0000
0010
0000
0010
0001
,  // measure 15
0010
0000
0000
0010
0000
0000
1001
0000
0000
0000
0000
0000
0000
0000
0000
0000
,  // measure 16
1001
0000
1000
0000
0001
0000
0010
0001
,  // measure 17
0010
0000
0001
0000
1000
0000
0010
1000
,  // measure 18
0010
0000
0100
0000
0010
0100
0010
0000
,  // measure 19
1000
0001
1000
0000
0100
0000
0010
0000
,  // measure 20
0001
1000
0001
0000
0010
0000
0001
0000
,  // measure 21
0100
0010
0100
0000
0001
0000
0010
0000
,  // measure 22
0100
1000
0100
0000
1000
0001
1000
0000
,  // measure 23
1001
0000
0000
0001
0000
0000
1001
0000
0000
0000
0000
0000
0000
0000
0000
0000
,  // measure 24
0020
0000
0001
0000
,  // measure 25
0032
0000
1000
0000
,  // measure 26
2003
0000
0000
0000
3200
0000
0000
0300
,  // measure 27
0020
0000
0000
0000
0032
0000
0000
0003
,  // measure 28
1000
0001
1000
0100
,  // measure 29
1000
0001
1000
0100
,  // measure 30
0010
0001
0100
0010
,  // measure 31
0220
0000
0000
0330
,  // measure 32
1000
0000
0000
0001
0000
0000
2000
0000
0010
0000
0000
0000
0010
0000
0000
0000
,  // measure 33
3010
0000
0110
0000
0001
0100
0001
0000
,  // measure 34
0010
0000
0001
0000
0010
0001
0100
0000
,  // measure 35
0010
0100
0010
1000
,  // measure 36
0001
1000
0100
0010
0001
0000
0000
0000
,  // measure 37
1001
0000
0100
0000
1000
0000
0010
0100
,  // measure 38
0010
0000
1000
0000
0001
1000
0001
0000
,  // measure 39
0010
0000
0100
0000
0010
0001
0010
0000
,  // measure 40
0100
1000
0100
1000
0100
0000
0000
0000
,  // measure 41
0000
0000
1001
0000
0100
1000
0100
0000
,  // measure 42
1000
0100
0010
0001
0000
1000
0000
0000
,  // measure 43
1001
0000
0010
0000
0001
0100
0001
0000
,  // measure 44
0010
0000
0001
0000
1000
0100
1000
0000
,  // measure 45
1001
0000
0010
0000
0100
0010
0100
0000
,  // measure 46
0010
0000
0001
0100
0001
0000
1000
0000
,  // measure 47
0001
0000
1000
0000
0010
0100
0010
0100
,  // measure 48
0001
1001
1000
1001
,  // measure 49
0010
0000
0010
0000
1000
0100
0010
0001
,  // measure 50
1000
0000
1001
0000
0100
1000
0100
0000
,  // measure 51
0010
0001
0101
0101
,  // measure 52
0010
0000
0100
0000
1000
0010
1000
0000
,  // measure 53
0100
0010
0101
0101
,  // measure 54
0010
0000
1001
0000
0100
1000
0100
0000
,  // measure 55
0010
0001
1100
1100
,  // measure 56
1001
0000
0000
0000
0010
0000
0000
0000
1000
0000
0000
0001
0000
0000
2002
0000
,  // measure 57
0000
0000
0000
3003
,  // measure 58
1001
0000
0000
1001
0000
0000
0000
0000
;

//---------------dance-single - ----------------
#NOTES:
     dance-single:
     :
     Hard:
     11:
     0.546,0.516,0.474,0.185,0.245,394.000,59.000,23.000,0.000,0.000,0.000,0.546,0.516,0.474,0.185,0.245,394.000,59.000,23.000,0.000,0.000,0.000: // measure 0
2100
0000
0000
0000
3001
0000
0000
0000
1000
0000
0000
0100
0000
0000
0010
0000
,  // measure 1
0000
0100
1000
0001
0101
0000
0101
0000
,  // measure 2
2100
0000
0000
0000
3001
0000
0000
0000
0100
0000
0000
0001
0000
0000
0010
0000
,  // measure 3
0000
0100
0010
0001
1001
0000
1001
0000
,  // measure 4
2010
0000
0000
0000
3100
0000
0000
0000
1000
0000
0000
0001
0000
0000
0010
0000
,  // measure 5
0000
0100
0010
0001
1001
0000
1001
0000
,  // measure 6
2010
0000
0000
0000
3100
0000
0000
0000
1100
0000
0000
0101
0000
0000
1002
0000
,  // measure 7
0000
0000
0100
0000
0000
0100
0000
0000
0100
0000
0000
0000
1003
0000
0000
0000
,  // measure 8
0001
0001
0100
0000
0010
0100
0001
0000
,  // measure 9
1000
1000
0100
0000
0010
0100
1000
0000
,  // measure 10
0100
0100
0010
0000
0001
0100
0010
0000
,  // measure 11
0100
0100
0001
0000
1000
0100
0010
0000
,  // measure 12
1001
0000
0010
0100
1000
0100
0010
0001
,  // measure 13
1000
1000
0010
0000
0100
0001
0010
0100
,  // measure 14
0010
0010
0001
0000
0100
0010
1000
0100
,  // measure 15
0010
0000
0000
0011
0000
0000
1001
0000
0000
0000
0010
0100
0000
0010
0000
0000
,  // measure 16
1001
1000
0001
0010
0100
0010
0001
1000
,  // measure 17
0002
0000
0103
0010
0100
0001
0001
0010
,  // measure 18
0020
0000
0130
1000
0100
0010
0010
0001
,  // measure 19
2000
0000
0000
0000
3010
0000
0100
0000
0001
0000
0000
0000
0001
0000
0100
0001
,  // measure 20
0100
0001
0010
0100
1000
0001
0001
0000
,  // measure 21
0100
0020
0000
0000
0130
0000
0001
0000
0010
0000
0100
0000
0010
0000
0000
0000
,  // measure 22
0001
2000
0000
0000
3100
0000
1000
0000
1000
0000
0010
0000
0010
0000
0100
0000
,  // measure 23
0101
0000
0000
0110
0000
0000
1001
0000
1000
0100
1000
0000
0001
0100
0001
0100
,  // measure 24
0002
0000
0000
0010
0000
0000
0100
0000
0100
0000
0000
0000
1003
0000
0000
0000
,  // measure 25
0200
0000
0000
0010
0000
0000
0001
0000
0001
0000
0000
0000
1300
0000
0000
0000
,  // measure 26
0020
0100
0130
0000
0002
0100
0103
0000
,  // measure 27
0010
0000
1000
0000
0100
0000
0000
0000
0010
0000
0001
0000
1000
0000
0001
1000
,  // measure 28
0001
0000
0010
0000
0100
0000
0000
0000
1000
0001
1000
0000
0100
0000
0000
0000
,  // measure 29
1000
0000
0010
0000
0100
0000
0000
0000
0001
1000
0001
0000
0100
0000
0000
0000
,  // measure 30
0010
0000
1000
0000
0100
0000
0010
0000
0001
1000
0001
0000
0100
0000
0000
0000
,  // measure 31
0010
0100
0010
0100
0000
0001
0000
0010
0000
0100
0000
1000
0001
0000
0001
0000
,  // measure 32
0200
0000
0000
0302
0000
0000
2003
0000
3010
0100
0000
0001
0000
0010
0000
0000
,  // measure 33
0100
0000
0101
0000
1000
0100
0001
0100
,  // measure 34
1000
0000
0001
0000
0010
0000
0100
0000
0010
0001
0000
0100
0000
0020
0000
0000
,  // measure 35
0130
0001
1000
0100
0001
0100
1000
0001
,  // measure 36
0010
0000
0010
0000
0100
0000
0100
0000
0010
0001
0010
0001
1000
0010
1000
0000
,  // measure 37
0100
0001
0101
0000
1000
0100
1100
0000
,  // measure 38
0010
0000
0100
0000
1000
0000
0010
0000
0100
0001
0000
1000
0000
0020
0000
0000
,  // measure 39
1030
0100
0001
0100
1000
0001
0010
0000
,  // measure 40
0110
0000
0110
0000
1001
0000
1001
0000
1001
0000
0000
0000
0010
0100
0010
0100
,  // measure 41
0001
0000
1001
0000
0001
0010
1000
0010
,  // measure 42
0001
0000
0001
0000
0100
0000
0100
0010
0000
1000
0100
1000
0010
0100
0000
0000
,  // measure 43
1001
0000
0000
0000
0010
0000
0100
0000
1000
0010
0100
0000
0010
0000
0010
0000
,  // measure 44
1000
0000
0100
0000
0001
0000
0100
0000
1000
0001
0100
0000
0001
1000
0001
0000
,  // measure 45
1001
0000
0000
0000
0100
0000
0010
0000
0001
0100
0010
0000
0100
0000
0000
0000
,  // measure 46
0010
0000
1000
0000
0100
0000
0010
0000
0100
1000
0000
0010
0000
0100
0000
0000
,  // measure 47
0001
0010
0100
0010
1001
1001
0110
0110
,  // measure 48
0110
1100
0011
1001
,  // measure 49
1000
0010
0100
0000
0110
0110
1001
1001
,  // measure 50
1001
0000
0000
0000
1100
0000
0000
0000
1000
0000
0000
0001
0100
0000
0020
0000
,  // measure 51
0000
1030
0100
0010
0110
0000
0110
0000
,  // measure 52
1001
0000
0000
0000
0101
0000
0000
0000
0010
0000
0000
1000
0100
0000
0020
0000
,  // measure 53
0000
0130
0001
1000
1001
0000
1001
0000
,  // measure 54
0100
0000
0000
0000
1010
0000
0000
0000
0100
0000
0000
0001
1000
0000
0200
0000
,  // measure 55
0000
0310
0100
1000
1001
0000
1001
0000
,  // measure 56
0110
0000
0000
0000
0110
0000
0000
0000
1000
0000
0000
0010
0100
0000
0002
0000
,  // measure 57
0000
0000
1000
0000
0000
1000
0000
0000
1003
0010
0000
0010
0100
0000
0001
0000
,  // measure 58
0101
0000
0000
1100
0000
0000
1001
0000
0000
0000
0000
0000
0000
0000
0000
0000
;

//---------------dance-single - ----------------
#NOTES:
     dance-single:
     :
     Beginner:
     2:
     0.080,0.093,0.104,0.000,0.000,57.000,13.000,0.000,0.000,0.000,0.000,0.080,0.093,0.104,0.000,0.000,57.000,13.000,0.000,0.000,0.000,0.000: // measure 0
1001
0000
0000
0000
,  // measure 1
0001
0000
0000
0000
,  // measure 2
1000
0000
0000
0000
,  // measure 3
0001
0000
0000
0000
,  // measure 4
1001
0000
0000
0000
,  // measure 5
1000
0000
0000
0000
,  // measure 6
0001
0000
0000
0000
,  // measure 7
1000
0000
0000
0000
,  // measure 8
0110
0000
0000
0000
,  // measure 9
0010
0000
0000
0000
,  // measure 10
0010
0000
0000
0000
,  // measure 11
0010
0000
0000
0000
,  // measure 12
0110
0000
0000
0000
,  // measure 13
0100
0000
0000
0000
,  // measure 14
0100
0000
0000
0000
,  // measure 15
0100
0000
0000
0000
,  // measure 16
1001
0000
0000
0000
,  // measure 17
0001
0000
0000
0000
,  // measure 18
0001
0000
0000
0000
,  // measure 19
0001
0000
0000
0000
,  // measure 20
1001
0000
0000
0000
,  // measure 21
1000
0000
0000
0000
,  // measure 22
1000
0000
0000
0000
,  // measure 23
1000
0000
0000
0000
,  // measure 24
0010
0000
0000
0000
,  // measure 25
0100
0000
0000
0000
,  // measure 26
0010
0000
0000
0000
,  // measure 27
1000
0000
0000
0000
,  // measure 28
1001
0000
0000
0000
,  // measure 29
0001
0000
0000
0000
,  // measure 30
1000
0000
0000
0000
,  // measure 31
1001
0000
0000
0000
,  // measure 32
0000
0000
0000
0000
,  // measure 33
0010
0000
0000
0000
,  // measure 34
0001
0000
0000
0000
,  // measure 35
0010
0000
0000
0000
,  // measure 36
1001
0000
0000
0000
,  // measure 37
0100
0000
0000
0000
,  // measure 38
1000
0000
0000
0000
,  // measure 39
0100
0000
0000
0000
,  // measure 40
1001
0000
0000
0000
,  // measure 41
0000
0110
0000
0000
,  // measure 42
0010
0000
0000
0000
,  // measure 43
0100
0000
0000
0000
,  // measure 44
0010
0000
0000
0000
,  // measure 45
1000
0000
0000
0000
,  // measure 46
0001
0000
0000
0000
,  // measure 47
1000
0000
0000
0000
,  // measure 48
0001
0000
0000
0000
,  // measure 49
1000
0000
1001
0000
,  // measure 50
0000
0000
0000
0000
,  // measure 51
0000
0000
0000
0000
,  // measure 52
0010
0000
0000
0000
,  // measure 53
0100
0000
0000
0000
,  // measure 54
0010
0000
0000
0000
,  // measure 55
1000
0000
0000
0000
,  // measure 56
0001
0000
0000
0000
,  // measure 57
1000
0000
0000
0000
,  // measure 58
1001
0000
0000
0000
;
