#TITLE:影縫い胤撒き;
#SUBTITLE:;
#ARTIST:Akhuta;
#TITLETRANSLIT:KAGENUI TANEMAKI;
#SUBTITLETRANSLIT:;
#ARTISTTRANSLIT:;
#CREDIT:DigiMindAxel;
#BANNER:KAGENUI TANEMAKI.png;
#BACKGROUND:KAGENUI TANEMAKI-bg.png;
#LYRICSPATH:KAGENUI TANEMAKI.lrc;
#CDTITLE:jubeat.png;
#MUSIC:KAGENUI TANEMAKI.mp3;
#METERTYPE:DDR X;
#OFFSET:-4.650;
#SAMPLESTART:62.860;
#SAMPLELENGTH:12.000;
#SELECTABLE:YES;
#DISPLAYBPM:120.000:180.000;
#BPMS:0.000=120.000,4.000=180.000,313.000=120.000,325.000=160.000,326.000=213.333,327.000=284.444,328.000=379.259;
#STOPS:;
#BGCHANGES:;

//---------------dance-single - ----------------
#NOTES:
     dance-single:
     :
     Easy:
     5:
     0.215,0.242,0.025,0.059,0.000:
0000
0000
0000
0000
,
1000
0000
0000
0001
,
0000
0000
1000
0000
,
0000
0001
0000
0000
,
0010
0000
0000
0100
,
0000
0000
0010
0000
,
0000
0100
0000
0000
,
1000
0000
0000
0100
,
0000
0000
2000
0000
,
0000
3100
0000
0000
,
0010
0000
0000
0001
,
0000
0000
0020
0000
,
0000
0031
0000
0000
,
0100
0000
0000
0010
,
0000
0000
0200
0000
,
0000
0310
0000
0000
,
2000
0000
0000
3001
,
0000
0000
1000
0000
,
0000
0100
0000
0000
,
0110
0000
0000
0100
,
0000
0000
0010
0000
,
0000
0100
0000
0000
,
0010
0000
0000
1000
,
0000
0000
0001
0000
,
0000
0010
0000
0000
,
1001
0000
0001
0010
,
0100
1000
0001
0000
,
0000
1000
0000
0000
,
0100
1000
0010
0100
,
0001
0000
0100
0000
,
0000
0001
0000
0000
,
1001
0000
0010
0001
,
1000
0100
0010
0000
,
0000
0100
0000
0000
,
1000
0001
0010
0100
,
1000
0001
0100
0000
,
0000
0010
0000
0000
,
0100
0001
0010
0100
,
1000
0001
0100
0000
,
0000
0001
1000
0001
,
1000
0000
0100
1000
,
0000
0000
0020
0000
,
0000
0000
0000
0030
,
0100
0010
0100
0010
,
0100
0001
1000
0000
,
0000
0100
0000
0000
,
0010
0100
0010
0100
,
0010
0001
1000
0000
,
0000
0100
0000
0000
,
1000
0001
1000
0001
,
1000
0001
0100
0000
,
0000
0010
0000
0000
,
0001
0100
0001
0000
,
1000
0100
1000
0000
,
0000
0010
0000
0000
,
0100
0010
0100
0010
,
0100
0010
1000
0000
,
0000
0001
0000
0000
,
0010
0001
0010
0001
,
0010
0001
1000
0000
,
0000
0100
0000
0000
,
1000
0100
1000
0100
,
1000
0010
0100
0000
,
0000
0001
0000
0000
,
0010
0100
0010
0100
,
1000
0010
1000
0000
,
0000
0010
0100
0010
,
0100
0000
0000
0001
,
0100
0001
1000
0000
,
0000
0100
1000
0010
,
1000
0000
0000
0100
,
0010
0001
0010
0000
,
0000
0001
0100
0001
,
1000
0000
0000
0100
,
1000
0100
0010
0000
,
0000
0100
0010
0100
,
0010
0100
0010
0002
,
0000
0000
0000
0000
,
0000
2003
0000
0000
,
0000
0000
0000
0000
,
0000
0000
0000
0000
,
0000
0000
0000
0000
,
0000
3000
0000
0000
;

//---------------dance-single - ----------------
#NOTES:
     dance-single:
     :
     Medium:
     8:
     0.361,0.450,0.286,0.194,0.021:
0000
0000
0000
0000
,
1000
0000
0000
0100
0000
0000
1000
0000
,
0000
0000
0010
0000
,
0000
0110
0000
0000
,
0100
0000
0000
0001
0000
0000
0100
0000
,
0000
0000
0001
0000
,
0000
1001
0000
0000
,
0110
0000
0010
0100
,
0010
1000
0200
0000
,
0000
0310
0000
0000
,
0001
0010
0100
1000
,
0100
0010
0002
0000
,
0000
1003
0000
0000
,
0001
1000
0100
0010
,
0100
1000
0001
0000
,
0100
0020
0000
0130
,
0002
0000
0000
0003
,
1000
0001
0010
0100
,
1000
0002
0000
1003
,
1001
0001
0010
1000
,
0010
0001
0100
0010
,
1000
0001
0000
0000
,
1000
0010
0001
0010
,
1000
0100
0010
0001
,
0010
0100
0000
0000
,
1001
0000
1000
0010
,
0100
0000
0010
0000
1000
0000
0000
0001
,
0100
0001
0100
0000
0000
0000
0001
0000
,
2000
0000
3100
2000
,
0000
3001
0100
0010
,
0100
0001
0000
0000
,
1001
1000
0100
0010
,
0001
0010
0100
1000
,
0010
0000
0000
0000
,
0100
0001
0010
0100
,
0010
0001
1000
0010
,
0100
0010
0000
0000
,
1001
1000
1000
0001
,
0001
1000
1000
0000
,
0100
1000
0100
0010
,
0001
0000
0000
1000
0100
1000
0200
0000
,
0000
0000
1300
0000
,
0000
0000
0000
0000
,
1001
0001
0011
0001
,
0011
0010
0210
0000
,
1000
1300
0000
0000
,
1001
1000
1010
1000
,
1010
0010
1002
0000
,
0010
0013
0000
0000
,
1001
0001
0101
0001
,
0101
0100
0120
0000
,
1000
1030
0001
0010
,
0200
0000
0000
1300
,
0001
0010
0200
0000
,
0310
0002
0000
0000
,
1003
0010
0110
0100
,
0110
0100
0102
0000
,
1000
1003
0000
0000
,
0001
0010
0011
0010
,
0011
0100
0120
0000
,
0100
0130
0000
0000
,
1001
0010
0100
1100
,
0000
1000
1001
0000
,
0001
0010
0100
1000
,
0001
0000
1000
0100
,
0010
0001
1001
0000
,
0000
0000
0001
0000
1000
0100
1000
0100
,
1000
0010
0100
0001
,
1000
0001
1000
0000
0100
0000
0100
0000
,
0100
0000
1000
0000
0001
0100
0001
0100
,
0001
1000
0100
0010
,
0001
1000
0020
0000
,
0000
0000
0130
0000
0010
0100
0010
0100
,
0010
0100
0001
1000
,
0100
0000
1000
0001
1000
0000
0002
0000
,
0000
1003
1001
0110
,
0110
1001
1001
0200
,
0000
0000
0000
0000
,
0000
0000
0000
0301
0000
0100
0000
0010
0000
0000
0020
0000
,
0000
0000
0000
0000
,
0000
0030
0000
2000
0000
0000
0000
0000
3002
0000
0000
0000
,
0000
0200
0000
0000
0000
0000
0000
0000
0000
0000
0000
0000
,
0000
0303
0000
0000
;

//---------------dance-single - ----------------
#NOTES:
     dance-single:
     :
     Hard:
     12:
     0.642,0.831,0.345,0.421,0.194:
0000
0000
0000
0000
,
1001
0000
0000
1000
0100
0000
0100
0000
,
0000
0010
0001
0000
0001
0000
0000
1000
,
0001
0000
1001
0000
0000
0000
0001
1000
,
0100
0000
0000
1000
0001
0000
0001
0000
,
0000
0100
0001
0000
0001
0000
0000
1000
,
0100
0000
1100
0000
1000
0010
0100
0010
,
1000
0000
0000
0000
0001
1000
0200
0000
,
0302
0000
0103
1000
0002
0000
0000
0013
,
0100
1000
0002
0000
0000
0000
1003
0000
,
1001
0000
1000
0001
0020
0000
2030
0000
,
3010
0001
1000
0000
2001
0000
0000
3100
,
0010
0001
2000
0000
0000
3001
1000
0000
,
1001
0000
0000
0000
0001
1000
0020
0000
,
0032
0000
0013
1000
0002
0000
0000
0013
,
0100
1000
0020
0000
0000
0130
0001
0000
,
2002
0000
0000
3003
,
0001
1000
0100
0000
2000
0000
3020
0000
,
0230
0000
0000
0000
0301
0000
0000
0001
0000
0000
0001
0000
1000
0000
0000
0000
,
1001
0000
1000
0100
0010
0000
0100
1000
,
0010
0100
0010
1000
0001
0010
1000
0010
,
0001
1000
0100
0010
0001
0100
0010
0000
,
0110
0000
1000
0100
0010
0000
0100
1000
,
0001
0010
0001
0100
0010
1000
0100
0001
,
0100
1000
0001
0010
0001
0100
0010
0000
,
0110
0000
0000
0000
1000
0000
0100
1000
,
0001
0010
0100
1000
0001
0000
0010
0001
,
0100
0010
0200
0000
0000
0000
0310
0000
,
0110
0000
0100
1000
0010
0100
0001
0000
,
1000
0000
0100
0000
0001
0000
0100
0000
1000
0000
0000
0010
0000
0000
0200
0000
,
0000
0000
0301
0000
1000
0001
0100
0000
,
1001
0000
0001
0100
0010
0100
0001
0000
,
0101
0000
0000
0000
0001
0000
1000
0000
0100
0000
0000
1000
0000
0000
0002
0000
,
0000
0000
1003
0000
0001
0010
0100
1000
,
0001
0000
1000
0010
0100
0010
2000
0000
,
3001
0000
0000
0000
1000
0000
0001
0000
1000
0000
0000
0100
0000
0000
0010
0000
,
0100
1000
0002
0000
0000
0000
0103
0000
,
1001
0011
0011
1000
,
1001
1001
0220
0330
,
0010
1000
0001
0000
1001
0000
1000
0000
,
1200
0000
0000
1300
0010
0100
0020
0000
,
0100
0130
0220
0000
,
0000
0000
0000
0330
,
1001
0000
1000
0100
0001
0000
0101
0000
,
0001
0100
1000
0000
2100
0000
0000
0000
,
0001
0000
0000
0000
3001
0000
0000
0100
0000
0000
0010
0000
0000
0000
0000
0000
,
1001
0000
0001
0100
1000
0000
1100
0000
,
1000
0100
0001
0000
0102
0000
0000
0000
,
1000
0000
0000
0000
1003
0000
0000
0001
0000
0000
0010
0000
0000
0000
0000
0000
,
0001
1000
0100
0001
0100
0000
1100
0000
,
1000
0010
0100
0001
0020
0000
0000
0000
,
0031
0000
1001
0000
0000
1001
0000
0000
,
0120
0000
0000
0000
0130
0001
0010
0000
,
0001
1000
0100
1000
0002
0000
0000
0000
,
1003
0000
0011
0000
0000
0011
0000
0000
,
0001
1000
0001
0000
1000
0000
0100
0000
0010
0000
0000
0000
0001
0100
0001
0000
,
0010
0000
0100
0000
1000
0000
0000
0000
0010
0100
0010
0000
1000
0000
0001
0000
,
0010
0100
0020
0000
0000
0031
1000
0000
,
0100
1000
0100
0000
1000
0000
0010
0000
0100
0000
0000
0000
0001
1000
0001
0000
,
0010
0000
0100
0000
1000
0000
0000
0000
0010
0100
0010
0000
1000
0000
0100
0000
,
0010
0100
2000
0000
0000
3001
0100
0000
,
0001
1000
0100
0001
0100
1000
0002
0000
,
0000
0000
0103
0000
0110
0000
0100
1000
,
0010
0000
1010
0000
0000
0101
0000
0000
,
1001
0000
0001
1000
0100
0010
0100
1000
,
0001
0000
0100
0010
0100
0010
0100
0010
0200
0000
0000
0000
0000
0000
0000
0000
,
0302
0000
0000
0000
2003
0000
0000
0000
3001
1000
0001
0000
0010
0000
0100
0000
,
0010
0001
0010
0000
0100
0000
0100
0000
1000
0000
1000
0000
0001
0100
0001
0000
,
0010
0100
1000
0001
0011
0000
1001
0000
,
0011
0000
0001
0000
2000
0000
0000
0000
3010
0100
0010
0000
1000
0000
0100
0000
,
0010
0100
0010
0000
0001
0000
0100
0000
0010
0000
0100
0000
0001
0000
0001
0000
,
1000
0100
1000
0000
0001
0000
0010
0000
0200
0000
0000
0000
2300
0000
0000
0000
,
3002
0000
0000
0000
1003
0000
0001
0100
0001
0000
1000
0000
0100
0000
0010
0000
,
0100
1000
0100
1000
0100
1000
0001
1000
0001
1000
0001
0000
0100
0001
0100
0000
,
0001
0000
1000
0000
0100
0000
1000
0000
0001
0000
0100
0010
0100
0000
0001
0000
,
1000
0000
0000
0000
0001
0010
0001
0000
1000
0001
1000
0000
0001
0010
0001
0000
,
1000
0001
1000
0000
0001
1000
0001
1000
0100
0010
0100
0010
0200
0000
0000
0000
,
0000
0000
0000
0000
,
0000
0000
0000
1300
0000
0100
0000
0010
0000
0000
0020
0000
,
0000
0000
0000
0000
0000
0000
0000
0000
0031
0000
0000
0100
0000
0000
0010
0000
0000
2000
0000
0000
0000
0000
0000
0000
,
3002
0000
0000
2003
0000
0000
0000
0000
3002
0000
0000
0000
,
0000
0200
0000
0000
0000
0000
0000
0000
0000
0000
0000
0000
,
0000
0303
0000
0000
;

//---------------dance-single - ----------------
#NOTES:
     dance-single:
     :
     Beginner:
     2:
     0.075,0.097,0.118,0.000,0.000: // measure 1
0000
0000
0000
0000
,  // measure 2
0001
0000
0000
0000
,  // measure 3
0000
0000
0010
0000
,  // measure 4
0000
0000
0000
0000
,  // measure 5
0100
0000
0000
0000
,  // measure 6
0000
0000
1000
0000
,  // measure 7
0000
0000
0000
0000
,  // measure 8
1001
0000
0000
0000
,  // measure 9
0000
0000
0000
0000
,  // measure 10
0000
0000
0000
0000
,  // measure 11
0110
0000
0000
0000
,  // measure 12
0000
0000
0000
0000
,  // measure 13
0000
0000
0000
0000
,  // measure 14
1001
0000
0000
0000
,  // measure 15
0000
0000
0000
0000
,  // measure 16
0000
0000
0000
0000
,  // measure 17
0110
0000
0000
0000
,  // measure 18
0000
0000
0000
0000
,  // measure 19
0000
0000
0000
0000
,  // measure 20
1001
0000
0000
0000
,  // measure 21
0000
0000
0001
0000
,  // measure 22
0000
0000
0000
0000
,  // measure 23
1000
0000
0000
0000
,  // measure 24
0000
0000
0100
0000
,  // measure 25
0000
0000
0000
0000
,  // measure 26
0110
0000
0000
0000
,  // measure 27
0000
0000
0010
0000
,  // measure 28
0000
0000
0000
0000
,  // measure 29
1001
0000
0000
0000
,  // measure 30
0000
0000
0001
0000
,  // measure 31
0000
0000
0000
0000
,  // measure 32
1000
0000
0000
0000
,  // measure 33
0000
0000
0100
0000
,  // measure 34
0000
0000
0000
0000
,  // measure 35
0010
0000
0000
0000
,  // measure 36
0000
0000
0100
0000
,  // measure 37
0000
0000
0000
0000
,  // measure 38
1000
0000
0000
0000
,  // measure 39
0000
0000
0010
0000
,  // measure 40
0000
0000
0000
0000
,  // measure 41
0100
0000
0000
0000
,  // measure 42
0000
0000
0001
0000
,  // measure 43
0000
0000
0000
0000
,  // measure 44
1001
0000
0000
0000
,  // measure 45
0000
0000
0000
0000
,  // measure 46
0000
0000
0000
0000
,  // measure 47
0110
0000
0000
0000
,  // measure 48
0000
0000
0000
0000
,  // measure 49
0000
0000
0000
0000
,  // measure 50
1001
0000
0000
0000
,  // measure 51
0000
0000
1000
0000
,  // measure 52
0000
0001
0000
0000
,  // measure 53
1000
0000
0000
0000
,  // measure 54
0000
0000
0001
0000
,  // measure 55
0000
0000
0000
0000
,  // measure 56
1001
0000
0000
0000
,  // measure 57
0000
0000
0000
0000
,  // measure 58
0000
0000
0000
0000
,  // measure 59
0110
0000
0000
0000
,  // measure 60
0000
0000
0000
0000
,  // measure 61
0000
0000
0000
0000
,  // measure 62
1001
0000
0000
0000
,  // measure 63
0000
0000
1000
0000
,  // measure 64
0000
0000
0000
0000
,  // measure 65
0001
0000
0000
0000
,  // measure 66
0000
0000
0100
0000
,  // measure 67
0000
0010
0000
0000
,  // measure 68
0010
0000
0000
0010
,  // measure 69
0000
0000
0000
0000
,  // measure 70
0000
0100
0000
0000
,  // measure 71
0100
0000
0000
0100
,  // measure 72
0000
0000
0000
0000
,  // measure 73
0000
0010
0000
0000
,  // measure 74
0010
0000
0000
0010
,  // measure 75
0000
0000
0000
0000
,  // measure 76
0000
1000
0000
0000
,  // measure 77
0000
0000
0000
1001
;
