#TITLE:蛇神;
#SUBTITLE:;
#ARTIST:Zektbach;
#TITLETRANSLIT:KAGACHI;
#SUBTITLETRANSLIT:;
#ARTISTTRANSLIT:;
#CREDIT:DigiMindAxel;
#BANNER:KAGACHI.png;
#BACKGROUND:KAGACHI-bg.png;
#LYRICSPATH:;
#CDTITLE:pop'n music.png;
#MUSIC:KAGACHI.mp3;
#METERTYPE:DDR X;
#OFFSET:-6.120;
#SAMPLESTART:6.074;
#SAMPLELENGTH:12.000;
#SELECTABLE:YES;
#BPMS:0.000=170.000;
#STOPS:63.500=1.412
;
#BGCHANGES:-18.000=KAGACHI.avi=1.000=1=1=0,
99999=-nosongbg-=1.000=0=0=0 // don't automatically add -songbackground-
;

//---------------dance-single - ----------------
#NOTES:
     dance-single:
     :
     Easy:
     5:
     0.264,0.318,0.056,0.352,0.000:
1000
0000
1000
0000
,
1000
0001
0010
0100
,
1000
0000
1000
0000
,
1000
0001
0010
0100
,
1000
0000
0001
0000
,
0001
1000
0100
0010
,
0001
0000
0001
0000
,
1000
0100
0010
0001
,
2000
0000
0000
0000
,
3002
0000
0000
0000
,
0203
0000
0000
0000
,
0320
0000
0000
0030
,
0100
0000
0010
0000
,
0100
0000
0001
0000
,
1001
0000
1000
0000
,
0110
0000
0001
0000
,
2000
0000
0000
0000
,
3200
0000
0000
0000
,
0300
0000
2000
0000
,
3002
0000
0203
0000
,
0302
0000
0000
0000
,
2003
0000
0000
0000
,
3000
0000
0020
0000
,
0230
0000
0302
0000
,
2003
0000
0100
0000
,
3002
0000
0010
0000
,
2003
0000
0100
0000
,
3002
0000
0010
0000
,
2003
0000
0001
0000
,
3002
0000
1000
0000
,
2003
0000
0010
0000
,
3002
0000
0100
0000
,
1003
0100
0010
0001
,
2000
0000
0010
0000
,
3010
0000
0200
0000
,
0302
0000
2003
0000
,
3001
0010
0100
1000
,
0002
0000
1000
0000
,
0103
0000
0020
0000
,
2030
0000
3200
0000
,
0310
0001
0010
0001
,
1000
0100
1000
0100
,
1000
0001
1000
0001
,
0010
0100
0010
0100
,
1000
0001
1000
0001
,
0010
0100
0010
0100
,
1000
0001
1000
0001
,
0100
0010
2000
0000
,
3001
0000
0001
0000
,
0010
0000
0010
0000
,
0100
0000
0100
0000
,
1000
0000
1000
0000
,
0001
0000
0010
0000
,
0100
0000
1000
0000
,
0100
0000
0010
0000
,
0001
0000
1000
0000
,
1001
0001
1000
0000
,
0010
1000
0010
0000
,
0100
0001
0100
0000
,
0001
1000
0100
0010
,
0001
0001
1000
0000
,
0010
0010
0100
0000
,
0001
1000
0100
0010
,
0002
0000
1003
0000
,
2002
0000
0000
3003
,
0220
0000
0000
0330
,
2002
0000
0000
3003
,
0220
0000
0000
0330
,
0200
0000
0000
0000
,
0320
0000
0000
0000
,
2030
0000
0001
0000
,
3002
0000
0100
0000
,
0103
0000
0010
0000
,
1000
0000
0100
0000
,
0010
0000
0001
0000
,
1000
0000
0010
0000
,
0100
0000
0001
0000
,
0100
0000
1000
0000
,
0100
0000
0001
0000
,
1000
0000
0001
0000
;

//---------------dance-single - ----------------
#NOTES:
     dance-single:
     :
     Medium:
     8:
     0.382,0.448,0.248,0.160,0.000:
0001
0001
1000
1000
,
0001
0001
1000
0100
,
0010
0010
0001
0001
,
0100
0100
0010
1000
,
0001
0001
0010
0010
,
0100
0100
1000
0001
,
0010
0010
0100
0100
,
0010
0001
1000
0010
,
0100
0000
0000
0100
0000
0000
0100
0000
,
0010
0000
0000
0010
0000
0000
0010
0000
,
1000
0000
0000
1000
0000
0000
1000
0000
,
0001
0000
0000
0001
0000
0000
0001
0000
,
0100
0000
0000
0110
0000
0000
0010
0000
,
1000
0000
0000
1001
0000
0000
0001
0000
,
0100
0000
0000
0110
0000
0000
0010
0000
,
1000
0000
0000
1001
0000
0000
0001
0000
,
2000
0000
0000
3100
,
0020
0000
0000
0000
,
0031
0000
0200
0000
,
0320
0000
2030
0000
,
3002
0000
0000
0013
,
0200
0000
0000
0000
,
0300
0000
2000
0000
,
3002
0000
0103
0000
,
0110
0000
0000
0010
0000
0000
0100
0000
,
0010
0000
0000
1000
0000
0000
0001
0000
,
1000
0000
0000
0010
0000
0000
0100
0000
,
0001
0000
0000
0010
0000
0000
0001
0000
,
1000
0000
0000
0100
0000
0000
1000
0000
,
0010
0000
0000
0100
0000
0000
0001
0000
,
0010
0000
0000
0001
0000
0000
1000
0000
,
0100
0010
0001
1000
,
0001
0000
0100
0001
0100
0000
0010
1000
,
0010
1000
0100
0010
,
0001
0000
0010
0001
0010
0000
0100
1000
,
0100
0000
1000
0001
1000
0000
0010
0100
,
0010
0000
0100
0001
0010
0000
0100
1000
,
0010
0100
0010
1000
,
0010
0000
0100
0000
0001
0010
0001
0000
,
1000
0100
1000
0000
0010
0100
0010
0000
,
1001
1000
1001
1000
,
1001
0001
0101
0001
,
1001
1000
1010
1000
,
1001
0001
0011
0001
,
1001
1000
1100
1000
,
1001
0010
0110
0100
,
1001
0100
0110
0010
,
1001
0000
0100
0000
0010
0000
0001
1000
,
0001
0000
0010
0000
0100
0000
0000
1000
,
0001
0100
0010
0000
,
1000
0000
0100
0000
0010
0000
0000
0001
,
1000
0010
0100
0000
,
0001
0000
0010
0000
0100
0000
0000
1000
,
0001
0010
0100
0000
,
0010
0000
0001
0000
1000
0000
0000
0010
,
0100
0001
1000
0000
,
0001
0100
0001
0000
0100
0010
0100
0000
,
2001
0100
3100
0000
,
1000
0100
1000
0000
0010
0100
0010
0000
,
1002
0100
0103
0000
,
0001
0000
1000
0000
1100
0000
0000
0010
,
0100
0010
1000
0001
,
1000
0100
1000
0000
0001
0010
0001
0000
,
2000
0000
0001
0000
3001
0010
0100
1000
,
0001
0000
0000
1001
0000
0000
0001
0000
,
0100
0000
0000
0110
0000
0000
0100
0000
,
0010
0000
0000
1010
0000
0000
1000
0000
,
0001
0000
0000
1001
0000
0000
0001
0000
,
0100
0000
0000
0110
0000
0000
0010
0000
,
1000
0000
0000
1100
0000
0000
1000
0000
,
0001
0000
0000
1001
0000
0000
0001
0000
,
0100
0000
0000
0110
0000
0000
0100
0000
,
0010
1000
0200
0000
,
0310
0001
2000
0000
,
3010
0100
0002
0000
,
0013
0001
0200
0000
,
0310
1000
0200
0300
,
0010
0001
0200
0000
,
0301
0010
0200
0000
,
1300
0100
0020
0000
,
0030
0000
0000
0000
;

//---------------dance-single - ----------------
#NOTES:
     dance-single:
     :
     Hard:
     12:
     0.640,0.607,0.535,0.519,0.168:
1000
0100
0010
0000
0010
0100
1000
0000
,
0100
0010
0001
1000
0001
0010
0100
1000
,
0001
0100
0010
0000
0010
0100
0001
0000
,
0010
0100
1000
0001
1000
0100
0010
0001
,
1000
0001
0100
0000
0100
0001
1000
0000
,
0100
0010
0001
0100
1000
0100
0001
1000
,
0001
1000
0100
0000
0100
1000
0001
0000
,
0010
0100
1000
0010
0001
0010
1000
0001
,
0011
0000
0000
0110
0000
0000
0011
0000
,
0110
0000
0000
1100
0000
0000
0110
0000
,
0101
0000
0000
0110
0000
0000
0101
0000
,
0110
0000
0000
1010
0000
0000
0110
0000
,
0100
0000
0000
0100
0001
0000
0000
0001
1000
0000
0000
0000
1100
0000
0000
0000
,
1000
0000
0000
1000
0001
0000
0000
0001
0010
0000
0000
0000
1001
0000
0000
0000
,
0100
0000
0000
0100
1000
0000
0000
1000
0001
0000
0000
0000
0101
0000
0000
0000
,
0100
0000
0000
0100
0010
0000
0000
0010
0001
0000
0000
0000
1001
0000
0000
0000
,
0102
0010
0103
0110
,
2010
0100
0010
3100
,
1100
0010
1001
0010
,
1001
0001
0011
0000
,
2100
0010
3100
1100
,
0012
0100
0010
0103
,
0110
0000
0101
0100
,
1001
0100
1001
0000
,
2100
0000
0000
3010
0000
0100
0001
0010
,
0210
0000
0000
0310
0000
0001
1000
0100
,
0102
0000
0000
0103
0000
1000
0010
0100
,
0120
0000
0000
0130
0000
0001
1000
0100
,
0021
0000
0000
0130
0000
1000
0001
0010
,
0012
0000
0000
0103
0000
0010
1000
0001
,
0210
0000
0000
0310
0000
1000
0010
0100
,
0110
0000
0000
0100
0001
0000
1000
0000
0100
0000
0001
0000
0100
0000
1000
0000
,
0002
0000
1003
0100
0002
0000
0103
1000
,
0010
0100
0001
0010
0000
0100
0010
0001
,
1000
0010
0100
0000
1020
0000
0130
0001
,
0020
0000
0031
1000
0200
0000
1300
0100
,
0002
0000
0103
1000
0020
0000
0130
0001
,
0010
0100
1000
0001
0000
0001
1000
0010
,
0100
0010
1000
0100
0020
0000
0130
1000
,
0002
0000
0013
0100
0020
0000
0031
0000
,
1001
0000
0000
1000
0001
0000
0000
0001
0100
0000
0000
0100
0010
0000
0000
0000
,
1001
0000
0000
0001
0100
0000
0000
0100
0010
0000
0000
0010
1000
0000
0000
0000
,
1100
0000
0000
0100
1000
0000
0000
1000
0010
0000
0000
0010
0100
0000
0000
0000
,
0101
0000
0000
0100
0001
0000
0000
0001
1000
0000
0000
1000
0100
0000
0000
0000
,
0110
0000
0000
0010
0100
0000
0000
0100
0001
0000
0000
0001
1000
0000
0000
0000
,
1010
0000
0000
0010
1000
0000
0000
1000
0001
0000
0000
0001
0010
0000
0000
0000
,
0101
0000
0000
0100
0001
0000
0000
0001
1000
0000
0000
1000
0100
0000
0000
0000
,
1000
0001
0010
0001
1000
0100
0001
0100
,
2000
0000
3200
0000
0302
0000
0003
0100
,
2000
0000
3001
0010
0200
0000
0000
0000
,
0320
0000
0032
0000
0203
0000
0300
1000
,
0200
0301
0101
0000
,
2001
0000
3200
0000
0320
0000
0030
1000
,
0020
0000
0031
0100
0020
0000
0000
0000
,
0230
0000
0302
0000
0023
0000
0030
1000
,
0020
0031
0022
0003
,
0031
0100
0010
0100
0001
0010
0100
0010
,
0002
0000
1000
0000
0100
0000
1003
0001
,
1000
0100
0001
0100
1000
0001
0010
0100
,
0020
0000
0001
0000
0100
0000
0031
1000
,
0100
0000
1100
0000
0210
0000
0000
0301
,
0010
0100
1000
0100
0001
0100
1000
0001
,
0001
0010
0200
0000
0310
0001
2000
0000
,
3010
0100
0010
1000
0001
0010
0001
1000
,
1100
0000
0000
0101
0000
0000
1001
0000
,
0110
0000
0000
0011
0000
0000
1010
0000
,
0110
0000
0000
0101
0000
0000
0110
0000
,
1001
0000
0000
0110
0000
0000
1001
0000
,
0010
0001
0010
0000
0000
0000
0100
0010
0100
0000
0000
0000
0010
0001
0010
0000
,
0100
1000
0100
0000
0000
0000
0010
0100
0010
0000
0000
0000
0100
1000
0100
0000
,
1000
0001
1000
0000
0000
0000
0001
0100
0001
0000
0000
0000
1000
0010
1000
0000
,
0001
1000
0001
0000
0000
0000
1000
0010
1000
0000
0000
0000
0001
0100
0001
0000
,
1000
0000
1100
0000
0020
0000
0000
0130
,
0001
0020
0200
0330
,
0102
0000
2003
0000
3020
0000
0030
0100
,
0020
2030
0002
3003
,
0001
0000
0101
0000
0200
0000
0000
0310
,
2000
3020
0200
0330
,
2100
0000
3200
0000
0302
0000
0003
0100
,
2000
3020
0200
0000
,
0330
0000
0000
0000
;

//---------------dance-single - ----------------
#NOTES:
     dance-single:
     :
     Challenge:
     16:
     0.877,0.927,0.184,0.376,0.803:
0001
0000
0100
0010
0100
0010
0000
0000
1000
0000
0001
0010
0001
0010
0000
0000
,
0001
0000
0100
0010
0100
0010
0100
0001
0010
0001
0010
0100
1000
0100
1000
0100
,
0010
0000
0001
0100
0001
0100
0000
0000
0001
0000
1000
0100
1000
0100
0000
0000
,
1000
0000
0001
0010
0001
0010
0001
1000
0010
1000
0010
0100
0001
0100
0001
0100
,
0010
0000
1000
0100
1000
0100
0000
0000
1000
0000
0001
0100
0001
0100
0000
0000
,
0001
0000
1000
0010
1000
0010
1000
0001
0010
0001
0010
0100
1000
0100
1000
0100
,
0010
0000
0001
0100
0001
0100
0000
0000
0001
0000
1000
0100
1000
0100
0000
0000
,
1000
0000
0001
0010
0001
0010
0001
1000
0010
1000
0010
0100
0001
0100
0001
0100
,
0001
1000
0001
1000
0001
0000
0010
0001
0010
0001
0010
0000
0100
0010
0100
0000
,
1000
0001
1000
0001
1000
0000
0010
1000
0010
1000
0010
0000
0100
0010
0100
0000
,
0001
1000
0001
1000
0001
0000
0100
0010
0100
0010
0100
0000
0001
1000
0001
0000
,
0010
0001
0010
0001
0010
0000
0100
0010
0100
0010
0100
0000
1000
0001
1000
0001
,
1000
0000
0010
1000
0010
0000
1000
0001
1000
0001
0010
0000
0001
1000
0001
0000
,
1000
0000
0100
1000
0100
0000
1000
0001
1000
0001
0100
0000
0001
1000
0001
0000
,
0010
0000
0100
0010
0100
0000
1000
0010
1000
0001
1000
0000
0100
0010
0100
0000
,
1000
0000
0010
1000
0010
0000
1000
0001
1000
0001
0010
0000
0001
1000
0001
0000
,
1001
0000
0001
1000
0000
1000
0100
0000
0100
0010
0000
0010
,
0100
0000
0100
1000
0000
1000
0001
0000
0001
1000
0100
0010
,
0001
0000
0001
1000
0000
1000
0010
0000
0010
0100
0000
0100
,
0001
0000
0001
1000
0000
1000
0010
0000
0010
0100
0001
0010
,
0100
0000
1000
0001
0000
0001
0100
0000
0100
0010
0000
0010
,
1000
0000
1000
0001
0000
0001
0010
0000
0010
0100
1000
0010
,
0100
0000
0100
0001
0000
0001
1000
0000
1000
0100
0000
0100
,
0010
0000
0010
0100
0000
0100
1000
0001
0100
0001
1000
0001
,
1000
0000
0100
1000
0100
0000
1100
0000
0000
0000
1000
0001
1000
0000
0001
0000
,
0011
0000
0100
0010
0100
0000
0110
0000
0000
0000
0001
1000
0001
0000
1000
0000
,
1100
0000
0010
0100
0010
0000
0110
0000
0000
0000
0100
0001
0100
0000
0001
0000
,
0011
0000
0100
0010
0100
0000
0110
0000
0000
0000
0001
1000
0001
0000
1000
0000
,
1100
0000
0001
1000
0001
0000
1001
0000
0000
0000
1000
0100
1000
0000
0010
0000
,
0110
0000
0001
0100
0001
0000
0101
0000
0000
0000
0001
1000
0001
0000
1000
0000
,
1100
0000
0010
0100
0010
0000
0110
0000
0000
0000
0100
1000
0100
0000
1000
0000
,
1001
0000
0001
0100
0001
0000
1000
0000
0001
0000
0001
0000
1000
0000
1000
0000
,
0001
0010
1000
0010
0001
0100
1000
0100
,
0001
1000
0100
0010
0000
0010
0001
1000
,
0000
1000
0010
0100
0001
0100
1000
0100
,
0001
0010
1000
0010
0001
1000
0100
1000
,
0001
0010
1000
0010
0001
0100
1000
0100
,
0001
1000
0010
0100
0000
0100
0001
0010
,
0000
0010
0100
1000
0001
0100
1000
0100
,
0001
0010
1000
0010
0001
1000
0010
1000
,
1001
0000
0000
0001
0100
0000
0000
0100
0001
0000
0000
0001
1000
0000
1000
0000
,
0100
0000
0000
0100
1000
0000
0000
1000
0100
0000
0000
0100
0010
0000
0010
0000
,
0100
0000
0000
0100
1000
0000
0000
1000
0001
0000
0000
0001
0100
0000
0100
0000
,
0010
0000
0000
0010
1000
0000
0000
1000
0100
0000
0000
0100
0001
0000
0010
0000
,
0100
0000
0000
0100
1000
0000
0000
1000
0001
0000
0000
0001
0100
0000
0010
0000
,
1000
0000
0000
1000
0100
0000
0000
0100
0001
0000
0000
0001
1000
0000
0100
0000
,
0010
0000
0000
0010
0001
0000
0000
0001
0100
0000
0000
0100
1000
0000
0001
0000
,
0010
0000
0010
0000
0100
0000
0100
0000
1000
0000
0001
0100
0010
0100
0010
0100
,
0002
0000
0023
0000
0230
0000
0300
0001
,
0200
0000
0000
0000
1300
0000
0001
1000
0002
0000
0000
0000
0000
0000
0000
0000
,
2003
0000
3200
0000
0320
0000
0030
1000
,
0020
0031
1001
0000
,
1002
0000
0203
0000
0320
0000
0030
0001
,
0020
0000
0000
0000
1030
0000
0001
1000
0002
0000
0000
0000
0000
0000
0000
0000
,
2003
0000
3020
0000
0230
0000
0300
1000
,
0200
0301
1001
0000
,
0001
0010
1000
0010
0001
0100
0010
0100
,
1000
0100
0001
0010
0100
1000
0100
0010
,
0001
0100
1000
0100
0010
0100
0001
0010
,
1000
0010
0001
1000
0100
0010
0001
0001
,
1000
0010
0100
0010
1020
0000
0000
1030
,
0001
0010
1000
0010
0001
1000
0001
0010
,
0012
0000
1003
0010
0210
0000
0301
1000
,
2010
0000
3010
0100
0001
0001
1000
1000
,
0001
0100
0010
0100
0001
0000
0010
0100
1000
0100
0010
0000
0001
1000
0001
0000
,
1000
0100
0010
0100
1000
0000
0001
0100
0010
0100
0001
0000
1000
0001
1000
0000
,
0100
1000
0010
1000
0100
0000
1000
0001
0100
0001
1000
0000
0100
0010
0100
0000
,
1000
0010
0100
0010
1000
0000
0001
0010
0100
0010
0001
0000
0010
0100
0010
0000
,
0001
1000
0100
1000
0100
0000
1000
0001
0100
0001
0100
0000
0010
0100
0010
0000
,
1000
0001
0010
0001
0010
0000
0001
1000
0100
1000
0100
0000
1000
0001
1000
0000
,
0010
1000
0001
0010
0001
0000
1000
0010
0100
0010
0100
0000
0001
1000
0001
0000
,
0010
0100
1000
0100
1000
0000
0010
0100
0001
0100
0001
0010
0100
1000
0100
1000
,
0002
0000
0203
0000
2300
0000
0000
3100
,
0002
0023
2030
3010
,
0002
0000
2003
0000
3200
0000
0000
0301
,
0200
2300
3002
1003
,
0002
0000
0023
0000
0230
0000
0000
0301
,
0200
2300
3002
1003
,
0002
0000
0203
0000
0320
0000
0000
0031
,
0020
2030
3002
2000
,
3003
0000
0000
0000
;

//---------------dance-single - ----------------
#NOTES:
     dance-single:
     :
     Beginner:
     2:
     0.091,0.159,0.112,0.000,0.000: // measure 1
0001
0000
0000
0000
,  // measure 2
1000
0000
0000
0000
,  // measure 3
0001
0000
0000
0000
,  // measure 4
1000
0000
0000
0000
,  // measure 5
0100
0000
0000
0000
,  // measure 6
0010
0000
0000
0000
,  // measure 7
0100
0000
0000
0000
,  // measure 8
0010
0000
0000
0000
,  // measure 9
1001
0000
0000
0000
,  // measure 10
0001
0000
0000
0000
,  // measure 11
1001
0000
0000
0000
,  // measure 12
1000
0000
0000
0000
,  // measure 13
1001
0000
0000
0000
,  // measure 14
0010
0000
0000
0000
,  // measure 15
0110
0000
0000
0000
,  // measure 16
0100
0000
0000
0000
,  // measure 17
0001
0000
0000
0000
,  // measure 18
0000
0000
0000
0000
,  // measure 19
0010
0000
0000
0000
,  // measure 20
0000
0000
0000
0000
,  // measure 21
0100
0000
0000
0000
,  // measure 22
0000
0000
0000
0000
,  // measure 23
1000
0000
0000
0000
,  // measure 24
0000
0000
0000
0000
,  // measure 25
1001
0000
0000
0000
,  // measure 26
0001
0000
0000
0000
,  // measure 27
0100
0000
0000
0000
,  // measure 28
0010
0000
0000
0000
,  // measure 29
0100
0000
0000
0000
,  // measure 30
0010
0000
0000
0000
,  // measure 31
0100
0000
0000
0000
,  // measure 32
0001
0000
0000
0000
,  // measure 33
1001
0000
0000
0000
,  // measure 34
1000
0000
0000
0000
,  // measure 35
0001
0000
0000
0000
,  // measure 36
1000
0000
0000
0000
,  // measure 37
0100
0000
0000
0000
,  // measure 38
1000
0000
0000
0000
,  // measure 39
0100
0000
0000
0000
,  // measure 40
1000
0000
0000
0000
,  // measure 41
1001
0000
0000
0000
,  // measure 42
0001
0000
0000
0000
,  // measure 43
0001
0000
0000
0000
,  // measure 44
0001
0000
0000
0000
,  // measure 45
0001
0000
0000
0000
,  // measure 46
0001
0000
0000
0000
,  // measure 47
0001
0000
0000
0000
,  // measure 48
0001
0000
0000
0000
,  // measure 49
1001
0000
0000
0000
,  // measure 50
0000
0000
0000
0000
,  // measure 51
0000
0000
0000
0000
,  // measure 52
0000
0000
0000
0000
,  // measure 53
1001
0000
0000
0000
,  // measure 54
0000
0000
0000
0000
,  // measure 55
0000
0000
0000
0000
,  // measure 56
0000
0000
0000
0000
,  // measure 57
0001
0000
0000
0000
,  // measure 58
0100
0000
0000
0000
,  // measure 59
0010
0000
0000
0000
,  // measure 60
0100
0000
0000
0000
,  // measure 61
0001
0000
0000
0000
,  // measure 62
0000
0000
0000
0000
,  // measure 63
1000
0000
0000
0000
,  // measure 64
0001
0000
0000
0000
,  // measure 65
1001
0000
0000
0000
,  // measure 66
0100
0000
0000
0000
,  // measure 67
0110
0000
0000
0000
,  // measure 68
0010
0000
0000
0000
,  // measure 69
0110
0000
0000
0000
,  // measure 70
0100
0000
0000
0000
,  // measure 71
0110
0000
0000
0000
,  // measure 72
0010
0000
0000
0000
,  // measure 73
1001
0000
0000
0000
,  // measure 74
0000
0000
0000
0000
,  // measure 75
0001
0000
0000
0000
,  // measure 76
0000
0000
0000
0000
,  // measure 77
1000
0000
0000
0000
,  // measure 78
0000
0000
0000
0000
,  // measure 79
0001
0000
0000
0000
,  // measure 80
0000
0000
0000
0010
;
