#TITLE:情操ディストピア;
#SUBTITLE:;
#ARTIST:mami;
#TITLETRANSLIT:JOUSOU DYSTOPIA;
#SUBTITLETRANSLIT:;
#ARTISTTRANSLIT:;
#GENRE:;
#CREDIT:DigiMindAxel;
#BANNER:JOUSOU DYSTOPIA.png;
#BACKGROUND:JOUSOU DYSTOPIA-bg.png;
#LYRICSPATH:JOUSOU DYSTOPIA.lrc;
#CDTITLE:pop'n music.png;
#MUSIC:JOUSOU DYSTOPIA.mp3;
#OFFSET:-5.760;
#METERTYPE:DDR X;
#SAMPLESTART:54.176;
#SAMPLELENGTH:12.000;
#SELECTABLE:YES;
#DISPLAYBPM:228.000;
#BPMS:0.000=228.000
,129.000=114.000
,133.000=228.000
;
#STOPS:112.000=0.789
;
#BGCHANGES:;
#KEYSOUNDS:;
#ATTACKS:;

//---------------dance-single - ----------------
#NOTES:
     dance-single:
     :
     Easy:
     6:
     0.273,0.337,0.129,0.119,0.000,181.000,14.000,13.000,0.000,0.000,0.000,0.273,0.337,0.129,0.119,0.000,181.000,14.000,13.000,0.000,0.000,0.000: // measure 0
1001
0000
1001
0000
,  // measure 1
0110
0000
0110
0000
,  // measure 2
1001
0000
1001
0000
,  // measure 3
0020
0000
0000
0000
,  // measure 4
0130
0000
0010
0000
,  // measure 5
1000
0001
1000
0000
,  // measure 6
0100
0000
0010
0000
,  // measure 7
0001
1000
0001
0000
,  // measure 8
0010
0000
0100
0000
,  // measure 9
1000
0001
1000
0000
,  // measure 10
0100
0000
0010
0000
,  // measure 11
0001
1000
0001
0000
,  // measure 12
1000
0000
1000
0000
,  // measure 13
0002
0000
0000
0000
,  // measure 14
0000
0000
0003
0000
,  // measure 15
0020
0000
0000
0000
,  // measure 16
0000
0000
0030
0000
,  // measure 17
0200
0000
0000
0000
,  // measure 18
0000
0000
0300
0000
,  // measure 19
2000
0000
0000
0000
,  // measure 20
0000
0000
3000
0000
,  // measure 21
0001
0000
1001
0000
,  // measure 22
1000
0000
1001
0000
,  // measure 23
0001
0000
0110
0000
,  // measure 24
1000
0000
0110
0000
,  // measure 25
0001
0000
1001
0000
,  // measure 26
1000
0000
1001
0000
,  // measure 27
0001
0000
0110
0000
,  // measure 28
2000
3001
0000
1000
,  // measure 29
0000
0001
0000
0000
,  // measure 30
0000
0010
0000
0001
,  // measure 31
0000
0010
0000
0000
,  // measure 32
0000
0200
0000
2300
,  // measure 33
0000
3010
0000
0100
,  // measure 34
0000
0010
0000
0000
,  // measure 35
0000
1000
0000
0001
,  // measure 36
0000
1000
0000
0100
,  // measure 37
0000
0010
0000
0001
,  // measure 38
0000
1000
0000
0010
,  // measure 39
0000
0100
0000
0100
,  // measure 40
0000
0010
0000
0010
,  // measure 41
0000
1000
0000
0001
,  // measure 42
0000
1000
0000
0000
,  // measure 43
0000
0001
0000
0001
,  // measure 44
0000
1000
0001
1000
,  // measure 45
0000
0001
0000
1000
,  // measure 46
0000
0010
0100
0010
,  // measure 47
0000
0100
0000
0010
,  // measure 48
0000
1000
0001
1000
,  // measure 49
0000
0001
0000
1000
,  // measure 50
0000
0001
0010
0001
,  // measure 51
0000
1000
0001
1000
,  // measure 52
0000
0001
1000
0001
,  // measure 53
0000
1000
0000
0001
,  // measure 54
0000
0010
0001
0010
,  // measure 55
0000
0001
0000
0010
,  // measure 56
0000
0001
1000
0001
,  // measure 57
0000
1000
0000
0001
,  // measure 58
0000
0100
0010
0100
,  // measure 59
0000
0010
0000
0010
,  // measure 60
0000
0200
0000
0000
,  // measure 61
0000
0000
0000
0300
,  // measure 62
0000
0020
0000
0000
,  // measure 63
0000
0000
0000
0030
,  // measure 64
0000
2000
0000
0000
,  // measure 65
0000
0000
0000
0000
,  // measure 66
0000
3002
0000
0000
,  // measure 67
0000
2003
0000
0000
,  // measure 68
0000
3001
1000
0001
,  // measure 69
0000
0010
0000
0100
,  // measure 70
0000
0010
0001
0010
,  // measure 71
0000
0100
0000
1000
,  // measure 72
0000
0010
0100
0010
,  // measure 73
0000
1000
0000
0010
,  // measure 74
0000
0100
0001
0100
,  // measure 75
0000
0001
1000
0001
,  // measure 76
0000
1000
0000
0010
,  // measure 77
0000
0100
0000
0010
,  // measure 78
0000
0100
0000
0010
,  // measure 79
0000
1000
0000
0001
,  // measure 80
0000
1000
0000
0001
,  // measure 81
0000
0010
0000
0100
,  // measure 82
0000
0010
0000
0010
,  // measure 83
0000
0110
0000
0000
,  // measure 84
0000
0001
1000
0001
,  // measure 85
0000
0010
0000
0100
,  // measure 86
0000
1000
0010
1000
,  // measure 87
0000
0010
0100
0010
,  // measure 88
0000
1000
0001
1000
,  // measure 89
0000
0001
1000
0001
,  // measure 90
0000
0010
0100
0010
,  // measure 91
0000
0001
0001
0001
;

//---------------dance-single - ----------------
#NOTES:
     dance-single:
     :
     Medium:
     10:
     0.527,0.548,0.404,0.184,0.000,338.000,44.000,20.000,0.000,0.000,0.000,0.527,0.548,0.404,0.184,0.000,338.000,44.000,20.000,0.000,0.000,0.000: // measure 0
1001
0000
1100
0000
,  // measure 1
1001
0000
1100
0000
,  // measure 2
1001
0000
0011
0000
,  // measure 3
1001
0000
0000
0000
,  // measure 4
0010
0001
0010
0001
,  // measure 5
0010
0001
0010
0100
,  // measure 6
1000
0010
0100
0001
,  // measure 7
1000
0001
0000
0000
,  // measure 8
1000
0100
1000
0010
,  // measure 9
0100
0010
1000
0100
,  // measure 10
0010
0001
0010
0100
,  // measure 11
1000
1000
1000
0000
,  // measure 12
0001
0001
0001
0000
,  // measure 13
1000
0000
0100
0000
,  // measure 14
0010
0000
0001
0000
,  // measure 15
0010
0000
0100
0000
,  // measure 16
1000
0000
0001
0000
,  // measure 17
1000
0000
0010
0000
,  // measure 18
0100
0000
0001
0000
,  // measure 19
0100
0000
0010
0000
,  // measure 20
1000
0000
0001
0000
,  // measure 21
1001
0000
1000
0000
1000
0100
1000
0000
,  // measure 22
0000
0000
0001
0000
0001
0100
0001
0000
,  // measure 23
0000
0000
1000
0000
1000
0010
1000
0000
,  // measure 24
0000
0000
0001
0000
0001
0010
0001
0000
,  // measure 25
0000
0000
1000
0000
1000
0001
1000
0000
,  // measure 26
0000
0000
0001
0000
0001
1000
0001
0000
,  // measure 27
0000
0000
1000
0000
1000
0001
1000
0000
,  // measure 28
0020
0130
0010
0100
,  // measure 29
0000
0220
0000
0000
0000
0000
0000
0000
,  // measure 30
0330
1000
0001
1000
,  // measure 31
0000
2002
0000
0000
0000
0000
0000
0000
,  // measure 32
3003
0020
0032
2003
,  // measure 33
3200
1300
0001
1000
,  // measure 34
0010
0000
0100
0001
0000
1000
0000
0001
,  // measure 35
0000
1000
0010
0000
0100
0000
0010
0100
,  // measure 36
0000
0010
0000
0000
1000
0001
1000
0000
,  // measure 37
0100
0000
0010
0000
0001
0000
0100
0010
,  // measure 38
0000
0100
0000
0000
0001
1000
0001
0000
,  // measure 39
0010
0200
0000
1300
,  // measure 40
0010
0200
0000
0301
,  // measure 41
1000
0110
0010
0110
,  // measure 42
0010
2002
0000
0000
,  // measure 43
3003
1001
0100
0110
,  // measure 44
0010
1001
1100
1000
,  // measure 45
1100
0000
1000
0001
1000
0000
0010
0100
,  // measure 46
0001
1001
0101
0001
,  // measure 47
0101
0000
0001
1000
0001
0000
0010
0100
,  // measure 48
1000
1001
1010
1000
,  // measure 49
1010
0000
1000
0001
1000
0000
0100
1000
,  // measure 50
0001
1001
1001
0110
,  // measure 51
0110
0000
0100
0000
0000
0100
0000
0001
,  // measure 52
1000
1001
0101
0100
,  // measure 53
0101
0000
1000
0001
1000
0000
0100
1000
,  // measure 54
0010
1001
1010
0010
,  // measure 55
1010
0000
0001
1000
0001
0000
0100
0001
,  // measure 56
0010
1001
1100
0100
,  // measure 57
0101
0000
0100
1000
0100
0000
1000
0001
,  // measure 58
0100
0020
0100
0100
,  // measure 59
0130
1001
0100
1001
,  // measure 60
0000
0010
0000
0010
,  // measure 61
0000
0010
0000
0010
,  // measure 62
0000
0100
0000
0100
,  // measure 63
0000
0100
0000
0100
,  // measure 64
0000
0001
1000
0001
,  // measure 65
1000
0001
1000
0001
,  // measure 66
1000
0001
0010
0100
,  // measure 67
1000
0001
0010
0100
,  // measure 68
1000
0000
0001
1000
0001
0000
1000
0001
,  // measure 69
1000
0000
0100
1000
0100
1000
0100
0000
,  // measure 70
0000
0000
1000
0001
1000
0000
0001
1000
,  // measure 71
0001
0000
0100
0001
0100
0001
0100
0000
,  // measure 72
0000
0000
0010
0100
0010
0100
0010
0000
,  // measure 73
0010
0000
1000
0001
1000
0001
1000
0000
,  // measure 74
1000
0000
0001
0010
0001
0000
1000
0100
,  // measure 75
1000
0001
1000
1001
,  // measure 76
0000
0002
0000
0000
,  // measure 77
0000
0023
0000
0000
,  // measure 78
0000
0032
0000
0000
,  // measure 79
0000
2003
0000
0000
,  // measure 80
0000
3020
0000
0000
,  // measure 81
0000
2030
0000
0000
,  // measure 82
3000
1001
0000
0110
,  // measure 83
0000
1001
1000
0001
,  // measure 84
1000
0000
0100
1000
0100
0000
1000
0100
,  // measure 85
1000
0000
0001
0100
0001
0000
0100
0001
,  // measure 86
0100
0000
0001
1000
0001
0000
1000
0001
,  // measure 87
1000
0000
0001
0010
0001
0000
0010
0001
,  // measure 88
0010
0000
0001
1000
0001
0000
1000
0001
,  // measure 89
1000
0000
0001
0000
0010
0100
0000
0010
,  // measure 90
0100
0000
1000
0001
1000
0001
1000
0001
,  // measure 91
1000
0010
0100
0110
;

//---------------dance-single - ----------------
#NOTES:
     dance-single:
     :
     Hard:
     13:
     0.709,0.634,0.156,0.193,0.000,502.000,17.000,21.000,0.000,0.000,0.000,0.709,0.634,0.156,0.193,0.000,502.000,17.000,21.000,0.000,0.000,0.000: // measure 0
1001
0000
1001
0000
1000
0100
1000
0000
,  // measure 1
0001
0010
0001
0000
1000
0001
1000
0000
,  // measure 2
1001
0000
1001
0000
0010
0100
0010
0000
,  // measure 3
2000
0000
0001
3001
,  // measure 4
1001
1000
0200
0310
,  // measure 5
0100
0000
1000
0001
0000
0100
0001
0000
,  // measure 6
2000
3100
0020
0130
,  // measure 7
1000
0010
1000
0001
0000
0010
0100
0000
,  // measure 8
1001
0001
0020
0130
,  // measure 9
0010
0000
0001
1000
0000
0010
1000
0000
,  // measure 10
0100
0010
0100
0000
1000
0001
1000
0000
,  // measure 11
0010
0100
0110
0000
,  // measure 12
1000
0001
1001
0000
,  // measure 13
0001
0100
1000
0100
,  // measure 14
0001
0010
0100
0000
,  // measure 15
1000
0010
0001
0010
,  // measure 16
1000
0100
0010
0000
,  // measure 17
0001
0010
1000
0010
,  // measure 18
0001
0100
0010
0000
,  // measure 19
1000
0100
0001
0100
,  // measure 20
1000
0010
0100
0000
,  // measure 21
0001
0000
0101
0000
0001
0100
0010
0000
,  // measure 22
1000
0000
0010
1000
0100
1000
0010
0000
,  // measure 23
1000
0000
1001
0000
0001
1000
0010
0000
,  // measure 24
1000
0000
0100
0010
0001
0010
0100
0000
,  // measure 25
1000
0000
1100
0000
0100
1000
0010
0000
,  // measure 26
0100
0000
0001
0010
0100
0010
0001
0000
,  // measure 27
1000
0000
1001
0000
0001
1000
0010
0000
,  // measure 28
0200
0000
0301
0000
1000
0010
1000
0001
,  // measure 29
0000
0200
0000
0301
0010
0100
1000
0001
,  // measure 30
0100
0000
0001
0000
1000
0100
1000
0001
,  // measure 31
0000
0020
0000
0031
1000
0010
0100
0001
,  // measure 32
1000
0200
0320
0032
,  // measure 33
2003
0000
3002
0000
1003
0100
1000
0000
,  // measure 34
0100
0000
2000
0001
0000
0001
0000
0001
,  // measure 35
0000
3001
1000
0000
0100
0010
0001
1000
,  // measure 36
0000
0020
0000
0130
0010
1000
0100
0010
,  // measure 37
0001
0000
1000
0000
0010
0100
0001
0010
,  // measure 38
0000
0200
0000
0310
0001
1000
0010
0100
,  // measure 39
0001
0000
2000
0000
3100
1000
0100
0000
,  // measure 40
1000
0001
1000
0000
0001
0100
0001
0000
,  // measure 41
1000
0110
0001
0110
,  // measure 42
1000
0000
0001
0010
0100
1000
0000
1000
,  // measure 43
0001
0000
1000
0010
1000
0010
0100
0001
,  // measure 44
0100
0001
1000
0100
0010
0000
0100
1000
,  // measure 45
0010
0000
1000
0100
0010
0001
0010
0100
,  // measure 46
1000
0000
0001
0100
0010
0000
0001
0010
,  // measure 47
0100
0000
0001
0100
0010
1000
0010
0100
,  // measure 48
0001
0000
0010
0100
0010
0000
0001
0100
,  // measure 49
0010
0000
1000
0100
0010
0100
1000
0100
,  // measure 50
0010
0000
0001
0100
1000
0000
0001
0010
,  // measure 51
1000
0000
0001
0010
0100
1000
0000
1000
,  // measure 52
0100
1000
0001
0010
0100
0000
0010
0001
,  // measure 53
0100
0000
0001
0010
0100
1000
0100
0010
,  // measure 54
0001
0000
1000
0010
0100
0000
1000
0100
,  // measure 55
0010
0000
1000
0010
0100
0001
0100
0010
,  // measure 56
1000
0000
0100
0010
0100
0000
1000
0010
,  // measure 57
0100
0000
0001
0010
0100
0010
0001
0010
,  // measure 58
0100
0000
1000
0010
0001
0010
1000
0100
,  // measure 59
0010
0001
1000
1001
,  // measure 60
0000
1000
1000
0001
,  // measure 61
0001
0000
1000
0000
1000
0000
0001
1000
,  // measure 62
0001
0010
0010
0100
,  // measure 63
0100
0000
0010
0000
0010
0000
0100
0010
,  // measure 64
0100
0000
1000
0010
1000
0000
1000
0010
,  // measure 65
1000
0000
0001
0010
0001
0000
0001
0010
,  // measure 66
0001
0000
0100
0010
0100
0010
0100
0010
,  // measure 67
0100
0010
1000
0001
1000
0001
1000
0001
,  // measure 68
1000
0000
0001
0100
0010
0100
0001
0100
,  // measure 69
0010
0000
1000
0100
0001
0100
2000
0000
,  // measure 70
3001
0000
1000
0100
0010
0100
1000
0100
,  // measure 71
0010
0000
0001
0100
1000
0100
0002
0000
,  // measure 72
1003
0000
0001
1000
0100
0010
0200
0000
,  // measure 73
1300
0000
0010
0100
0001
0010
0200
0000
,  // measure 74
0310
0000
0001
0100
1000
0000
0001
0010
,  // measure 75
1000
0001
1000
1001
,  // measure 76
0000
0000
0001
0000
0001
0000
1000
0001
,  // measure 77
1000
0000
0100
1000
0000
1000
0100
0000
,  // measure 78
0010
0000
0001
0000
0001
0000
1000
0001
,  // measure 79
1000
0000
0001
0000
0100
0001
0000
0001
,  // measure 80
0100
0001
1000
0000
1000
0000
0001
0000
,  // measure 81
0001
0000
0100
0000
0010
0100
0000
0100
,  // measure 82
0010
0000
1000
0100
0001
0000
1000
0010
,  // measure 83
0001
0000
1000
0100
0010
0001
0000
0001
,  // measure 84
1000
0000
0001
1000
0010
0000
1000
0100
,  // measure 85
0010
0000
0100
1000
0001
0100
0010
0100
,  // measure 86
0001
0000
1000
0001
0010
0000
0001
0100
,  // measure 87
0010
0000
0100
0001
0010
0100
0010
0001
,  // measure 88
0100
0000
0001
0100
0001
0000
1000
0001
,  // measure 89
1000
0000
0100
0010
0001
0010
0100
1000
,  // measure 90
0010
0000
1000
0100
0001
0100
1000
0010
,  // measure 91
0100
0001
0100
0101
,  // measure 92
1000
0000
0000
0000
;

//---------------dance-single - ----------------
#NOTES:
     dance-single:
     :
     Beginner:
     3:
     0.097,0.126,0.055,0.000,0.000,68.000,6.000,0.000,0.000,0.000,0.000,0.097,0.126,0.055,0.000,0.000,68.000,6.000,0.000,0.000,0.000,0.000: // measure 0
0001
0000
0000
0000
,  // measure 1
1000
0000
0000
0000
,  // measure 2
0001
0000
0000
0000
,  // measure 3
0001
0000
0000
0000
,  // measure 4
1001
0000
0000
0000
,  // measure 5
1000
0000
0000
0000
,  // measure 6
0001
0000
0000
0000
,  // measure 7
1000
0000
0000
0000
,  // measure 8
0010
0000
0000
0000
,  // measure 9
0100
0000
0000
0000
,  // measure 10
0010
0000
0000
0000
,  // measure 11
0010
0000
0000
0000
,  // measure 12
0010
0000
0000
0000
,  // measure 13
1000
0000
0000
0000
,  // measure 14
0000
0000
0000
0000
,  // measure 15
0001
0000
0000
0000
,  // measure 16
0000
0000
0000
0000
,  // measure 17
1000
0000
0000
0000
,  // measure 18
0000
0000
0000
0000
,  // measure 19
0001
0000
0000
0000
,  // measure 20
0000
0000
0000
0000
,  // measure 21
1001
0000
0000
0000
,  // measure 22
1000
0000
0000
0000
,  // measure 23
0001
0000
0000
0000
,  // measure 24
1000
0000
0000
0000
,  // measure 25
0010
0000
0000
0000
,  // measure 26
0100
0000
0000
0000
,  // measure 27
0001
0000
0000
0000
,  // measure 28
1000
0001
0000
0000
,  // measure 29
0000
0000
0000
0000
,  // measure 30
0000
0010
0000
0000
,  // measure 31
0000
0000
0000
0000
,  // measure 32
0000
0100
0000
0000
,  // measure 33
0000
1000
0000
0000
,  // measure 34
0000
0000
0000
0000
,  // measure 35
0000
0001
0000
0000
,  // measure 36
0000
0000
0000
0000
,  // measure 37
0000
1000
0000
0000
,  // measure 38
0000
0000
0000
0000
,  // measure 39
0000
0001
0000
0000
,  // measure 40
0000
1000
0000
0000
,  // measure 41
0000
1001
0000
0000
,  // measure 42
0000
0010
0000
0000
,  // measure 43
0000
0000
0000
0000
,  // measure 44
0000
0100
0000
0000
,  // measure 45
0000
0010
0000
0000
,  // measure 46
0000
0100
0000
0000
,  // measure 47
0000
0010
0000
0000
,  // measure 48
0000
1000
0000
0000
,  // measure 49
0000
0001
0000
0000
,  // measure 50
0000
1001
0000
0000
,  // measure 51
0000
0000
0000
0000
,  // measure 52
0000
0010
0000
0000
,  // measure 53
0000
0100
0000
0000
,  // measure 54
0000
0010
0000
0000
,  // measure 55
0000
0100
0000
0000
,  // measure 56
0000
0001
0000
0000
,  // measure 57
0000
1000
0000
0000
,  // measure 58
0000
0001
0000
0000
,  // measure 59
0000
0000
0000
0000
,  // measure 60
0000
1000
0000
0000
,  // measure 61
0000
0000
0000
0000
,  // measure 62
0000
1000
0000
0000
,  // measure 63
0000
0000
0000
0000
,  // measure 64
0000
0001
0000
0000
,  // measure 65
0000
0000
0000
0000
,  // measure 66
0000
0001
0000
0000
,  // measure 67
0000
0000
0000
0000
,  // measure 68
0000
1001
0000
0000
,  // measure 69
0000
0000
0000
0000
,  // measure 70
0000
1000
0000
0000
,  // measure 71
0000
0000
0000
0000
,  // measure 72
0000
0001
0000
0000
,  // measure 73
0000
0000
0000
0000
,  // measure 74
0000
1000
0000
0000
,  // measure 75
0000
0000
0000
0000
,  // measure 76
0000
0010
0000
0000
,  // measure 77
0000
0000
0000
0000
,  // measure 78
0000
0010
0000
0000
,  // measure 79
0000
0000
0000
0000
,  // measure 80
0000
0010
0000
0000
,  // measure 81
0000
0000
0000
0000
,  // measure 82
0000
0110
0000
0000
,  // measure 83
0000
0000
0000
0000
,  // measure 84
0000
0001
0000
0000
,  // measure 85
0000
1000
0000
0000
,  // measure 86
0000
0001
0000
0000
,  // measure 87
0000
0000
0000
0000
,  // measure 88
0000
1000
0000
0000
,  // measure 89
0000
0001
0000
0000
,  // measure 90
0000
1000
0000
0000
,  // measure 91
0000
0001
0000
0000
;
