#TITLE:時空学者とブルーメン;
#SUBTITLE:;
#ARTIST:m@sumi;
#TITLETRANSLIT:JIKUU GAKUSHA TO BLUMEN;
#SUBTITLETRANSLIT:;
#ARTISTTRANSLIT:;
#CREDIT:DigiMindAxel;
#BANNER:JIKUU GAKUSHA TO BLUMEN.png;
#BACKGROUND:JIKUU GAKUSHA TO BLUMEN-bg.png;
#LYRICSPATH:;
#CDTITLE:pop'n music.png;
#MUSIC:JIKUU GAKUSHA TO BLUMEN.mp3;
#METERTYPE:DDR X;
#OFFSET:-8.040;
#SAMPLESTART:15.112;
#SAMPLELENGTH:12.000;
#SELECTABLE:YES;
#DISPLAYBPM:103.000;
#BPMS:0.000=103.000,101.500=51.500,104.500=103.000;
#STOPS:;
#BGCHANGES:;

//---------------dance-single - ----------------
#NOTES:
     dance-single:
     :
     Easy:
     4:
     0.163,0.174,0.114,0.246,0.000: // measure 1
2001
0000
3000
0200
,  // measure 2
0000
0300
2000
0000
,  // measure 3
3000
0002
0000
0003
,  // measure 4
1001
0000
0000
0001
0000
0000
0200
0000
,  // measure 5
0000
0301
2000
0000
,  // measure 6
3000
0002
0000
0003
,  // measure 7
0200
0000
0300
0002
,  // measure 8
0000
0000
0003
0000
2000
0000
0000
3200
,  // measure 9
0000
2300
0000
3000
,  // measure 10
1001
0000
0000
1000
0000
0000
0200
0000
,  // measure 11
0000
0000
1300
0000
0002
0000
0000
0203
,  // measure 12
0000
0320
0000
0130
,  // measure 13
0002
0000
1003
0200
,  // measure 14
0000
1300
0000
0000
0002
0000
0000
0000
,  // measure 15
0000
0013
0000
1001
,  // measure 16
2000
0000
0000
0000
0000
3002
0000
0000
,  // measure 17
0000
0000
2003
0000
0000
0000
0000
3002
,  // measure 18
0000
0000
0103
0000
,  // measure 19
0000
0110
0000
0000
0000
0000
1000
0000
,  // measure 20
0000
0000
0000
1001
0000
0000
0100
0000
,  // measure 21
0000
2000
0000
0000
0000
0000
3000
0002
,  // measure 22
0000
0000
0000
0000
0003
2000
0000
0000
,  // measure 23
0000
0000
3000
0002
0000
0000
0000
0003
,  // measure 24
0000
1001
0000
0000
1000
0000
0000
0100
,  // measure 25
0000
0000
0010
0000
0000
0001
0000
0000
,  // measure 26
0010
0000
0000
0000
,  // measure 27
0000
0100
0000
0000
0010
0000
0000
0010
,  // measure 28
0000
0000
0100
0000
0000
0001
0000
0000
,  // measure 29
0001
0000
0000
1000
0000
0000
1000
0000
,  // measure 30
0000
0110
0000
0000
0010
0000
0000
0100
,  // measure 31
0000
0000
1000
0000
0000
0010
0000
0000
,  // measure 32
0100
0000
0000
0110
0000
0000
0000
0000
,  // measure 33
0000
1001
0000
0000
1000
0000
0000
0001
,  // measure 34
0000
0000
0010
0000
0000
0001
0000
0000
,  // measure 35
0100
0000
0000
0010
0000
0000
0010
0000
,  // measure 36
0000
0110
0000
0000
0100
0000
0000
0001
,  // measure 37
0000
0000
0010
0000
0000
0100
0000
0000
,  // measure 38
0010
0000
0000
0100
0000
0000
1000
0000
,  // measure 39
0000
1001
0000
0000
0000
0000
0000
0001
,  // measure 40
0000
0000
0000
0000
0000
0010
0000
0000
,  // measure 41
0000
0000
0000
0100
0000
0000
0000
0000
,  // measure 42
0000
1001
0000
0000
0000
0000
0000
0001
,  // measure 43
0000
0000
0000
0000
0000
0100
0000
0000
,  // measure 44
0000
0000
0000
0010
0000
0000
0000
2000
,  // measure 45
3000
0000
0000
0000
;

//---------------dance-single - ----------------
#NOTES:
     dance-single:
     :
     Challenge:
     13:
     0.568,0.656,0.272,0.333,0.522: // measure 1
1000
0100
1000
0100
1000
0100
0000
0000
1000
0001
1000
0001
0000
0000
0010
0001
,  // measure 2
0010
0001
0000
0000
0100
0010
0100
0010
0000
0000
1000
0001
1000
0001
0000
0000
,  // measure 3
0010
0100
0010
0100
2000
0000
0000
0000
0000
0000
0000
0000
0000
0000
3000
0000
,  // measure 4
1001
0000
0000
0001
0100
0000
0110
0000
0010
0000
1000
0000
0100
0000
0000
0000
,  // measure 5
1000
0000
1001
0000
0001
0000
0010
0000
0011
0000
0000
0001
1000
0000
1010
0000
,  // measure 6
0010
0100
0010
0100
0001
0000
0000
1000
0001
0000
0011
0000
0010
0000
0100
0000
,  // measure 7
1000
0000
0000
1000
0001
0000
0101
0000
0100
0000
0010
0000
0001
0000
0000
0010
,  // measure 8
0100
0000
0110
0000
0001
1000
0100
1000
0100
0000
0000
0100
1000
0000
1001
0000
,  // measure 9
0001
0000
0100
0000
0010
0000
0100
0001
0100
0000
0010
0000
1000
0100
1000
0100
,  // measure 10
0010
0000
0000
0010
0001
0000
1000
0000
0100
0000
0001
0000
0100
0000
0000
1000
,  // measure 11
0001
0000
0011
0000
0010
0000
0100
0000
1100
0000
0000
0100
1000
0000
0001
0000
,  // measure 12
0010
0000
0000
1000
0000
0000
0010
0000
0001
0000
0001
0000
1000
0000
1000
0000
0100
0000
0010
0000
0000
0001
0000
0000
,  // measure 13
1000
0000
0000
1000
0001
0000
0010
0000
1000
0000
0010
0000
0001
0000
0000
0001
,  // measure 14
1000
0000
0100
0000
0010
0001
0100
0000
0110
0000
0000
0000
0100
0000
0001
0000
,  // measure 15
0010
0000
0100
0000
1100
0000
1000
0000
0001
0010
0100
0000
1000
0001
1000
0001
,  // measure 16
0010
0100
1000
0100
0010
0001
1000
0000
1000
0000
0100
0010
0001
0010
0100
1000
,  // measure 17
0001
0000
0001
0000
0100
0010
1000
0010
0100
0001
1000
0000
1000
0000
0010
0100
,  // measure 18
0001
0100
0010
1000
0001
0010
0100
1000
0001
0010
0001
0010
0001
0000
0010
0000
,  // measure 19
1000
0000
0010
0001
0010
0001
0010
0000
1000
0000
0010
0000
0001
1000
0001
1000
,  // measure 20
0001
0010
0100
1000
0100
0000
1000
0001
1000
0001
1000
0100
0010
0001
0010
0100
,  // measure 21
1000
0001
2000
0000
0000
3100
0010
0001
0020
0000
0000
0031
1000
0100
0020
0000
,  // measure 22
0000
0031
1000
0010
0200
0000
0000
0301
1000
0100
0020
0000
0000
0130
1000
0001
,  // measure 23
0200
0000
0000
0301
1000
0100
0010
0000
0010
0000
0100
0000
0100
0000
0000
0000
,  // measure 24
0000
0000
1001
0000
0000
1000
0100
0010
0100
0000
0000
0100
1000
0100
0010
0000
,  // measure 25
0000
0010
0001
0100
0010
0000
0000
0010
1000
0010
0100
0000
0000
0100
0001
0010
,  // measure 26
0200
0000
0000
0300
0000
0000
0000
0000
,  // measure 27
0000
0000
0000
0000
1100
0000
0000
0000
0000
0000
1000
0001
1000
0000
0100
0000
0010
0000
0000
0000
0000
0000
0000
0000
0010
0000
0000
0000
0110
0000
0000
0000
,  // measure 28
0100
0001
0010
0000
0100
0110
0010
1000
,  // measure 29
0100
0000
0000
0000
0010
0001
0010
0000
0001
0000
0000
0000
1001
0000
0000
0000
1000
0000
0000
0000
0010
0000
0000
0000
0220
0000
0000
0000
0000
0000
0000
0000
,  // measure 30
0330
0000
0101
0000
0000
0010
0100
0000
0001
0000
1000
0000
0100
0000
2000
0000
,  // measure 31
0000
3010
0200
0000
0300
1001
1001
0001
,  // measure 32
0101
0000
0101
0000
0100
0000
1001
0000
0000
0000
0000
0000
1001
0000
0000
1001
,  // measure 33
0000
0000
1001
0000
0000
1000
0010
0100
0010
0000
0000
0010
1000
0100
0010
0000
,  // measure 34
0200
0000
2300
0000
3002
0000
1003
0010
1000
0010
0200
0000
0302
0000
2003
0000
,  // measure 35
3200
0320
0032
1003
0000
0002
2000
0000
,  // measure 36
3003
0000
1001
0000
0000
0001
0100
0010
0100
0000
0000
0100
0001
0010
0100
0000
,  // measure 37
2000
0000
3002
0000
0203
0000
0300
0000
0001
1000
0200
0000
0302
0000
0203
0000
,  // measure 38
1300
0000
0001
0000
0010
0000
0100
0000
1000
0000
0001
0000
1000
0010
1000
0010
1000
0000
0010
0000
0100
0000
0000
0000
0001
0100
0001
0100
0001
0000
0100
0000
,  // measure 39
0010
2001
0000
0000
3200
0000
0000
0320
,  // measure 40
0000
0000
0000
0031
0100
0020
0000
0000
,  // measure 41
0230
0000
0000
0002
0000
0000
0303
0001
,  // measure 42
1000
1100
0000
0000
0100
0000
0000
1000
,  // measure 43
0001
0000
0010
0000
1000
0000
0010
0000
0001
0000
1000
0000
0000
0100
0000
0000
,  // measure 44
0010
0100
1000
0001
1000
0020
0230
0002
,  // measure 45
0303
0000
0000
0000
;

//---------------dance-single - ----------------
#NOTES:
     dance-single:
     :
     Medium:
     6:
     0.248,0.289,0.158,0.184,0.000: // measure 1
0002
0000
0000
2003
,  // measure 2
0000
0000
3002
0000
,  // measure 3
0000
1003
0000
0000
,  // measure 4
1001
0000
0001
0100
0001
0100
0010
0000
,  // measure 5
0110
0000
0100
0010
1000
0000
0100
0010
,  // measure 6
0100
1000
0010
0000
0110
0000
0100
0001
,  // measure 7
2000
0000
0000
3001
1000
0010
0200
0000
,  // measure 8
0000
0310
0000
0000
0102
0000
0000
2003
,  // measure 9
0000
0000
3001
0010
0100
1000
0001
0000
,  // measure 10
1001
0000
0001
0100
0010
0100
0001
0000
,  // measure 11
0010
0100
1000
0100
0010
0000
0100
1000
,  // measure 12
0010
0000
0210
0000
0000
0000
0310
0100
,  // measure 13
0002
0000
0000
0013
0001
0100
0020
0000
,  // measure 14
0000
1030
0001
0010
0002
0000
0000
0000
,  // measure 15
0000
1003
0001
0010
0100
1000
0100
0010
,  // measure 16
1001
0000
0000
0001
0000
1000
0000
0000
,  // measure 17
1100
0000
0010
0000
0000
0100
0000
0001
,  // measure 18
0000
0000
0101
0000
0110
0000
0000
0010
,  // measure 19
1000
0010
0000
0000
0100
0001
0100
0000
,  // measure 20
0000
0001
1000
0001
0000
0000
1000
0001
,  // measure 21
0010
0002
0000
0000
0000
0000
0003
2000
,  // measure 22
0000
0000
0000
0000
3000
0002
0000
0000
,  // measure 23
0000
0000
0003
2000
0000
0000
0000
0000
,  // measure 24
3000
1001
0000
0001
0100
0000
0001
1000
,  // measure 25
0000
1000
0001
0000
0000
1000
0000
0100
,  // measure 26
0020
0000
0000
0030
0000
0000
0000
0000
,  // measure 27
0000
1001
0000
0001
0100
0000
0001
1000
,  // measure 28
0000
0100
0000
0000
0000
1000
0000
0001
,  // measure 29
0010
0000
0100
0010
0000
0000
0001
0000
,  // measure 30
0000
1001
0000
0000
1000
0000
0000
0100
,  // measure 31
0000
0000
1000
0000
0000
0010
0100
0010
,  // measure 32
0100
0010
0100
0001
0000
0000
1001
0000
,  // measure 33
0000
1000
0000
0000
0100
0000
0000
1000
,  // measure 34
0000
0000
0001
0000
0000
0010
0001
0010
,  // measure 35
0001
0000
0000
1000
0000
0000
0010
0000
,  // measure 36
0000
1001
0000
0000
0001
0000
0000
0010
,  // measure 37
0000
0000
0001
0000
0000
1000
0100
1000
,  // measure 38
0100
0000
0000
1001
0000
0000
0110
0000
,  // measure 39
0000
0020
0000
0000
0000
0000
0000
0230
,  // measure 40
0000
0000
0000
0000
0000
0302
0000
0000
,  // measure 41
0000
0000
0000
2003
0000
0000
0000
0000
,  // measure 42
3000
1001
0000
0000
0000
0000
0000
0010
,  // measure 43
0000
0000
0100
0000
0000
0010
0000
0000
,  // measure 44
0100
0000
0000
0000
0000
0001
1000
0002
,  // measure 45
0003
0000
0000
0000
;

//---------------dance-single - ----------------
#NOTES:
     dance-single:
     :
     Hard:
     9:
     0.455,0.444,0.193,0.430,0.189: // measure 1
0110
0100
0001
0000
1000
1001
0001
0100
,  // measure 2
0010
0000
1000
0001
0011
0010
0100
1000
,  // measure 3
0001
0100
0202
0000
0000
0000
0303
0000
,  // measure 4
1001
0000
0000
0001
1000
0000
0100
0000
0010
0000
1000
0000
0020
0000
0000
0000
,  // measure 5
0031
0000
1000
0001
0001
0100
1000
0200
,  // measure 6
0000
0000
0301
0000
2000
0000
0000
0000
3001
0000
0000
0000
1000
0000
0010
0100
,  // measure 7
0002
0000
0000
1003
0001
0010
0200
0000
,  // measure 8
0000
0000
1300
0000
0001
0100
0010
0000
0200
0000
0000
0000
0000
0000
0302
0000
,  // measure 9
0000
0000
1003
0000
0001
0000
0010
0000
0010
0000
0001
0000
1000
0010
0100
0010
,  // measure 10
0100
0001
0010
1000
0010
0001
2000
0000
,  // measure 11
3001
0000
1000
0100
0001
1000
0100
0010
,  // measure 12
1000
0001
0200
0000
0001
0000
0301
1000
,  // measure 13
0200
0000
0310
0000
0001
0100
0020
0000
,  // measure 14
1030
0000
0001
0000
1000
0000
0100
0010
0200
0000
0000
0000
1300
0000
0001
0000
,  // measure 15
0100
0000
0010
0000
0120
0000
0000
0000
1030
0100
0010
0000
0001
0000
0001
0000
,  // measure 16
0101
0000
0010
0100
0010
0100
0010
0000
0000
0000
0100
0000
0001
0100
0001
0100
,  // measure 17
0001
1000
0000
0100
0010
0100
0010
0001
,  // measure 18
1000
0000
0010
0000
1000
0001
1000
0001
1000
0000
0100
1000
0100
0000
2000
0000
,  // measure 19
0000
0000
3001
0000
0100
0001
0100
0000
0002
0000
0000
0000
1003
0000
0001
0010
,  // measure 20
0001
0000
0020
0000
0000
0000
0130
0000
1000
0001
1000
0000
0001
0100
0001
0010
,  // measure 21
0100
1000
0002
0000
0000
0000
0000
0000
0023
0000
0000
0000
0000
0000
2030
0000
,  // measure 22
0000
0000
3020
0000
0000
0032
0000
0000
,  // measure 23
2003
0000
0000
3100
0010
0001
1000
0000
,  // measure 24
0000
0000
1001
0000
0000
0001
0100
0000
0200
0000
0000
0301
1000
0000
2000
0000
,  // measure 25
0000
3100
0010
0000
0020
0000
0000
0031
1000
0000
2000
0000
0000
3010
0100
0000
,  // measure 26
0200
0000
0000
0300
0000
0000
0000
0000
,  // measure 27
0000
0000
1001
0000
0000
0001
1000
0000
2000
0000
0000
0000
3001
0000
0010
0000
,  // measure 28
1000
0010
0001
0000
1000
1001
0001
0010
,  // measure 29
0100
0000
1000
0001
1000
0000
1001
0000
0001
0000
1000
0000
0200
0000
0000
0000
,  // measure 30
0300
0000
0110
0000
0000
0010
0100
0000
0101
0000
0010
0000
0100
0000
1020
0000
,  // measure 31
0000
1030
0002
0000
0000
1003
1000
0001
,  // measure 32
0100
0000
0100
0000
0001
0000
2002
0000
0000
0000
3003
0000
1100
0000
0000
0110
,  // measure 33
0000
0000
0011
0000
0000
0001
1000
0000
1000
0000
0010
0100
0001
0100
0001
0000
,  // measure 34
0010
0000
0100
0000
2000
0000
0000
0000
3001
1000
0001
0000
0010
0000
1000
0000
,  // measure 35
0010
0000
0001
0000
1000
0000
1100
0000
0100
0010
0100
0010
0002
0000
0000
0000
,  // measure 36
0003
0000
0101
0000
0000
0001
1000
0000
1000
0000
0010
0000
0001
0000
0010
0000
,  // measure 37
1000
0000
0001
0000
0200
0000
0000
0000
0301
1000
0001
0000
0010
0000
1000
0000
,  // measure 38
0010
0000
0001
0000
1000
0000
1001
0000
0001
0100
0010
0100
0001
1000
0100
0010
,  // measure 39
0001
1000
0002
0000
0000
0000
0000
0000
2003
0000
0000
0000
0000
0000
3200
0000
,  // measure 40
0000
0000
0000
0301
0100
2000
0000
0000
,  // measure 41
3020
0000
0000
0230
0000
0000
0000
0301
,  // measure 42
1000
2200
0000
0000
0000
0000
0000
3300
,  // measure 43
0001
0000
0010
0000
0100
0000
0010
0000
0001
0000
1000
0000
0000
0010
0000
0000
,  // measure 44
0100
0001
0100
0010
0000
2000
3002
0023
,  // measure 45
0030
0000
0000
0000
;

//---------------dance-single - ----------------
#NOTES:
     dance-single:
     :
     Beginner:
     1:
     0.068,0.076,0.088,0.000,0.000: // measure 1
0001
0000
0000
0001
,  // measure 2
0000
0000
0001
0000
,  // measure 3
0000
0001
0000
0000
,  // measure 4
1001
0000
0000
1000
,  // measure 5
0000
0000
0001
0000
,  // measure 6
0000
1000
0000
0000
,  // measure 7
0010
0000
0000
0000
,  // measure 8
0000
0000
0100
0000
,  // measure 9
0000
0000
0000
0000
,  // measure 10
1001
0000
0000
0000
,  // measure 11
0000
0000
0001
0000
,  // measure 12
0000
0000
0000
0000
,  // measure 13
1000
0000
0000
0001
,  // measure 14
0000
0000
1000
0000
,  // measure 15
0000
0100
0000
0000
,  // measure 16
0010
0000
0000
0000
,  // measure 17
0000
0000
0000
0000
,  // measure 18
0000
0000
0110
0000
,  // measure 19
0000
0000
0000
0001
,  // measure 20
0000
0000
0000
0000
,  // measure 21
0000
1001
0000
0000
0000
0000
0000
0000
,  // measure 22
0000
0000
0000
0000
,  // measure 23
0000
0000
0000
0000
,  // measure 24
0000
1001
0000
0000
0000
0000
0000
0010
,  // measure 25
0000
0000
0000
0000
0000
0100
0000
0000
,  // measure 26
0000
0000
0000
0000
,  // measure 27
0000
0110
0000
0000
0000
0000
0000
0000
,  // measure 28
0000
0000
0000
0000
0000
0001
0000
0000
,  // measure 29
0000
0000
0000
1000
0000
0000
0000
0000
,  // measure 30
0000
1001
0000
0000
0000
0000
0000
0001
,  // measure 31
0000
0000
0000
0000
0000
0010
0000
0000
,  // measure 32
0000
0000
0000
0110
0000
0000
0000
0000
,  // measure 33
0000
0100
0000
0000
0000
0000
0000
0010
,  // measure 34
0000
0000
0000
0000
0000
0100
0000
0000
,  // measure 35
0000
0000
0000
0001
0000
0000
0000
0000
,  // measure 36
0000
1000
0000
0000
0000
0000
0000
0001
,  // measure 37
0000
0000
0000
0000
0000
1000
0000
0000
,  // measure 38
0000
0000
0000
0010
0000
0000
0000
0000
,  // measure 39
0000
0110
0000
0000
0000
0000
0000
0000
,  // measure 40
0000
0000
0000
0000
0000
0100
0000
0000
,  // measure 41
0000
0000
0000
0000
,  // measure 42
0000
1001
0000
0000
0000
0000
0000
0001
,  // measure 43
0000
0000
0000
0000
0000
1000
0000
0000
,  // measure 44
0000
0000
0000
0001
0000
0000
0000
0000
;
