#TITLE:Illegal Function Call;
#SUBTITLE:;
#ARTIST:U1-ASAMi;
#TITLETRANSLIT:;
#SUBTITLETRANSLIT:;
#ARTISTTRANSLIT:;
#CREDIT:DigiMindAxel;
#BANNER:Illegal Function Call.png;
#BACKGROUND:Illegal Function Call-bg.png;
#LYRICSPATH:Illegal Function Call.lrc;
#CDTITLE:beatmania IIDX.png;
#MUSIC:Illegal Function Call.mp3;
#METERTYPE:DDR X;
#OFFSET:1.670;
#SAMPLESTART:3.877;
#SAMPLELENGTH:12.000;
#SELECTABLE:YES;
#BPMS:0.000=260.000,204.000=130.000,220.000=260.000,332.000=130.000,344.000=260.000;
#STOPS:;
#BGCHANGES:0.000=Illegal Function Call.avi=1.000=1=1=0,
99999=-nosongbg-=1.000=0=0=0 // don't automatically add -songbackground-
;

//---------------dance-single - ----------------
#NOTES:
     dance-single:
     :
     Easy:
     6:
     0.283,0.302,0.024,0.178,0.000: // measure 1
0000
0000
0000
0000
,  // measure 2
0000
0000
0000
0000
,  // measure 3
0000
0000
0000
0000
,  // measure 4
0000
0000
0000
0000
,  // measure 5
0000
0000
0000
0000
,  // measure 6
0000
0000
0000
0000
,  // measure 7
0001
0000
1000
0000
,  // measure 8
0001
0000
1000
0000
,  // measure 9
0001
0000
1000
0000
,  // measure 10
0001
0000
1000
0000
,  // measure 11
0001
0000
0100
0000
,  // measure 12
0001
0000
0100
0000
,  // measure 13
0001
0000
0100
0000
,  // measure 14
0001
0000
0100
0000
,  // measure 15
0001
0000
1000
0000
,  // measure 16
0001
0000
1000
0000
,  // measure 17
0001
0000
1000
0000
,  // measure 18
0001
0000
1000
0000
,  // measure 19
0100
0000
1000
0000
,  // measure 20
0100
0000
1000
0000
,  // measure 21
0100
0000
1000
0000
,  // measure 22
1000
0000
1000
0000
,  // measure 23
1001
0000
0000
0000
,  // measure 24
0020
0000
0000
0000
,  // measure 25
0230
0000
0000
0000
,  // measure 26
0320
0000
0000
0000
,  // measure 27
0230
0000
0000
0000
,  // measure 28
0320
0000
0000
0000
,  // measure 29
0230
0000
0000
0000
,  // measure 30
0320
0000
0000
0000
,  // measure 31
0230
0000
0000
0000
,  // measure 32
0310
0100
0010
0000
,  // measure 33
0200
0000
0000
0000
,  // measure 34
0310
0100
0010
0000
,  // measure 35
0200
0000
0000
0000
,  // measure 36
0310
0100
0010
0000
,  // measure 37
0200
0000
0000
0000
,  // measure 38
0310
0100
0010
0000
,  // measure 39
1000
0000
1000
0000
,  // measure 40
0001
0000
0001
0000
,  // measure 41
1000
0000
1000
0000
,  // measure 42
0001
0000
0001
0000
,  // measure 43
0010
0000
0010
0000
,  // measure 44
0100
0000
0100
0000
,  // measure 45
1000
0000
1000
0000
,  // measure 46
0001
0000
0001
0000
,  // measure 47
1001
0000
0000
0000
,  // measure 48
0200
0000
0000
0000
,  // measure 49
1300
0000
0000
0000
,  // measure 50
0020
0000
0000
0000
,  // measure 51
0130
0000
0000
0000
,  // measure 52
0002
0000
0000
0000
,  // measure 53
0013
0000
0000
0000
,  // measure 54
0002
0000
0000
0000
,  // measure 55
2003
0000
0000
0000
,  // measure 56
3002
0000
0000
0000
,  // measure 57
2003
0000
0000
0000
,  // measure 58
3002
0000
0000
0000
,  // measure 59
1003
0000
0100
0000
,  // measure 60
0010
0000
0001
0000
,  // measure 61
0010
0000
0100
0000
,  // measure 62
1000
0000
0001
0000
,  // measure 63
1000
0000
0001
0000
,  // measure 64
1000
0000
0001
0000
,  // measure 65
0100
0000
0010
0000
,  // measure 66
1000
0000
0010
0000
,  // measure 67
0100
0000
0100
0000
,  // measure 68
0010
0000
0010
0000
,  // measure 69
0100
0000
0100
0000
,  // measure 70
0010
0000
0010
0000
,  // measure 71
1000
0000
0100
0000
,  // measure 72
0010
0000
0001
0000
,  // measure 73
0010
0000
0100
0000
,  // measure 74
1000
0000
0001
0000
,  // measure 75
1000
0000
1000
0000
,  // measure 76
0001
0000
0001
0000
,  // measure 77
1000
0000
1000
0000
,  // measure 78
0001
0000
0001
0000
,  // measure 79
1000
0000
1000
0000
,  // measure 80
0001
0000
0001
0000
,  // measure 81
0010
0000
0100
0000
,  // measure 82
0010
0000
0100
0000
,  // measure 83
1000
0000
0001
0000
,  // measure 84
1000
0000
0001
0000
,  // measure 85
0100
0000
0001
0000
,  // measure 86
0100
0000
0001
0000
,  // measure 87
2000
0000
0000
0000
,  // measure 88
0000
0000
0000
0000
,  // measure 89
0000
0000
0000
0000
,  // measure 90
3001
0000
0010
0000
,  // measure 91
0100
0000
1000
0000
,  // measure 92
0100
0000
0010
0000
,  // measure 93
0001
0000
1000
0000
,  // measure 94
0001
1000
0001
0000
,  // measure 95
0010
0000
0100
0000
,  // measure 96
1000
0001
1000
0000
,  // measure 97
0100
0000
0010
0000
,  // measure 98
0001
1000
0001
0000
,  // measure 99
0100
0000
0010
0000
,  // measure 100
1000
0001
1000
0000
,  // measure 101
0010
0000
0100
0000
,  // measure 102
0001
1000
0001
0000
,  // measure 103
0010
0000
0100
0000
,  // measure 104
1000
0001
1000
0000
,  // measure 105
0100
0000
0010
0000
,  // measure 106
0001
1000
0001
0000
,  // measure 107
0100
0000
0010
0000
,  // measure 108
1000
0001
1000
0000
,  // measure 109
0010
0000
0100
0000
,  // measure 110
0001
1000
0001
0000
,  // measure 111
0010
0000
0100
0000
,  // measure 112
1000
0001
1000
0000
,  // measure 113
0100
1000
0100
0000
,  // measure 114
1000
0000
0001
0000
,  // measure 115
0100
0001
0100
0000
,  // measure 116
0001
0000
1000
0000
,  // measure 117
0010
0100
0010
0000
,  // measure 118
1000
0000
0001
0000
,  // measure 119
0010
0100
0010
0000
,  // measure 120
0001
0000
1000
0000
,  // measure 121
0001
0000
1000
0000
,  // measure 122
2002
0000
0000
0000
,  // measure 123
0000
0000
0000
0000
,  // measure 124
0000
0000
0000
0000
,  // measure 125
0000
0000
3003
0000
;

//---------------dance-single - ----------------
#NOTES:
     dance-single:
     :
     Medium:
     10:
     0.506,0.654,0.032,0.121,0.000:
0000
0000
0000
0000
,
0000
0000
0000
0000
,
0000
0000
0000
0000
,
0000
0000
0000
0000
,
0000
0000
0000
0000
,
0000
0000
0000
0000
,
1000
0100
1000
0100
,
1000
0001
1000
0001
,
1000
0100
1000
0100
,
1000
0010
0100
0001
,
1000
0001
1000
0001
,
0100
0001
0100
0001
,
0100
0010
0100
0010
,
1000
0001
0010
0100
,
1000
0001
1000
0001
,
0100
0001
0100
0001
,
1000
0010
1000
0010
,
1000
0100
0010
0001
,
0010
0100
0010
0100
,
1000
0001
1000
0001
,
0100
0010
0100
0010
,
2000
3002
2003
3002
,
1003
1000
1000
0000
,
2000
0000
0000
0000
,
3001
0001
0001
0000
,
0002
0000
0000
0000
,
1003
1000
1000
0000
,
2000
0000
0000
0000
,
3001
0001
0001
0000
,
0002
0000
0000
0000
,
1003
0100
1000
0000
,
0001
0010
0100
1000
,
0001
0010
0001
0000
,
1000
0100
0010
0001
,
0100
0010
0100
0000
,
0001
1000
0010
0100
,
0001
0100
0001
0000
,
1000
0010
0100
0001
,
0010
0100
0010
0100
,
0010
0100
0010
0001
,
0010
0001
0010
0001
,
0010
0001
0010
0000
,
0001
1000
0001
1000
,
0001
1000
0001
1000
,
0001
0100
0001
0100
,
0010
1000
0010
1000
,
2001
0000
3100
0000
,
1000
1000
0001
0000
,
0200
0000
0301
0000
,
1000
1000
0100
0000
,
0020
0000
0031
0000
,
1000
1000
0001
0001
,
1000
0000
0010
0000
,
0100
0100
0001
0000
,
1001
0000
0000
0000
,
0000
0000
0000
0000
,
0010
0010
0010
0010
,
0010
0010
0010
0010
,
0010
0100
0010
0100
,
0001
0100
0001
0100
,
0010
1000
0010
1000
,
0001
1000
0001
1000
,
0100
1000
0100
1000
,
0010
0100
0010
0100
,
0001
0010
0001
0010
,
0001
1000
0001
1000
,
0100
1000
0100
1000
,
0010
0100
0010
0100
,
0001
0010
0001
0010
,
0001
1000
0001
1000
,
0100
0010
0001
0010
,
0100
1000
0010
0000
,
0100
0001
0010
0100
,
1000
0010
0100
0000
,
0001
0010
0100
1000
,
0100
0010
0001
0000
,
1000
0010
0100
0001
,
0100
0010
1000
0000
,
0001
0100
0010
1000
,
0010
0100
0001
0000
,
1000
0100
0010
0001
,
0010
0100
1000
0000
,
0010
0100
0010
0100
,
0010
0100
0010
0100
,
0001
1000
0001
1000
,
0001
1000
0100
0010
,
2002
0000
0000
0000
,
0000
0000
0000
0000
,
0000
0000
0000
3003
,
1000
0100
0010
0001
,
1000
0100
0010
0001
,
1000
0100
0010
0100
,
1000
0100
0010
0100
,
1000
0010
0100
0001
,
1000
0010
0100
0001
,
1000
0100
0010
0100
,
1000
0100
0010
0100
,
1000
0001
0010
0100
,
1000
0001
0010
0100
,
1000
0010
0100
0010
,
1000
0010
0100
0010
,
1000
0001
0010
0100
,
1000
0001
0010
0100
,
1000
0001
0010
0100
,
0010
0001
0100
0001
,
1000
0100
0010
0001
,
0010
0100
1000
0001
,
1000
0100
0000
1000
0001
0000
1000
0001
,
0000
0100
0001
0000
0100
0000
0001
0000
,
0010
0100
1000
0100
,
0010
0001
1000
0010
,
1000
0001
1000
0000
0100
0000
0010
0000
,
0001
1000
0001
0000
0010
0000
0100
0000
,
1000
0010
0100
0010
,
1000
0001
1000
0001
1000
0000
0001
0000
,
1000
0001
1000
0001
,
0100
0010
0100
0010
0100
0000
0010
0000
,
0100
0010
0100
0001
,
1000
0100
0010
0001
,
0100
0010
0100
0010
0100
0010
0100
0000
,
0001
1000
0001
1000
0001
1000
0001
0000
,
2002
0000
0000
0000
,
0000
0000
0000
0000
,
0000
0000
0000
0000
,
0000
0000
3003
0000
;

//---------------dance-single - ----------------
#NOTES:
     dance-single:
     :
     Hard:
     14:
     0.765,0.956,0.016,0.137,0.008:
0000
0000
0000
0000
,
0000
0000
0000
0000
,
0000
0000
0000
0000
,
0000
0000
0000
0000
,
0000
0000
0000
0000
,
0000
0000
0000
0000
,
0001
0010
0100
1000
,
0100
0000
0010
0000
0001
0000
1000
0001
,
1000
0010
0100
0001
,
0100
0000
0010
0000
1000
0001
1000
0001
,
1000
0100
0010
0100
,
1000
0000
0010
0100
0010
0100
0010
0000
,
1000
0001
0100
0001
,
1000
0100
1000
0100
1000
0100
0010
0000
,
0001
1000
0100
1000
,
0001
0000
1000
0000
0001
0100
0001
0000
,
0010
0100
1000
0010
,
0100
0001
0100
0001
0100
0001
1000
0000
,
0001
0100
0010
0100
,
0001
1000
0001
0000
1000
0100
1000
0000
,
0010
0100
0000
0010
0000
0100
0010
0000
,
1000
0001
0000
1000
0000
0001
1000
0000
,
0200
1000
1300
0000
,
0002
1000
1003
0000
,
0020
1000
1030
0000
,
0002
1000
1003
0000
,
0002
0010
0013
0000
,
0002
1000
1003
0000
,
0020
1000
1030
0000
,
0001
1000
0001
0000
1000
0100
1000
0000
,
0001
0000
0100
0001
0000
0100
0001
0000
,
1000
0100
1000
0100
1000
0100
1000
0100
,
0010
0000
0001
0100
0000
0001
0100
0000
,
0010
0100
0010
0100
0010
0100
0001
1000
,
0001
0000
1000
0100
0000
1000
0100
0000
,
1000
0001
1000
0001
1000
0010
0100
0010
,
1000
0000
0100
0010
0000
0100
0010
0000
,
0001
0100
0001
0100
0001
1000
0100
1000
,
0001
0010
0001
0010
0100
0000
0100
1000
,
0001
0000
0001
0000
1000
0010
1000
0010
,
0100
0000
0100
0001
0010
0000
0010
0000
,
0001
0010
0100
0000
0100
1000
0001
0000
,
1000
0100
0010
0100
1000
0000
0001
0100
,
0001
0000
0010
0100
0010
0000
0001
1000
,
0001
0100
0010
0100
0001
0000
1000
0100
,
1000
0100
0010
0001
1000
0100
0010
0000
,
2001
0001
3001
0000
,
0020
0001
0031
0000
,
0200
0010
0310
0000
,
2000
0010
3010
0000
,
1000
1000
0000
0000
0001
0001
0000
0000
,
0100
0010
0100
0000
0001
1000
0001
1000
,
0020
0100
0130
0000
,
1000
0001
1000
0001
0100
0000
0000
0000
,
1002
0000
0000
0000
,
0000
0000
0000
0000
,
1003
0000
0100
0000
0010
0000
0001
0000
0010
0000
0100
0000
1000
0000
0001
1000
,
0001
0000
0100
0000
0010
0000
1000
0000
0010
0000
0100
0000
0001
0000
1000
0001
,
1000
0000
0100
1000
0000
0100
1000
0000
,
0001
0100
0000
0001
1000
0000
0100
1000
,
0000
0100
0010
0000
0001
0010
0000
0100
,
0010
0000
0001
0100
0000
0010
0100
0010
,
1000
0000
0100
0010
0000
0001
0100
0000
,
0010
1000
0000
0100
0010
0000
0001
0010
,
0000
0100
0010
0000
0001
1000
0000
0100
,
0010
0000
0100
1000
0000
0010
0100
0010
,
1000
0000
0001
0010
0000
0001
1000
0000
,
0100
1000
0000
0001
1000
0000
0001
0100
,
0000
0010
0100
0000
0010
1000
0000
0100
,
0010
0100
0010
0100
0010
0001
1000
0000
,
0010
0000
0100
0001
0000
1000
0100
0000
,
0010
0001
0000
1000
0010
0000
1000
0001
,
0000
0010
0100
0000
1000
0001
0000
0100
,
0010
0000
1000
0001
1000
0001
1000
0000
,
0001
1000
0000
0100
0000
1000
0001
0000
,
1000
0001
0000
0100
0000
0001
1000
0000
,
0100
0010
0000
0010
0100
0000
1000
0001
,
0100
0000
0010
1000
0000
1000
0001
0000
,
1000
0001
0000
0100
0000
0001
1000
0000
,
0001
1000
0000
0100
0000
1000
0001
0000
,
1000
0100
1000
0000
0001
0010
0001
0000
,
0100
0010
0100
0000
0010
0100
0010
0100
,
0010
1000
0100
0001
,
0100
0000
1000
0000
0010
0000
0100
0010
,
1000
0100
0010
0100
,
1000
0000
0001
0000
0100
0001
0100
0001
,
2000
0000
0000
0000
,
0000
0000
0000
0000
,
0000
0000
0002
0000
0000
0000
0000
3000
,
1003
0010
1000
0010
0100
0001
0100
0001
,
1000
0100
0010
0100
1000
0001
1000
0000
,
0001
0010
0001
0010
0100
1000
0100
1000
,
0001
1000
0010
1000
0001
0010
0100
0000
,
1000
0010
0100
0001
0010
0000
0100
0010
,
0000
0001
0100
0010
0100
0001
0010
0000
,
0001
0010
0100
1000
0100
0010
0001
1000
,
0000
0010
0100
0000
0010
1000
0000
0010
,
0100
0001
0010
0100
0010
0001
1000
0010
,
0100
0010
1000
0100
0010
0001
1000
0000
,
0010
1000
0100
0010
0100
1000
0001
0100
,
0010
0100
0001
0010
0100
1000
0001
0000
,
1000
0100
0010
0001
0100
0000
0010
1000
,
0000
0100
0010
0000
0001
1000
0000
0010
,
0100
0001
0010
0001
0100
0000
0010
1000
,
0000
0100
0010
0000
0001
0100
0000
0001
,
1000
0100
0010
0100
1000
0010
0100
0010
,
1000
0000
0100
0010
0001
0010
0100
1000
,
0001
0100
0000
0100
0010
0000
1000
0100
,
0000
0100
0010
0000
0001
1000
0100
1000
,
0001
0010
0100
1000
0100
0010
0001
1000
,
0000
1000
0001
0000
0100
0001
0000
0001
,
1000
0010
0100
0001
0100
0010
1000
0001
,
0000
0001
1000
0000
0100
1000
0000
1000
,
0001
0010
0001
0010
0100
1000
0100
1000
,
0001
0100
0001
0100
0010
1000
0010
1000
,
0001
0010
0100
1000
0100
0010
0001
1000
,
0001
0100
0010
1000
0010
0100
0001
1000
,
0001
0010
0100
0010
0001
0010
0100
0010
,
0001
1000
0010
1000
0001
1000
0010
1000
,
0001
0100
1000
0100
0001
0100
1000
0100
,
0001
0010
1000
0010
0001
0010
1000
0010
,
0002
0000
0000
0000
,
0000
0000
0000
0000
,
0000
0000
2000
0000
,
0000
0000
3003
0000
;

//---------------dance-single - ----------------
#NOTES:
     dance-single:
     :
     Beginner:
     3:
     0.140,0.245,0.065,0.000,0.000:
0000
0000
0000
0000
,
0000
0000
0000
0000
,
0000
0000
0000
0000
,
0000
0000
0000
0000
,
0000
0000
0000
0000
,
0000
0000
0000
0000
,
0001
0000
0000
0000
,
0000
0000
0000
0000
,
0010
0000
0000
0000
,
0000
0000
0000
0000
,
0100
0000
0000
0000
,
0000
0000
0000
0000
,
1000
0000
0000
0000
,
0000
0000
0000
0000
,
0001
0000
0000
0000
,
0000
0000
0000
0000
,
0010
0000
0000
0000
,
0000
0000
0000
0000
,
0100
0000
0000
0000
,
0000
0000
0000
0000
,
1000
0000
0000
0000
,
0000
0000
0000
0000
,
0001
0000
0000
0000
,
0001
0000
0000
0000
,
0001
0000
0000
0000
,
0001
0000
0000
0000
,
0001
0000
0000
0000
,
0001
0000
0000
0000
,
0001
0000
0000
0000
,
0001
0000
0000
0000
,
1001
0000
0000
0000
,
1000
0000
0000
0000
,
1001
0000
0000
0000
,
0001
0000
0000
0000
,
1001
0000
0000
0000
,
1000
0000
0000
0000
,
1001
0000
0000
0000
,
0001
0000
0000
0000
,
1000
0000
0000
0000
,
0100
0000
0000
0000
,
1000
0000
0000
0000
,
0100
0000
0000
0000
,
0010
0000
0000
0000
,
0001
0000
0000
0000
,
0010
0000
0000
0000
,
0001
0000
0000
0000
,
1000
0000
0000
0000
,
1000
0000
0000
0000
,
1000
0000
0000
0000
,
1000
0000
0000
0000
,
1000
0000
0000
0000
,
1000
0000
0000
0000
,
1000
0000
0000
0000
,
1000
0000
0000
0000
,
1001
0000
0000
0000
,
0000
0000
0000
0000
,
0001
0000
0000
0000
,
0010
0000
0000
0000
,
0001
0000
0000
0000
,
1000
0000
0000
0000
,
0001
0000
0000
0000
,
1000
0000
0000
0000
,
0010
0000
0000
0000
,
0100
0000
0000
0000
,
0010
0000
0000
0000
,
0100
0000
0000
0000
,
0001
0000
0000
0000
,
1000
0000
0000
0000
,
0001
0000
0000
0000
,
0010
0000
0000
0000
,
0001
0000
0000
0000
,
0100
0000
0000
0000
,
0010
0000
0000
0000
,
1000
0000
0000
0000
,
0100
0000
0000
0000
,
0100
0000
0000
0000
,
1000
0000
0000
0000
,
1000
0000
0000
0000
,
0001
0000
0000
0000
,
0001
0000
0000
0000
,
0100
0000
0000
0000
,
0100
0000
0000
0000
,
0010
0000
0000
0000
,
0100
0000
0000
0000
,
0010
0000
0000
0000
,
0100
0000
0000
0000
,
0010
0000
0000
0000
,
0000
0000
0000
0000
,
0000
0000
0000
0000
,
1001
0000
0000
0000
,
1000
0000
0000
0000
,
1001
0000
0000
0000
,
0001
0000
0000
0000
,
0010
0000
0000
0000
,
0100
0000
0000
0000
,
1000
0000
0000
0000
,
0001
0000
0000
0000
,
1000
0000
0001
0000
,
1000
0000
0000
0000
,
0001
0000
1000
0000
,
0001
0000
0000
0000
,
1000
0000
0000
0000
,
0100
0000
0000
0000
,
0010
0000
0000
0000
,
0001
0000
0000
0000
,
1000
0000
0001
0000
,
1000
0000
0000
0000
,
0001
0000
1000
0000
,
0001
0000
0000
0000
,
1000
0000
0000
0000
,
0010
0000
0000
0000
,
0100
0000
0000
0000
,
0001
0000
0000
0000
,
1000
0000
0001
0000
,
1000
0000
0000
0000
,
0001
0000
1000
0000
,
0001
0000
0000
0000
,
0100
0000
0000
0000
,
0010
0000
0000
0000
,
1000
0000
0001
0000
,
1000
0000
0001
0000
,
1001
0000
0000
0000
;
