#TITLE:INSOMNIA;
#SUBTITLE:;
#ARTIST:ジャカルタファンクブラザーズ;
#TITLETRANSLIT:;
#SUBTITLETRANSLIT:;
#ARTISTTRANSLIT:JAKARTA FUNK BROTHERS;
#CREDIT:DigiMindAxel;
#BANNER:INSOMNIA.png;
#BACKGROUND:INSOMNIA-bg.png;
#LYRICSPATH:;
#CDTITLE:beatmania IIDX.png;
#MUSIC:INSOMNIA.mp3;
#METERTYPE:DDR X;
#OFFSET:0.000;
#SAMPLESTART:28.261;
#SAMPLELENGTH:12.000;
#SELECTABLE:YES;
#BPMS:0.000=195.000;
#STOPS:;
#BGCHANGES:0.000=INSOMNIA.avi=1.000=1=0=1,
99999=-nosongbg-=1.000=0=0=0 // don't automatically add -songbackground-
;

//---------------dance-single - ----------------
#NOTES:
     dance-single:
     :
     Easy:
     6:
     0.300,0.353,0.114,0.024,0.000:
0000
0000
0000
0000
,
0000
0000
0000
0000
,
0000
0000
0000
0000
,
0000
0000
0000
0000
,
0000
0000
0000
0000
,
0000
0000
0000
0000
,
0000
0000
0000
0000
,
0001
0000
1000
0000
,
0001
0000
1000
0000
,
0001
0000
1000
0000
,
0001
0000
1000
0000
,
0100
0010
0100
0010
,
0100
0010
0100
0000
,
1000
0001
1000
0001
,
2000
0000
0000
3000
,
0001
1000
0001
0000
,
0010
0001
0010
0000
,
0100
1000
0100
0000
,
1000
0001
1000
0000
,
0001
0100
0001
0000
,
1000
0010
1000
0010
,
1000
0001
1000
0000
,
0001
1000
0001
0000
,
0010
0010
0010
0010
,
0010
0001
0010
0100
,
1000
0000
0001
0000
,
1000
0000
0001
0000
,
0100
0100
0100
0100
,
0100
0001
0010
0100
,
1000
0000
0001
0000
,
0100
0000
0001
0000
,
0010
0010
0010
0010
,
0010
0001
0100
0010
,
1000
0000
0001
0000
,
0010
0000
0001
0000
,
1000
1000
1000
1000
,
1000
0100
0010
0001
,
0100
0000
0010
0000
,
0100
0000
0001
0000
,
1001
0000
1000
0000
,
1001
0000
0001
0000
,
1000
0001
1000
0001
,
1000
1000
1000
1001
,
0001
0000
0010
0000
,
0100
0000
1000
0000
,
0100
0000
0010
0000
,
0001
0000
0010
0000
,
0100
0000
0010
0000
,
0100
0000
1000
0000
,
0001
0000
0100
0000
,
0001
0000
0010
0000
,
0100
0000
1000
0000
,
0100
0000
1000
0000
,
0010
0000
0100
0000
,
0001
0000
1000
0000
,
0001
0000
0010
0000
,
0100
0000
0010
0000
,
0001
0000
1000
0000
,
0001
0000
1000
0000
,
1001
0000
0000
0000
,
1001
0000
0000
0000
,
1001
0000
1001
0000
,
0000
0000
0010
0000
,
0110
0000
0000
0000
,
0110
0000
0000
0000
,
0110
0000
0110
0000
,
0000
0000
0100
0000
,
0110
0000
0001
0000
,
0010
0000
0100
0000
,
1000
0000
0100
0000
,
0010
0000
0001
0000
,
1000
0001
1000
0001
,
1000
0001
1000
0001
,
1000
1000
1000
1000
,
0001
0001
0001
0001
,
1001
0000
0000
0000
,
0010
0000
0000
0000
,
0001
0010
0001
0010
,
0001
1000
0001
1000
,
0001
0000
0010
0100
,
0010
0000
0100
1000
,
0100
1000
0001
1000
,
0001
0100
0001
0100
,
0010
0000
0010
1000
,
0001
0000
1000
0000
,
0100
1000
0100
1000
,
0010
0100
0001
0010
,
0001
0000
0001
0000
,
1000
0100
0010
0001
,
1000
0100
1000
0100
,
1000
0001
1000
0001
,
0010
0100
0010
0100
,
1000
0010
1000
0010
,
0200
0000
0301
0000
,
2000
0000
3100
0000
,
0010
0001
0010
0001
,
0100
0100
0100
0110
;

//---------------dance-single - ----------------
#NOTES:
     dance-single:
     :
     Medium:
     10:
     0.489,0.588,0.292,0.187,0.000:
0000
0000
0000
0000
,
0000
0000
0000
0000
,
0000
0000
0000
0000
,
0000
0000
0000
0000
,
0000
0000
0000
0000
,
0000
0000
0000
0000
,
0000
0000
0000
0000
,
1000
0000
1001
0000
,
0001
0000
1001
0000
,
1000
0000
1001
0000
,
0001
0000
1001
0000
,
1000
0001
1000
0001
,
1000
0100
1000
0100
,
0010
0001
0010
0001
,
0200
0000
0300
0110
,
0001
0100
0010
0100
,
0001
0010
0100
1000
,
0002
0000
0100
0103
0000
0000
0001
0000
,
2000
0000
0100
3100
0000
0000
1000
0000
,
0001
0010
0100
0010
,
0001
1000
0100
1000
,
0010
0010
0110
0100
,
0001
1000
1001
0000
,
1001
0000
0100
1000
0100
1000
0100
1000
,
0100
0000
1000
0000
0001
1000
0001
0000
,
1000
0000
0010
0100
0010
0000
1000
0000
,
1001
0001
0001
0001
,
0000
0000
0010
0001
0010
0001
0010
0001
,
0010
0000
0001
0000
1000
0001
1000
0000
,
0001
0000
0100
0010
0100
0000
0001
0000
,
1001
0100
0010
0001
,
1001
0000
0010
1000
0010
1000
0010
1000
,
0010
0000
1000
0001
1000
0000
0010
0000
,
0110
0000
1000
0100
1000
0000
0001
0000
,
1001
0001
0001
0001
,
0000
0000
0100
0001
0100
0001
0100
0001
,
0100
0000
0001
1000
0001
0000
0100
0000
,
0120
0000
0130
0000
,
0002
0000
1003
0000
,
1001
1000
1001
0000
,
1001
0001
1001
0000
,
1001
1000
1000
1000
,
0001
1000
0001
1000
0001
1000
0100
0000
,
1001
1000
0100
1000
,
0001
1000
0001
1000
,
0001
0100
0001
0100
,
0010
1000
0002
0000
,
1003
0100
1000
0100
,
1000
0001
1000
0001
,
0100
0001
0100
0001
,
1000
0100
0010
0001
,
1000
0100
1000
0100
,
1000
0001
1000
0001
,
0100
0001
0100
0001
,
0010
0100
1000
1000
,
0001
0010
0001
0010
,
0001
1000
0001
1000
,
0010
1000
0010
1000
,
0001
0010
0100
1000
,
2002
0000
0000
3003
,
2200
0000
0000
3300
,
0011
0000
0022
0000
,
0000
0033
1000
0000
,
2002
0000
0000
3003
,
0202
0000
0000
0303
,
1010
0000
2020
0000
,
0000
3030
0010
0000
,
0110
0100
0010
0100
,
0010
0100
0010
0100
,
0001
1000
0001
1000
,
0001
1000
0001
1000
,
0100
1000
0100
1000
0100
1000
0100
0000
,
1000
0001
1000
0001
1000
0001
1000
0000
,
0001
0100
0001
0100
0001
0100
0001
0000
,
1000
0001
1000
0001
1000
0001
1000
0000
,
2002
0000
0000
3003
,
0200
0000
0000
0310
,
1000
0100
0010
0100
,
1000
0000
0001
0000
0100
0001
0100
0001
,
1000
0001
0001
1000
,
1000
0000
0001
0000
0001
1000
0001
0000
,
0010
0001
1000
0100
,
1000
0000
0001
0000
0100
0001
0100
0001
,
1000
0001
0001
1000
,
1000
0100
0010
0001
,
1001
0001
1000
0010
,
1000
0000
0001
0000
0010
0001
0010
0001
,
1000
0000
0001
1000
0001
0000
1000
0001
,
1000
0100
0010
0001
,
1001
1000
0001
0100
,
0001
0000
1000
0000
0100
1000
0100
1000
,
0001
0000
0100
0010
0100
0000
0001
1000
,
0001
0100
0010
1000
,
2001
0100
3100
0010
,
0012
1000
1003
0001
,
1001
1000
1001
0001
,
0100
0010
0100
0010
0100
0010
1000
0000
;

//---------------dance-single - ----------------
#NOTES:
     dance-single:
     :
     Hard:
     12:
     0.668,0.706,0.632,0.324,0.000: // measure 1
0000
0000
0000
0000
,  // measure 2
0000
0000
0000
0000
,  // measure 3
0000
0000
0000
0000
,  // measure 4
0000
0000
0000
0000
,  // measure 5
0000
0000
0000
0000
,  // measure 6
0000
0000
0000
0000
,  // measure 7
0000
0000
0000
0000
,  // measure 8
0201
0000
0310
0000
,  // measure 9
0210
0000
0301
0000
,  // measure 10
1200
0000
0310
0000
,  // measure 11
0120
0000
1030
0000
,  // measure 12
1001
0000
1000
0000
1000
0000
1000
0001
,  // measure 13
0100
0000
0001
0000
0001
0000
0001
1000
,  // measure 14
0100
0000
0010
0000
0010
0000
0010
0001
,  // measure 15
0100
0000
0100
0010
0100
0000
0110
0000
,  // measure 16
1000
0010
0100
0000
0010
1000
0100
0000
,  // measure 17
1000
0100
0010
0001
0010
0100
1000
0001
,  // measure 18
0200
0000
0001
0301
0000
1000
0001
0010
,  // measure 19
0200
0000
0010
0310
0000
0001
1000
0100
,  // measure 20
1000
0001
0010
0000
0001
0100
0010
0000
,  // measure 21
1000
0100
0010
0001
0010
0100
1000
0001
,  // measure 22
0200
0300
0200
0300
0101
0000
0001
1000
,  // measure 23
0000
1000
0000
0001
2002
0000
3003
0000
,  // measure 24
0001
1000
0010
0010
0100
0100
0010
0010
,  // measure 25
1000
0100
0001
0100
1000
0010
0100
0001
,  // measure 26
1000
0000
1000
0010
0100
0001
1000
0100
,  // measure 27
0010
0000
0010
0001
1000
0100
0010
0100
,  // measure 28
0000
1000
0010
0010
0100
0100
0010
0010
,  // measure 29
1000
0100
0001
0100
1000
0010
0100
0001
,  // measure 30
1000
0000
1000
0010
0100
0001
1000
0100
,  // measure 31
0020
0032
0203
0310
,  // measure 32
1000
0001
0010
0010
0100
0100
0010
0010
,  // measure 33
0001
0100
1000
0100
0001
0010
0100
1000
,  // measure 34
0001
0000
0001
0010
0100
1000
0001
0100
,  // measure 35
0010
0000
0010
1000
0010
0100
0001
0100
,  // measure 36
0000
0000
0001
0001
1000
1000
0001
0001
,  // measure 37
0100
0010
1000
0010
0100
0001
1000
0100
,  // measure 38
1100
0000
0100
0010
0001
0010
0100
1000
,  // measure 39
0010
0000
0010
0100
0001
0100
0010
0000
,  // measure 40
0110
0000
0100
0001
0101
0000
0100
0010
,  // measure 41
0110
0000
0010
1000
1010
0000
0010
0000
,  // measure 42
0110
0110
1001
1001
,  // measure 43
1000
0100
0010
0001
0010
0100
1000
0000
,  // measure 44
1001
0101
1000
0101
,  // measure 45
0001
1010
0001
1010
,  // measure 46
1000
0011
1000
0011
,  // measure 47
1000
1001
2000
0000
,  // measure 48
3001
0011
1000
0011
,  // measure 49
0001
1100
0001
1100
,  // measure 50
0001
0100
0002
1000
,  // measure 51
2003
3200
0310
0110
,  // measure 52
1001
1010
0001
1010
,  // measure 53
0001
1001
1000
0101
,  // measure 54
1000
0101
1000
1001
,  // measure 55
0001
1001
0002
1003
,  // measure 56
0001
1100
0001
1100
,  // measure 57
0001
1001
1000
0011
,  // measure 58
1000
0001
0200
0010
,  // measure 59
0320
0000
2030
0000
3001
0010
0100
1000
,  // measure 60
2002
0000
0000
3003
,  // measure 61
0202
0000
0000
0303
,  // measure 62
0220
0330
0220
0000
,  // measure 63
0000
0330
1100
0000
,  // measure 64
2200
0000
0000
3300
,  // measure 65
0220
0000
0000
0330
,  // measure 66
0202
0303
0202
0000
,  // measure 67
0000
0303
1001
0000
,  // measure 68
1001
0000
0001
0000
0010
0000
0100
1000
,  // measure 69
0001
0000
0010
0000
0100
0010
0001
0010
,  // measure 70
0100
0000
1000
0000
0010
0000
1000
0001
,  // measure 71
0100
0000
0001
0000
0100
0001
1000
0100
,  // measure 72
0010
0001
0100
0001
0010
0001
0100
0001
,  // measure 73
1000
0100
0010
0100
1000
0100
0010
0100
,  // measure 74
1000
0001
0100
0001
1000
0001
0100
0001
,  // measure 75
1000
0100
0010
0001
0010
0100
1000
0001
,  // measure 76
2002
0000
0000
3003
,  // measure 77
0020
0000
0000
0000
0000
0000
0130
0001
,  // measure 78
0010
0011
0100
0110
,  // measure 79
1000
0000
1100
0000
1000
0100
0001
0100
,  // measure 80
1000
0000
1000
0001
0100
0000
0100
0001
,  // measure 81
1000
0000
1000
0100
0010
0001
1000
0000
,  // measure 82
1100
0100
0110
0010
,  // measure 83
0101
0000
0100
0000
0001
0100
1000
0100
,  // measure 84
0001
0000
0001
1000
0100
0000
0100
1000
,  // measure 85
0001
0100
0010
1000
0010
0100
0001
0000
,  // measure 86
0101
0100
0110
0010
,  // measure 87
1010
0000
1000
0000
0001
0100
1000
0100
,  // measure 88
0001
0000
0001
0010
0100
0000
0100
0010
,  // measure 89
0001
0000
0001
1000
0100
0001
0100
1000
,  // measure 90
1001
1001
1100
1100
,  // measure 91
0011
0000
0011
0000
0001
0100
1000
0100
,  // measure 92
0001
0000
0001
0100
0010
0000
0010
0100
,  // measure 93
0001
0010
0100
1000
0100
0010
0001
1000
,  // measure 94
1001
0000
0100
0001
0101
0000
0100
0010
,  // measure 95
0110
0000
0100
1000
1100
0000
0100
0010
,  // measure 96
0110
0110
1001
1001
,  // measure 97
1000
0100
0010
0001
0010
0100
1100
0000
;

//---------------dance-single - ----------------
#NOTES:
     dance-single:
     :
     Challenge:
     15:
     0.810,0.902,0.389,0.316,0.203:
0000
0000
0000
0000
,
0000
0000
0000
0000
,
0000
0000
0000
0000
,
0000
0000
0000
0000
,
0000
0000
0000
0000
,
0000
0000
0000
0000
,
0000
0000
0000
0000
,
1001
0100
0101
0101
,
1000
0000
0200
1000
0000
1300
0001
0000
,
1000
0100
1100
1100
,
0001
0000
0000
0100
0000
0000
0002
0000
0000
0000
0000
0000
1003
0000
0100
0000
0010
0000
0001
0000
0000
0000
0000
0000
,
0011
0000
0001
0010
0100
0010
0001
1000
,
0010
0000
1000
0100
0010
0100
1000
0001
,
0100
0000
0001
1000
0100
1000
0001
0100
,
0101
0000
0000
0000
0001
0000
0000
0000
0001
0000
1000
0001
1000
0000
0000
0000
,
0001
1000
0100
0000
0100
1000
0001
0000
,
1000
0100
0001
0100
1000
0001
0100
0010
,
2000
0000
0010
3010
0000
1000
0100
0010
,
0002
0000
1000
1003
0001
0010
0100
1000
,
0001
1000
0010
0000
0010
1000
0001
0000
,
1000
0010
0001
0010
1000
0001
0010
0100
,
2100
3000
2000
3000
1001
0000
0002
0100
,
0000
0103
0000
0010
0220
0000
0330
0000
,
0001
0000
0100
0001
1000
0000
1000
0000
1000
0000
1000
0000
1000
0000
1000
0000
,
0001
1000
0001
0000
0010
0000
0100
0000
0010
0000
0001
0000
1000
0000
0010
0000
,
0100
0000
0001
0100
1000
0100
0001
0010
,
0100
0000
1000
1000
0010
0010
1000
1000
,
0000
0000
0010
1000
0001
0000
0001
0000
0001
0000
0001
0000
0001
0000
0001
0000
,
1000
0001
1000
0000
0010
0000
0100
0000
0010
0000
1000
0000
0001
0000
0010
0000
,
0100
0000
1000
0010
0001
0010
1000
0100
,
0020
0000
0000
0001
0000
0031
1000
0000
,
0001
0000
1000
0100
0010
0000
0001
0010
0001
0000
0010
0000
0010
0000
0001
0010
,
0001
1000
0100
0010
0001
0010
0100
1000
,
0001
0000
1000
0100
0001
0100
1000
0001
,
0010
0000
0000
0000
0000
0000
0010
0000
0000
0000
0000
0000
0002
0000
0000
0000
0000
0000
0000
0000
0000
0000
0000
0000
1003
0000
0000
0000
0010
0000
0000
0000
0100
0000
0000
0000
0010
0000
0000
0000
0000
0000
1000
0000
0000
0001
0000
0000
,
1000
0001
1000
0000
0100
0000
0100
0000
0100
0000
0100
0000
0100
0000
0100
0000
,
1000
0001
1000
0000
0100
0000
0010
0000
0001
0000
0010
0000
0100
0000
1000
0000
,
0001
0000
1000
0010
1000
0000
0001
0000
0010
0000
1000
0000
0010
0000
0001
0000
,
1000
0000
0001
0010
0100
1000
1100
0000
,
1001
0000
0010
0010
0011
0000
0100
0100
,
1100
0000
0001
0001
1001
0000
1000
0000
,
1100
1100
0011
0011
,
1001
0000
0001
0000
0010
0000
0100
0000
1000
0010
1000
0010
0100
0000
0000
0000
,
0001
0010
0100
0010
0001
0010
0100
0010
,
0001
1000
0010
1000
0001
1000
0010
1000
,
0001
0010
0100
0010
0001
0010
0100
0010
,
0001
0000
0000
1000
0000
0000
0010
0000
0000
1000
0000
0000
0001
0000
0010
0000
0100
0000
2000
0000
0000
0000
0000
0000
,
3001
0100
0010
0100
0001
0100
0010
0100
,
0001
1000
0100
1000
0001
1000
0100
1000
,
0001
0100
0010
0100
0002
0000
1003
0000
,
0100
1000
0100
1000
0100
0000
0000
0000
1001
0000
0000
0000
1001
0000
0000
0000
,
1000
0100
0010
0100
1000
0100
0010
0100
,
1000
0001
0100
0001
1000
0001
0100
0001
,
1000
0100
0010
0100
1000
0100
0010
0100
,
1000
0000
0000
0001
0000
0000
0100
0000
0000
0001
0000
0000
1000
0000
0100
0000
0010
0000
0002
0000
0000
0000
0000
0000
,
1003
0010
0100
0010
1000
0010
0100
0010
,
1000
0001
0010
0001
1000
0001
0010
0001
,
1000
0010
0100
0010
2000
0000
3001
0000
,
0020
0001
0000
0031
1000
1000
0001
0100
,
0220
0000
0000
0330
,
0022
0000
0000
0033
,
2002
3003
2002
0000
,
0000
3003
0101
0000
,
0202
0000
0000
0303
,
2002
0000
0000
3003
,
0022
0033
0022
0000
,
0000
0033
0110
0000
,
0210
0000
0001
0000
0010
0000
0301
1000
,
0200
0000
1000
0000
1300
0001
0010
0100
,
2000
0000
0001
0000
0100
0000
3001
1000
,
0020
0000
0100
0000
0130
0001
0010
0100
,
1000
0001
0010
0001
1000
0001
0010
0010
,
0001
0000
1000
0000
0010
0000
1000
0000
0001
0000
0001
0000
1000
0000
0001
0100
,
0001
0100
0010
1000
0010
0100
0001
0010
,
0100
1000
0100
0010
0001
1000
0100
0010
,
0220
0000
0000
0000
0030
0000
0000
0000
0301
0000
1000
0100
1000
0000
0000
0000
,
0002
0000
1000
0000
1003
0000
1001
1000
,
0100
0010
0100
0010
0001
1000
0001
1000
,
0010
0000
1000
0000
0010
0000
0100
0000
0001
0000
0100
0000
0001
1000
0100
0000
,
1000
0000
0000
0000
1000
0000
0100
0000
0010
0000
0001
0100
0001
0000
0010
0000
,
0100
0000
1000
0010
1000
0000
0100
0000
0010
0000
0001
0000
1000
0000
0001
0000
,
1001
1000
0100
0010
0100
0010
0001
0100
,
0001
0100
0010
1000
0010
1000
0001
0010
,
0110
0000
0000
0000
0010
0000
0100
0000
0001
0010
0100
0000
1000
0000
0010
0000
,
1000
0000
0001
0000
1000
0000
0010
0000
1000
0001
1000
0001
1000
0100
0010
0100
,
0010
0001
0010
0001
1000
0010
1000
0010
,
1000
0000
0001
0000
1000
0000
0001
0000
0010
0000
0001
0000
0010
0001
0010
0001
,
1000
0000
0000
0000
1000
0000
0001
0000
0010
0000
0100
0000
1000
0001
1000
0000
,
0100
0000
0010
0000
0001
1000
0001
0000
1000
0000
0010
0000
0100
0000
0001
0000
,
0101
0000
1001
0000
1010
0000
0100
0100
,
0110
0000
0000
0000
1001
0000
0000
0000
1000
0000
1000
0000
1000
0000
0001
0100
,
0010
0000
0100
0000
0001
0000
1000
0000
0010
1000
0010
0000
1000
0000
0001
0000
,
0010
0001
0010
0000
0100
0010
0100
0000
1000
0100
1000
0100
1000
0001
1000
0001
,
1000
0000
0100
0100
1100
0000
0010
0010
,
0011
0000
0000
0000
1000
0000
1000
0000
1001
0000
0000
0000
0001
0100
0001
0100
,
0001
0101
1001
1010
,
1000
0000
1000
0000
0001
0000
0001
0000
1000
0100
1000
0100
0010
0000
0000
0000
;

//---------------dance-single - ----------------
#NOTES:
     dance-single:
     :
     Beginner:
     5:
     0.200,0.275,0.114,0.000,0.000:
0000
0000
0000
0000
,
0000
0000
0000
0000
,
0000
0000
0000
0000
,
0000
0000
0000
0000
,
0000
0000
0000
0000
,
0000
0000
0000
0000
,
0000
0000
0000
0000
,
0001
0000
0000
0000
,
0000
0000
0000
0000
,
0001
0000
0000
0000
,
0000
0000
0000
0000
,
1001
0000
1000
0000
,
0001
0000
1000
0000
,
0001
0000
1000
0000
,
1001
0000
0000
0000
,
0010
0000
0100
0000
,
0010
0000
0010
0000
,
1000
0000
0000
0000
,
0001
0000
0000
0000
,
1000
0000
0100
0000
,
1000
0000
1000
0000
,
1001
0000
0001
0000
,
1000
0000
1001
0000
,
0001
0000
0001
0000
,
0001
0000
0001
0000
,
1000
0000
0001
0000
,
1000
0000
0100
0000
,
1000
0000
1000
0000
,
1000
0000
1000
0000
,
0001
0000
0100
0000
,
0001
0000
1000
0000
,
0001
0000
0001
0000
,
0001
0000
0001
0000
,
0010
0000
0001
0000
,
0100
0000
0010
0000
,
1000
0000
1000
0000
,
1000
0000
1000
0000
,
1001
0000
0001
0000
,
1001
0000
0000
0000
,
1001
0000
1000
0000
,
1001
0000
0001
0000
,
1000
0000
0001
0000
,
1000
0000
0100
0000
,
1000
0000
0100
0000
,
1000
0000
0100
0000
,
0010
0000
0001
0000
,
0010
0000
0001
0000
,
0100
0000
0010
0000
,
0100
0000
0010
0000
,
1000
0000
0010
0000
,
1000
0000
0000
0000
,
0001
0000
0100
0000
,
0001
0000
0100
0000
,
0010
0000
1000
0000
,
0010
0000
1000
0000
,
0001
0000
1000
0000
,
0001
0000
1000
0000
,
0100
0000
0010
0000
,
0001
0000
1000
0000
,
1001
0000
0000
0000
,
0001
0000
0000
0000
,
1000
0000
0001
0000
,
0000
0000
0000
0000
,
1001
0000
0000
0000
,
0001
0000
0000
0000
,
1000
0000
0001
0000
,
0000
0000
0000
0000
,
1001
0000
1000
0000
,
0001
0000
1000
0000
,
0100
0000
1000
0000
,
0100
0000
1000
0000
,
0010
0000
0100
0000
,
0010
0000
0100
0000
,
0001
0000
0010
0000
,
0001
0000
0001
0000
,
1001
0000
0000
0000
,
0000
0000
0000
0000
,
0010
0000
0100
0000
,
0010
0000
0100
0000
,
0001
0000
0001
0000
,
1000
0000
1000
0000
,
0100
0000
0010
0000
,
0100
0000
0010
0000
,
0001
0000
0001
0000
,
1000
0000
1000
0000
,
0100
0000
1000
0000
,
0100
0000
1000
0000
,
0001
0000
0001
0000
,
1000
0000
1000
0000
,
0010
0000
1000
0000
,
0010
0000
1000
0000
,
0001
0000
0001
0000
,
1000
0000
1000
0000
,
1001
0000
0001
0000
,
1001
0000
1000
0000
,
0010
0000
0100
0000
,
0010
0000
0010
0100
;
