#TITLE:INJECTION OF LOVE;
#SUBTITLE:;
#ARTIST:新谷あきら;
#TITLETRANSLIT:;
#SUBTITLETRANSLIT:;
#ARTISTTRANSLIT:AKIRA SHINTANI;
#CREDIT:DigiMindAxel;
#BANNER:INJECTION OF LOVE.png;
#BACKGROUND:INJECTION OF LOVE-bg.png;
#LYRICSPATH:INJECTION OF LOVE.lrc;
#CDTITLE:beatmania IIDX.png;
#MUSIC:INJECTION OF LOVE.mp3;
#METERTYPE:DDR X;
#OFFSET:-6.497;
#SAMPLESTART:57.420;
#SAMPLELENGTH:12.000;
#SELECTABLE:YES;
#BPMS:0.000=160.000;
#STOPS:30.000=0.375
,133.000=0.375
,232.000=0.375
;
#BGCHANGES:;

//---------------dance-single - ----------------
#NOTES:
     dance-single:
     :
     Beginner:
     2:
     0.178,0.210,0.018,0.000,0.000: // measure 1
0001
0000
0001
0000
,  // measure 2
1000
0000
1000
0000
,  // measure 3
0001
0000
0001
0000
,  // measure 4
1000
0000
1000
0000
,  // measure 5
0010
0000
0010
0000
,  // measure 6
0100
0000
0100
0000
,  // measure 7
1000
0000
0001
0000
,  // measure 8
1000
0000
1001
0000
,  // measure 9
0000
0100
0000
0100
,  // measure 10
0000
1000
1000
0000
,  // measure 11
0000
0001
0000
0001
,  // measure 12
0000
0010
0010
0000
,  // measure 13
0000
0001
0000
0001
,  // measure 14
0000
1000
0000
1000
,  // measure 15
0000
0100
0000
0100
,  // measure 16
0000
0010
0000
0010
,  // measure 17
0000
1000
0000
0001
,  // measure 18
0000
1000
1000
0000
,  // measure 19
0000
0001
0000
1000
,  // measure 20
0000
0010
0010
0000
,  // measure 21
0000
1000
0000
0001
,  // measure 22
0000
0001
0000
1000
,  // measure 23
0000
1000
0000
0010
,  // measure 24
0000
1000
0000
0001
,  // measure 25
0000
0000
0000
0000
,  // measure 26
0000
1000
1000
0000
,  // measure 27
0000
0000
0000
0000
,  // measure 28
0000
0001
0001
0000
,  // measure 29
0000
1000
0000
1000
,  // measure 30
0000
0001
0001
0000
,  // measure 31
0000
0001
0000
0000
,  // measure 32
0000
0001
0001
0001
,  // measure 33
0000
1000
0000
0001
,  // measure 34
0001
0001
0000
0000
,  // measure 35
0001
0000
1000
1000
,  // measure 36
1000
0000
0001
0000
,  // measure 37
0010
0000
0100
0100
,  // measure 38
0100
0000
0010
0000
,  // measure 39
0001
0000
1000
0000
,  // measure 40
0001
0000
1000
0000
,  // measure 41
0001
0000
1000
1000
,  // measure 42
1000
1000
0000
0000
,  // measure 43
0001
0000
0100
0000
,  // measure 44
0010
0000
1000
0000
,  // measure 45
0001
0000
0100
0000
,  // measure 46
0001
0001
0000
0000
,  // measure 47
0010
0000
0100
0000
,  // measure 48
1000
1000
0000
0001
,  // measure 49
0000
0010
0000
0001
,  // measure 50
0000
1000
0000
0000
,  // measure 51
0001
0000
0001
0000
,  // measure 52
1000
0000
0001
0000
,  // measure 53
0010
0000
0100
0000
,  // measure 54
1000
0000
0100
0000
,  // measure 55
1000
0000
1000
0000
,  // measure 56
0010
0000
0100
0000
,  // measure 57
0001
0000
0010
0000
,  // measure 58
0001
0001
0001
0000
,  // measure 59
1001
1000
0000
0001
,  // measure 60
0000
1000
1000
1000
,  // measure 61
0000
0001
0000
1000
,  // measure 62
0000
0001
0001
0001
,  // measure 63
0000
0010
0000
0100
,  // measure 64
0000
0010
0000
0100
,  // measure 65
0000
1000
0000
0001
,  // measure 66
0000
0100
0000
0010
;

//---------------dance-single - ----------------
#NOTES:
     dance-single:
     :
     Easy:
     5:
     0.247,0.271,0.118,0.000,0.000: // measure 1
1000
0000
0001
0000
,  // measure 2
1000
0000
0001
1000
,  // measure 3
0001
0000
1000
0000
,  // measure 4
0010
0000
1000
0100
,  // measure 5
1000
0000
0001
0000
,  // measure 6
0001
0000
1000
0010
,  // measure 7
1000
0000
0001
0000
,  // measure 8
1000
0001
1001
0001
,  // measure 9
0000
0010
0000
0001
,  // measure 10
0010
0001
1000
0000
,  // measure 11
0000
0001
0000
1000
,  // measure 12
0000
0001
0001
1000
,  // measure 13
1000
0010
0000
0001
,  // measure 14
0001
0010
0000
1000
,  // measure 15
1000
0010
0000
1000
,  // measure 16
0001
1000
0010
0000
,  // measure 17
0000
0100
0001
1000
,  // measure 18
0000
0010
1000
0010
,  // measure 19
0000
0001
0000
1000
,  // measure 20
0000
1000
0001
1000
,  // measure 21
1000
0100
0000
0001
,  // measure 22
0001
0100
0000
1000
,  // measure 23
1000
0100
0000
1000
,  // measure 24
1000
0001
0001
0100
,  // measure 25
0000
0010
0000
1000
,  // measure 26
0000
1001
1001
0000
,  // measure 27
0000
0100
0000
0001
,  // measure 28
0000
1001
1001
0000
,  // measure 29
0000
1000
0000
0010
,  // measure 30
0000
1001
1001
0000
,  // measure 31
0000
0001
0000
0010
,  // measure 32
0000
0001
1000
0100
,  // measure 33
1000
0001
1000
0001
,  // measure 34
0001
1000
0001
0000
,  // measure 35
1000
0000
0010
0100
,  // measure 36
0010
0010
0100
0000
,  // measure 37
0010
0000
1000
0001
,  // measure 38
1000
1000
0001
0000
,  // measure 39
0010
0000
0001
0000
,  // measure 40
0100
0000
0001
1000
,  // measure 41
0001
1000
0100
0010
,  // measure 42
0010
0000
0000
0010
,  // measure 43
0000
0001
0000
0010
,  // measure 44
0010
0010
0000
0100
,  // measure 45
0000
1000
0000
0001
,  // measure 46
0001
0001
0000
1000
,  // measure 47
0000
0001
0000
0100
,  // measure 48
0000
0010
0000
1000
,  // measure 49
0010
1000
0001
0100
,  // measure 50
0001
0100
0000
0001
,  // measure 51
0000
1000
0000
0001
,  // measure 52
0000
1000
0000
0001
,  // measure 53
0000
0010
0100
1000
,  // measure 54
0100
0010
0000
0001
,  // measure 55
0000
0100
0000
0001
,  // measure 56
0000
0100
0000
0010
,  // measure 57
0000
0001
0010
1000
,  // measure 58
0100
0001
1001
0000
,  // measure 59
1001
0100
0100
0110
,  // measure 60
0000
0000
0000
0001
,  // measure 61
1000
0001
0001
1001
,  // measure 62
0000
0000
0000
0010
,  // measure 63
0100
0010
0010
0110
,  // measure 64
0000
0000
0000
0100
,  // measure 65
0010
0100
0100
0110
,  // measure 66
0000
0010
1000
0000
,  // measure 67
0001
0000
0000
0000
;

//---------------dance-single - ----------------
#NOTES:
     dance-single:
     :
     Medium:
     7:
     0.387,0.361,0.337,0.237,0.000: // measure 1
0100
0002
0100
0013
,  // measure 2
0011
0000
1000
1000
,  // measure 3
0010
2000
0010
3100
,  // measure 4
1100
0000
0001
0001
,  // measure 5
1000
0200
1000
0310
,  // measure 6
0110
0000
0010
0010
,  // measure 7
0001
0200
0001
0310
,  // measure 8
0110
1000
0002
1003
,  // measure 9
0001
1000
0100
0010
,  // measure 10
0001
0010
0100
1000
,  // measure 11
1000
0001
0010
0100
,  // measure 12
1000
1000
0010
0100
,  // measure 13
0001
1000
1001
0100
,  // measure 14
0010
1000
1010
0100
,  // measure 15
0010
0001
0011
1000
,  // measure 16
0001
0100
1000
0100
,  // measure 17
0001
0010
0100
1000
,  // measure 18
0100
1000
0010
0001
,  // measure 19
0010
1000
0100
0010
,  // measure 20
0001
1000
1000
0100
,  // measure 21
1000
0100
1100
0010
,  // measure 22
0001
0100
0101
0010
,  // measure 23
1000
0001
1001
0100
,  // measure 24
0001
0010
0010
0020
,  // measure 25
0030
0002
0003
2000
,  // measure 26
3000
0001
0010
0200
,  // measure 27
0300
0020
0030
0200
,  // measure 28
0300
1000
0010
0200
,  // measure 29
0300
0020
0030
0200
,  // measure 30
0300
0001
0010
2000
,  // measure 31
3000
0020
0030
0001
,  // measure 32
0100
0010
1000
1000
,  // measure 33
0001
0001
1000
0010
,  // measure 34
0100
0220
0330
0001
,  // measure 35
0001
1000
1000
0001
,  // measure 36
0011
1100
0000
0100
,  // measure 37
0100
0010
0010
0100
,  // measure 38
0110
1001
0000
0001
,  // measure 39
0010
0011
0000
1000
,  // measure 40
0010
1010
2000
3100
,  // measure 41
0200
0310
0020
0031
,  // measure 42
0100
1001
0000
1000
,  // measure 43
1000
0001
0001
1000
,  // measure 44
1010
0101
0000
0010
,  // measure 45
0010
0100
0100
0010
,  // measure 46
0110
1001
0000
1000
,  // measure 47
0010
1010
0000
0001
,  // measure 48
0010
0011
0002
0103
,  // measure 49
0200
0310
0020
1030
,  // measure 50
0100
1001
0000
1000
,  // measure 51
0010
0110
0000
0001
,  // measure 52
0010
0110
0000
0001
,  // measure 53
0010
1000
0100
0001
,  // measure 54
0010
1000
0000
0011
,  // measure 55
0001
0010
0001
1010
,  // measure 56
1000
0010
1000
0001
,  // measure 57
1000
0001
0010
0100
,  // measure 58
0010
0110
1002
1000
,  // measure 59
2003
3001
0001
0100
,  // measure 60
0110
0000
0100
0010
,  // measure 61
1000
0001
0001
0010
,  // measure 62
0110
0000
0100
0010
,  // measure 63
1000
0001
0001
0100
,  // measure 64
0110
0000
0000
0010
,  // measure 65
1000
0100
0010
0001
,  // measure 66
1001
0000
0100
0110
,  // measure 67
1010
0000
0000
0000
;

//---------------dance-single - ----------------
#NOTES:
     dance-single:
     :
     Hard:
     10:
     0.518,0.513,0.456,0.137,0.606: // measure 1
0001
0000
0000
0011
0000
0000
0100
0000
0000
0010
0000
0001
,  // measure 2
0000
0000
0000
0000
0000
0000
0001
0000
1000
0000
0100
0000
,  // measure 3
1000
0000
0000
1010
0000
0000
0100
0000
0000
0100
0000
1000
,  // measure 4
0000
0000
0000
0000
0000
0000
0001
0000
0010
0000
0100
0000
,  // measure 5
0010
0000
0000
0110
0000
0000
0010
0000
0000
0001
0000
1000
,  // measure 6
0000
0000
0000
0000
0000
0000
1000
0000
0010
0000
0100
0000
,  // measure 7
0010
0000
0000
0110
0000
0000
0010
0000
0000
1000
0000
0001
,  // measure 8
0000
1001
0120
1030
,  // measure 9
1000
0000
0000
0000
0000
0001
2000
0000
0000
3100
0000
0000
,  // measure 10
0100
0000
0000
0000
0000
1000
0020
0000
0000
1030
0000
0000
,  // measure 11
1000
0000
0000
0000
0000
0001
0200
0000
0000
0310
0000
0000
,  // measure 12
0010
0000
0000
0100
0000
0001
0000
0000
0100
0001
0000
1000
,  // measure 13
0100
0000
0010
0000
0000
0001
0000
0000
0010
0001
0000
1000
,  // measure 14
0010
0000
0100
0000
0000
0001
0000
0000
0010
0100
0000
1000
,  // measure 15
0001
0000
0100
0000
0000
0010
0000
0000
1000
0001
0000
0001
,  // measure 16
0010
0000
0010
0100
0000
0100
1000
0000
0000
0001
0000
0000
,  // measure 17
0001
0000
0000
0001
0000
1000
0010
0000
1000
0010
0000
0000
,  // measure 18
0100
0000
0000
0100
0000
0001
1000
0000
0000
0100
0000
0000
,  // measure 19
0100
0000
0000
0100
0000
0010
0002
0000
0000
0103
0000
0000
,  // measure 20
0100
0000
0000
0100
0000
0001
1000
0000
0100
1000
0000
0001
,  // measure 21
0100
0000
0010
0000
0000
1000
0000
0000
0010
1000
0000
0001
,  // measure 22
0010
0000
0100
0000
0000
1000
0000
0000
0010
0100
0000
0001
,  // measure 23
1000
0000
0100
0000
0000
0010
0000
0000
0001
1000
0000
1000
,  // measure 24
0010
0000
0010
0100
0000
0100
0001
0000
0000
2000
0000
0000
,  // measure 25
0000
0010
0000
0010
,  // measure 26
3000
1001
1001
0002
,  // measure 27
0000
0010
0000
0010
,  // measure 28
0003
1001
1001
1000
,  // measure 29
0000
0000
0001
0100
0000
0000
0000
0000
0001
0010
0000
0000
,  // measure 30
0000
0110
1001
0001
,  // measure 31
0000
0000
1000
0100
0000
0000
0000
0000
1000
0010
0000
0000
,  // measure 32
1000
0000
0100
1000
0000
0000
0001
0000
0010
0001
0000
0000
,  // measure 33
1000
0000
0010
1000
0000
0000
0001
0000
0100
0001
0000
0000
,  // measure 34
1000
0100
0010
0002
0000
0000
0103
0000
0000
0110
0000
0000
,  // measure 35
1010
0101
1010
1100
,  // measure 36
0011
1001
0000
1100
,  // measure 37
1001
1010
0101
1001
,  // measure 38
0011
0000
0000
0110
0000
0000
1000
0000
0010
0100
0000
0001
,  // measure 39
0000
0000
0010
0100
0000
1000
0000
0000
0010
0100
0000
0001
,  // measure 40
0000
0000
1000
0100
0000
0100
0010
0000
0010
0001
0000
0100
,  // measure 41
0000
0000
0010
1000
0000
0100
0000
0000
0010
0001
0000
0100
,  // measure 42
0001
1000
0001
1000
0001
1000
0001
0000
0000
0011
0000
0000
,  // measure 43
0110
1100
1010
0110
,  // measure 44
0011
0110
0000
1010
,  // measure 45
0101
0011
1100
1001
,  // measure 46
0011
0000
0000
0110
0000
0000
1000
0000
0001
0010
0000
0100
,  // measure 47
0000
0000
1000
0010
0000
0100
0000
0000
0001
0010
0000
0100
,  // measure 48
0000
0000
1000
0010
0000
0010
0100
0000
0100
0001
0000
0010
,  // measure 49
0000
0000
0100
1000
0000
0010
0000
0000
0100
0001
0000
0010
,  // measure 50
0001
0010
0001
0010
0001
0010
0001
0000
0000
1000
0000
0010
,  // measure 51
0100
0000
0010
0100
0000
0001
0000
0000
0000
0010
0000
0100
,  // measure 52
1000
0000
0100
1000
0000
0001
0000
0000
0000
0200
0000
0000
,  // measure 53
0320
2030
3200
0302
,  // measure 54
0203
0000
0000
1300
0000
0000
0001
0000
1000
0000
0000
0100
,  // measure 55
1000
0000
0100
0000
0000
0010
0000
0000
0001
0000
0000
0010
,  // measure 56
0001
0000
0100
0000
0000
0010
0000
0000
1000
0000
0000
0010
,  // measure 57
1000
0000
0010
0000
0000
0100
0000
0000
0001
0000
0000
1000
,  // measure 58
0001
0000
0000
1000
0000
0000
0100
0010
0100
0010
0100
0010
,  // measure 59
0002
0000
0000
1003
0000
0000
1001
0000
0000
1000
0000
0010
,  // measure 60
0100
0000
0000
0010
0000
0000
1000
0000
1000
0000
0000
0000
,  // measure 61
1100
0000
0000
1001
0000
0000
1001
0000
0000
0001
0000
0100
,  // measure 62
0010
0000
0000
0100
0000
0000
0001
0000
0000
0010
0000
0100
,  // measure 63
0000
1000
0000
1100
0000
0000
1100
0000
0000
1000
0000
0001
,  // measure 64
0100
0000
0000
0001
0000
0000
1000
0000
1000
0000
0000
0000
,  // measure 65
1010
0000
0000
0110
0000
0000
0110
0000
0000
0100
0000
0001
,  // measure 66
0010
0000
0000
0100
0000
0000
1000
0000
1010
0000
0000
1000
,  // measure 67
0010
0100
0001
0000
0000
0000
0000
0000
0000
0000
0000
0000
;

//---------------dance-single - ----------------
#NOTES:
     dance-single:
     :
     Challenge:
     11:
     0.579,0.603,0.438,0.118,0.752: // measure 1
1001
0000
0000
1001
0000
0000
1000
0010
0100
0001
0000
0000
,  // measure 2
1000
0000
0000
0001
0000
0000
0010
0000
1000
0000
0010
0000
,  // measure 3
0001
0000
0000
1001
0000
0000
1000
0100
0010
0001
0000
0000
,  // measure 4
1000
0000
0000
0001
0000
0000
0100
0000
1000
0000
0100
0000
,  // measure 5
0001
0000
0000
0010
0100
1000
0100
0000
0000
0010
0000
0110
,  // measure 6
0000
0000
0000
0100
0001
0010
0001
0000
0010
0000
0100
0000
,  // measure 7
1000
0000
0000
0100
0010
0001
0010
0000
0000
0100
0000
0110
,  // measure 8
0000
0000
0000
0010
1000
0100
1000
0000
0000
0100
0000
0000
,  // measure 9
1100
0000
0000
1000
0000
0010
0100
0000
0100
0002
0000
0000
,  // measure 10
0000
1000
1003
0001
,  // measure 11
0101
0000
0000
0100
0000
0001
1000
0000
1000
0200
0000
0000
,  // measure 12
0000
0000
0000
0010
0000
0000
0310
0000
0001
0100
0000
0001
,  // measure 13
1000
0000
0100
0000
0000
0010
0000
0000
0001
1000
0000
0001
,  // measure 14
0010
0000
0001
0000
0000
0100
0000
0000
0010
1000
0000
0100
,  // measure 15
0010
0000
0001
0000
0000
1000
0000
0000
0100
0010
0000
0010
,  // measure 16
0001
0000
0001
0100
0000
0100
0010
1000
0010
1000
0000
0000
,  // measure 17
1001
0000
0000
0001
0000
1000
0100
0000
0100
0020
0000
0000
,  // measure 18
0000
0001
0031
0100
,  // measure 19
0110
0000
0000
0010
0000
1000
0001
0000
0001
0200
0000
0000
,  // measure 20
0000
0000
0000
0010
0000
0000
0310
0000
1000
0100
0000
1000
,  // measure 21
0001
0000
0100
0000
0000
0010
0000
0000
1000
0001
0000
0010
,  // measure 22
0001
0000
0100
0000
0000
0010
0000
0000
1000
0100
0000
1000
,  // measure 23
0001
0000
0100
0000
0000
0010
1000
0001
1000
0001
0000
0010
,  // measure 24
0100
0000
0100
1000
0000
1000
0001
0100
0001
0200
0000
0000
,  // measure 25
0000
0010
0000
0302
,  // measure 26
0000
1000
1003
0200
,  // measure 27
0000
1000
0000
0320
,  // measure 28
0000
0001
0031
2000
,  // measure 29
0000
0100
0000
3002
,  // measure 30
0000
0010
0013
0200
,  // measure 31
0000
1000
0000
0310
,  // measure 32
0100
0000
1000
0100
0000
0000
1000
0000
0001
1000
0000
0000
,  // measure 33
0001
0000
0100
0001
0000
0000
0010
0000
0100
0010
0000
0000
,  // measure 34
0001
1000
0100
1000
0000
0000
1100
0000
0000
0110
0000
0000
,  // measure 35
1001
0110
1001
1100
,  // measure 36
0110
0011
0000
1001
,  // measure 37
0110
1001
0110
0101
,  // measure 38
0110
0000
0000
1010
0000
0000
1000
0000
0001
0100
0000
0100
,  // measure 39
0001
0000
1000
0010
0000
0010
1000
0000
0100
0010
0000
0010
,  // measure 40
0100
0000
1000
0001
0000
0001
1000
0000
0100
1000
0010
1000
,  // measure 41
0100
0000
0010
0001
0100
0001
0010
0000
0001
1000
0000
1000
,  // measure 42
0001
0100
0010
1000
0010
0100
0001
0000
0000
1001
0000
0000
,  // measure 43
0110
1001
0110
0101
,  // measure 44
0110
1010
0000
1001
,  // measure 45
0110
1001
0110
1100
,  // measure 46
0110
0000
0000
0011
0000
0000
0001
0000
1000
0100
0000
0100
,  // measure 47
1000
0000
0001
0010
0000
0010
0001
0000
1000
0010
0000
0010
,  // measure 48
1000
0000
0001
0100
0000
0100
0001
0000
1000
0001
0010
0001
,  // measure 49
1000
0000
0001
1000
0100
1000
0001
0000
1000
0001
1000
0001
,  // measure 50
1000
0010
0100
0001
0100
0010
1000
0000
0000
0001
0000
0010
,  // measure 51
0001
0000
0002
0000
0000
1003
0000
0000
0000
0100
0000
1000
,  // measure 52
0010
0000
0020
0000
0000
0130
0000
0000
0000
0001
0000
0000
,  // measure 53
0011
0000
0000
0010
0000
0001
1000
0000
0000
1100
0000
0000
,  // measure 54
0100
0000
0000
0110
0000
0000
0010
0000
0000
1000
0000
0001
,  // measure 55
0010
0000
1000
0010
0000
0001
0000
0000
1000
0100
0000
0001
,  // measure 56
0100
0000
1000
0000
0000
0001
0000
0000
1000
0100
0000
0001
,  // measure 57
0100
0000
1000
0010
0000
0010
0100
0000
0100
0001
0000
0001
,  // measure 58
1000
0000
1000
0100
0000
0000
1000
0100
0010
0001
0010
0100
,  // measure 59
1000
0000
0000
1100
0000
0000
1100
0000
0000
1000
0001
0100
,  // measure 60
0010
0000
0010
0000
0000
0100
0001
0000
0001
1000
0000
0000
,  // measure 61
1001
0000
0000
0101
0000
0000
0101
0000
0000
0001
1000
0100
,  // measure 62
0010
0000
0010
0000
0000
0001
1000
0000
1000
0001
0000
0100
,  // measure 63
0000
1000
0000
0100
0000
0000
0101
0000
0000
0010
0100
1000
,  // measure 64
0001
0000
0001
0000
0000
0100
0001
0000
0001
1000
0000
0100
,  // measure 65
0000
0001
0000
0100
0000
0000
1100
0000
0000
1000
0001
0100
,  // measure 66
0010
0000
0010
0000
0000
1000
0001
0100
0001
0100
0000
0100
,  // measure 67
0010
1000
0100
0000
0000
0000
0000
0000
0000
0000
0000
0000
;
