#TITLE:Happy man;
#SUBTITLE:;
#ARTIST:泉 陸奥彦;
#TITLETRANSLIT:;
#SUBTITLETRANSLIT:;
#ARTISTTRANSLIT:Mutsuhiko Izumi;
#CREDIT:DigiMindAxel;
#BANNER:Happy man.png;
#BACKGROUND:Happy man-bg.png;
#LYRICSPATH:;
#CDTITLE:GUITARFREAKS & drummania.png;
#MUSIC:Happy man.mp3;
#METERTYPE:DDR X;
#OFFSET:-7.100;
#SAMPLESTART:15.053;
#SAMPLELENGTH:12.000;
#SELECTABLE:YES;
#BPMS:0.000=180.000;
#STOPS:;
#BGCHANGES:-22.000=Happy man.avi=1.000=1=1=0,
99999=-nosongbg-=1.000=0=0=0 // don't automatically add -songbackground-
;

//---------------dance-single - ----------------
#NOTES:
     dance-single:
     :
     Easy:
     5:
     0.234,0.258,0.188,0.134,0.000:
1000
0000
0001
0000
,
1000
0000
0000
1001
0000
0000
0000
0000
,
0010
0000
0100
0000
,
0010
0000
0000
1001
0000
0000
2000
0000
,
0000
0000
0000
3002
,
0000
0000
0000
0000
,
1003
0000
0010
0000
,
1000
0000
0001
1000
,
0001
0000
0100
0000
,
0001
0000
1000
0001
,
2000
0000
0000
0000
,
3020
0000
0000
0000
,
0130
0000
0110
0000
,
0100
0000
1001
0000
,
0001
0000
0010
0000
,
0001
0000
1000
0001
,
1000
0000
0100
0000
,
1000
0000
0001
1000
,
0002
0000
0000
0000
,
0203
0000
0000
0000
,
0310
0000
0110
0000
,
0010
0000
1001
0000
,
1000
0000
0100
0000
,
0001
0000
0100
0000
,
1000
0000
0100
0000
,
0001
0000
1001
0000
,
0001
0000
0010
0000
,
1000
0000
0010
0000
,
0001
0000
0001
0000
,
1000
0000
1001
0000
,
0001
0001
0001
0000
,
1000
1000
1001
0000
,
1000
1000
1000
0000
,
0001
1001
0000
0000
,
0100
0100
0100
0000
,
0010
0010
0110
0000
,
0010
0010
0010
0000
,
0100
0110
0000
0002
,
0000
0000
0000
2003
,
0000
0000
0000
0000
,
3001
0000
0100
0000
,
0010
0000
1000
0100
,
0010
0000
0001
0000
,
0100
0000
0010
1000
,
0100
0000
0000
0000
,
0010
0000
0000
0000
,
0110
0000
0001
0000
,
1000
0000
2002
0000
,
3003
0000
0000
0000
;

//---------------dance-single - ----------------
#NOTES:
     dance-single:
     :
     Medium:
     8:
     0.496,0.515,0.456,0.295,0.000:
0001
0000
0000
0100
0001
0000
0000
1000
,
0100
1000
0000
0001
0000
1001
0000
0000
,
1000
0000
0000
0010
1000
0000
0000
0001
,
0010
0001
0000
1001
0000
0000
0100
0000
,
0100
0100
0100
0010
,
0010
0000
0010
0000
0010
0100
0010
0000
,
2000
0000
0000
3020
0000
0000
2030
0000
,
0001
0000
3001
0000
0100
0010
0100
0000
,
0002
0000
0000
0203
0000
0000
0302
0000
,
1000
0000
1003
0000
0010
0100
0010
0000
,
1000
0000
0001
0100
0000
0001
0100
0000
,
0001
0000
1000
0010
0000
1000
0010
0000
,
0110
0000
0101
0000
,
1100
0000
1001
0000
,
0002
0000
0000
0023
0000
0000
0032
0000
,
1000
0000
1003
0000
0010
0100
0010
0000
,
2000
0000
0000
3200
0000
0000
2300
0000
,
0001
0000
3001
0000
0100
0010
0100
0000
,
0001
0000
0010
0001
0000
0010
0001
0000
,
1000
0000
0100
1000
0000
0100
1000
0000
,
1100
0000
0101
0000
,
0110
0000
1001
0000
,
0001
0100
0001
0000
0100
0001
0100
0000
,
0010
0100
0010
1000
0100
1000
0001
0000
,
1000
0010
1000
0000
0010
1000
0010
0000
,
0100
0010
0100
0001
1000
0000
0000
0000
,
0001
0010
0001
0000
0010
0001
0010
0000
,
0100
0010
0100
1000
0001
0000
0001
0000
,
1000
1000
0100
0100
,
0001
0001
0110
0000
,
1010
0010
1010
0010
,
1010
0010
1001
1001
,
0101
0100
0101
0100
,
0101
0000
0000
1001
0000
0000
0000
0000
,
1100
0100
1100
0100
,
1100
0100
1001
1001
,
0011
0010
0011
0010
,
0011
0000
0000
1001
0000
0000
0100
0000
,
0100
0100
0100
0010
,
0010
0000
0010
0000
0010
0100
0010
0000
,
1001
0000
0100
0001
0000
0001
2000
0000
,
0001
0000
3001
0000
0100
0010
0100
0001
,
1000
0000
0010
1000
0000
1000
0002
0000
,
1000
0000
1003
0000
0010
0100
0010
0000
,
1000
0010
1000
0010
0000
1000
1000
0000
,
0001
0100
0001
0100
0000
0001
0001
0000
,
0202
0303
2200
3300
,
0220
0330
2002
0000
,
3003
0000
0000
0000
;

//---------------dance-single - ----------------
#NOTES:
     dance-single:
     :
     Hard:
     11:
     0.623,0.579,0.550,0.241,0.000:
1000
0100
0010
0000
0001
0100
0010
0000
,
1000
0010
1000
1001
0000
0101
0000
0000
,
0001
0010
0100
0000
1000
0010
0100
0000
,
0001
0100
0001
1001
0000
0100
1000
0100
,
1000
0100
1000
0001
0100
0001
0100
0001
,
0100
0001
0100
0001
1000
0100
0010
0001
,
1000
0000
0010
1000
0000
1000
0002
0000
,
0100
0000
0103
0000
0010
1000
0100
0010
,
0001
0000
0100
0001
0000
0001
2000
0000
,
0010
0000
3010
0000
0100
0001
0010
0000
,
0001
0010
1000
0010
0000
0001
1000
0000
,
1000
0100
0001
0100
0000
1000
0001
0000
,
0201
0310
1020
0130
,
0110
0000
1001
0000
,
1001
0000
0100
1000
0000
1000
0002
0000
,
0010
0000
0013
0000
0100
1000
0010
0100
,
0001
0000
0010
0001
0000
0001
2000
0000
,
0100
0000
3100
0000
0010
0001
0100
0000
,
0001
0100
1000
0100
0000
0001
1000
0000
,
1000
0010
0001
0010
0000
1000
0001
0000
,
0021
0031
1200
1300
,
0110
0000
1001
0000
,
0010
1000
0010
1000
0010
1000
0001
0010
,
0001
0010
0001
1000
0100
0001
0100
1000
,
0001
0100
0001
0100
0001
1000
0100
1000
,
0100
0001
0100
1000
0001
0000
0100
0010
,
0100
0001
0100
0001
0100
0001
0100
1000
,
0100
1000
0100
1000
0100
0001
0100
0001
,
0100
0010
1000
0001
0010
0100
1000
0001
,
0100
0100
0010
0010
1001
0000
0000
0000
,
1100
1100
0101
0101
,
0110
0110
1001
1001
,
1010
1010
0011
0011
,
0100
1000
0001
0100
0000
0000
0000
0000
,
0011
0011
1010
1010
,
0110
0110
1001
1001
,
1100
1100
0101
0101
,
0010
0001
1000
0010
0000
0100
0001
0100
,
0001
0100
0001
0100
0001
1000
0100
1000
,
0100
1000
0100
1000
0100
1000
0001
0010
,
0100
0000
1000
0010
0000
0010
0200
0000
,
0001
0000
0301
0000
0010
1000
0100
0010
,
0001
0000
0001
0100
0000
0100
0020
0000
,
1000
0000
1030
0000
0100
0001
0010
0000
,
0001
0010
1000
0010
0000
0001
1000
0000
,
1000
0100
0001
0100
0000
1000
0001
0000
,
0022
0033
0220
0330
,
2200
3300
2002
0000
,
3003
0000
0000
0000
;

//---------------dance-single - ----------------
#NOTES:
     dance-single:
     :
     Beginner:
     1:
     0.067,0.127,0.013,0.000,0.000:
1000
0000
0000
0000
,
1000
0000
0000
0000
,
0001
0000
0000
0000
,
0001
0000
0000
0000
,
0000
0000
0000
0000
,
0000
0000
0000
0000
,
1000
0000
0000
0000
,
0000
0000
0000
0000
,
0001
0000
0000
0000
,
0000
0000
0000
0000
,
1000
0000
0000
0000
,
0100
0000
0000
0000
,
0010
0000
0000
0000
,
0001
0000
0000
0000
,
1000
0000
0000
0000
,
0000
0000
0000
0000
,
1000
0000
0000
0000
,
0000
0000
0000
0000
,
0001
0000
0000
0000
,
0010
0000
0000
0000
,
0100
0000
0000
0000
,
1000
0000
0000
0000
,
0001
0000
0000
0000
,
0000
0000
0000
0000
,
0001
0000
0000
0000
,
0000
0000
0000
0000
,
1000
0000
0000
0000
,
0000
0000
0000
0000
,
1000
0000
0000
0000
,
0001
0000
0000
0000
,
1000
0000
0000
0000
,
0000
0000
0000
0000
,
1000
0000
0000
0000
,
0000
0000
0000
0000
,
0001
0000
0000
0000
,
0000
0000
0000
0000
,
0001
0000
0000
0000
,
1000
0000
0000
0000
,
1000
0000
0000
0000
,
0000
0000
0000
0000
,
1000
0000
0000
0000
,
0000
0000
0000
0000
,
0100
0000
0000
0000
,
0000
0000
0000
0000
,
0010
0000
0000
0000
,
0001
0000
0000
0000
,
1000
0000
0000
0000
,
1000
0000
1001
0000
;

//---------------dance-single - ----------------
#NOTES:
     dance-single:
     :
     Challenge:
     13:
     0.696,0.676,0.255,0.188,0.302: // measure 1
0001
0000
0000
0001
0010
0000
0000
0010
0100
0000
0000
0100
1000
0000
0000
1000
,  // measure 2
0001
0000
0000
0001
0100
0000
0001
0000
0000
0000
1001
0000
0000
0000
0000
0000
,  // measure 3
1000
0000
0000
1000
0010
0000
0000
0010
0100
0000
0000
0100
0001
0000
0000
0001
,  // measure 4
1000
0010
0010
0110
0000
0100
0100
0010
,  // measure 5
0010
0100
0100
0010
0010
0100
0100
0010
,  // measure 6
0010
0000
0100
0000
0100
0000
0010
0000
1000
0001
1000
0001
1000
0001
1000
0001
,  // measure 7
1000
0100
0010
0100
1000
0001
0100
0000
,  // measure 8
0001
1000
0001
0000
1000
0100
0001
0100
,  // measure 9
1000
0001
0010
0100
0010
0001
1000
0000
,  // measure 10
0100
1000
0100
0000
1000
0001
0100
0000
,  // measure 11
0101
0001
1000
0200
0000
1000
1300
0000
,  // measure 12
1100
1000
0001
0200
0000
0001
0301
0000
,  // measure 13
1000
0100
0000
0000
0100
0000
0000
0000
0010
0001
0000
0000
0001
0000
0000
0000
,  // measure 14
2002
3003
1001
0000
,  // measure 15
0001
0100
0010
0001
0010
0100
0001
0000
,  // measure 16
0100
0010
0100
0000
0001
0010
1000
0010
,  // measure 17
0001
0100
0010
0001
0010
0100
0001
0000
,  // measure 18
0010
0100
0010
0000
0001
1000
0010
0000
,  // measure 19
1010
1000
0001
0020
0000
0100
0130
0000
,  // measure 20
0011
0001
1000
0020
0000
0100
0130
0000
,  // measure 21
0001
0100
0000
0000
0100
0000
0000
0000
0010
1000
0000
0000
1000
0000
0000
0000
,  // measure 22
2002
0000
0000
0000
3003
0000
0000
0000
1001
0000
0000
0000
1000
0001
1000
0001
,  // measure 23
1000
0100
1000
0001
0100
0001
1000
0100
,  // measure 24
1000
0001
0100
0001
1000
0100
0010
0001
,  // measure 25
1000
0010
1000
0001
0010
0001
1000
0010
,  // measure 26
1000
0000
0001
0000
0010
0000
0001
0000
1000
0000
0000
0000
0001
1000
0001
1000
,  // measure 27
0001
1000
0100
1000
0001
0100
0001
1000
,  // measure 28
0100
1000
0001
0100
0001
0010
0100
1000
,  // measure 29
0001
0001
1000
1000
0010
0010
0100
0100
,  // measure 30
0001
0000
0001
0000
0001
0000
0001
0000
1001
0000
0000
0000
1000
0001
1000
0001
,  // measure 31
1000
0000
0000
1000
0010
0000
0000
0010
0100
0000
0000
0100
0001
0000
0000
0001
,  // measure 32
0100
0000
0000
0100
0010
0000
0000
0000
1001
0000
0000
0000
1001
0000
0000
0000
,  // measure 33
0001
0000
0000
0001
0010
0000
0000
0010
0100
0000
0000
0100
1000
0000
0000
1000
,  // measure 34
0001
0000
0100
0000
0010
0000
0110
0000
0000
0000
0000
0000
1000
0001
1000
0001
,  // measure 35
1000
0000
0000
1000
0100
0000
0000
0100
0010
0000
0000
0010
0001
0000
0000
0001
,  // measure 36
0010
0000
0000
0010
0100
0000
0000
0000
1001
0000
0000
0000
1001
0000
0000
0000
,  // measure 37
0001
0000
0000
0001
0100
0000
0000
0100
0010
0000
0000
0010
1000
0000
0000
1000
,  // measure 38
0001
1000
1000
1001
0000
0001
0001
1000
,  // measure 39
1000
0001
0001
1000
1000
0001
0001
1000
,  // measure 40
1000
0000
0001
0000
0001
0000
1000
0000
1000
0000
0001
0000
0100
0010
0100
0010
,  // measure 41
0100
0001
1000
0010
1000
0001
0010
0000
,  // measure 42
0001
1000
0001
0000
1000
0100
0001
0100
,  // measure 43
1000
0001
0100
0001
1000
0100
1000
0000
,  // measure 44
0001
1000
0001
0000
1000
0001
0010
0000
,  // measure 45
0001
0001
0001
0100
0000
0001
0001
0000
,  // measure 46
1000
1000
1000
0100
0000
1000
1000
0000
,  // measure 47
2020
0030
0200
0300
,  // measure 48
0002
3003
2002
0000
,  // measure 49
3003
0000
0000
0000
;
