#TITLE:華陽炎-Hana Kagerou-;
#SUBTITLE:;
#ARTIST:源屋 feat. Kuroa*;
#TITLETRANSLIT:Hana Kagerou;
#SUBTITLETRANSLIT:;
#ARTISTTRANSLIT:MINAMOTOYA feat. Kuroa*;
#CREDIT:DigiMindAxel;
#BANNER:Hana Kagerou.png;
#BACKGROUND:Hana Kagerou-bg.png;
#LYRICSPATH:Hana Kagerou.lrc;
#CDTITLE:SOUND VOLTEX.png;
#MUSIC:Hana Kagerou.mp3;
#METERTYPE:DDR X;
#OFFSET:-5.760;
#SAMPLESTART:48.309;
#SAMPLELENGTH:12.000;
#SELECTABLE:YES;
#BPMS:0.000=170.000,4.000=145.000,8.000=125.000,12.000=110.000,14.000=85.000,16.000=90.000,18.000=176.000,214.000=88.000,230.000=176.000,294.000=155.000,298.000=145.000,302.000=140.000,306.000=110.000,308.000=97.500;
#STOPS:;
#BGCHANGES:;

//---------------dance-single - ----------------
#NOTES:
     dance-single:
     :
     Easy:
     5:
     0.225,0.313,0.089,0.048,0.000: // measure 1
0000
0000
0000
0000
,  // measure 2
0001
0000
1000
0000
,  // measure 3
0001
0000
0010
0000
,  // measure 4
0100
0000
1000
0000
,  // measure 5
0001
0000
2000
0000
,  // measure 6
0000
0000
3001
0000
,  // measure 7
1000
0000
0100
0000
,  // measure 8
1000
0000
0001
0001
,  // measure 9
0001
0000
1000
0000
,  // measure 10
0001
0000
0100
0010
,  // measure 11
0100
0000
0001
0000
,  // measure 12
1000
0000
0220
0000
,  // measure 13
0330
0110
0000
0000
,  // measure 14
0000
0000
1001
0000
,  // measure 15
1000
0000
1000
0000
,  // measure 16
1000
0000
0001
0000
,  // measure 17
0001
0000
0001
0000
,  // measure 18
0000
0000
0100
0000
,  // measure 19
0010
0000
0100
0000
,  // measure 20
0010
0000
0100
0000
,  // measure 21
0001
0000
1000
0000
,  // measure 22
0000
0000
1001
0000
,  // measure 23
0001
0000
0010
0001
,  // measure 24
0010
0000
0001
0000
,  // measure 25
1000
0000
0010
0100
,  // measure 26
0010
0000
1000
0000
,  // measure 27
0100
0000
0010
0000
,  // measure 28
0001
0000
1000
0001
,  // measure 29
1000
0001
1000
0000
,  // measure 30
0000
0000
1001
0010
,  // measure 31
0100
1000
0001
1000
,  // measure 32
0001
0000
1000
0000
,  // measure 33
0100
0000
1000
0001
,  // measure 34
1000
0000
0010
0100
,  // measure 35
0010
0000
1000
0001
,  // measure 36
1000
0000
0100
1000
,  // measure 37
0100
1000
0001
0010
,  // measure 38
0100
0000
0010
0001
,  // measure 39
0010
0000
0001
1000
,  // measure 40
0001
0000
1000
0100
,  // measure 41
0010
0100
1000
0000
,  // measure 42
0000
0000
0010
0100
,  // measure 43
0010
0000
1000
0001
,  // measure 44
1000
0000
0001
0100
,  // measure 45
0001
0100
0001
0000
,  // measure 46
0000
0000
1001
0000
,  // measure 47
0010
0000
0100
0000
,  // measure 48
1000
0000
0001
0000
,  // measure 49
0010
0000
0100
0000
,  // measure 50
0000
0000
1000
0001
,  // measure 51
1000
0000
0001
1000
,  // measure 52
0001
0000
0010
0001
,  // measure 53
0010
0001
0010
0000
,  // measure 54
0000
0000
1001
0000
,  // measure 55
0000
0000
1000
0000
,  // measure 56
0000
0000
0100
0000
,  // measure 57
1000
0000
0000
0000
0001
0001
0001
0001
,  // measure 58
0001
0000
1001
1000
,  // measure 59
1000
0000
0001
0100
,  // measure 60
0001
0000
0010
0100
,  // measure 61
1000
0100
0010
0000
,  // measure 62
0000
0000
0001
1000
,  // measure 63
0001
0000
0010
0010
,  // measure 64
0010
0000
0001
0100
,  // measure 65
0010
0100
0001
0000
,  // measure 66
0000
0000
1000
0001
,  // measure 67
1000
0000
0100
1000
,  // measure 68
0100
0000
1000
1000
,  // measure 69
1000
0000
0001
0001
,  // measure 70
0001
0000
0100
0001
,  // measure 71
0100
0000
0010
0100
,  // measure 72
0010
0000
2002
0000
,  // measure 73
3003
1001
0000
0000
,  // measure 74
0000
0000
1001
0000
,  // measure 75
0000
0000
0010
0000
,  // measure 76
0000
0000
0100
0000
,  // measure 77
0000
0000
0001
0000
,  // measure 78
2000
0000
3000
0000
;

//---------------dance-single - ----------------
#NOTES:
     dance-single:
     :
     Medium:
     9:
     0.404,0.407,0.178,0.057,0.004: // measure 1
0000
0000
0000
0000
,  // measure 2
1000
0100
0010
0100
,  // measure 3
1000
0100
0010
0100
,  // measure 4
1000
0001
0100
0010
,  // measure 5
0100
0000
0001
0100
0002
0000
0000
0000
,  // measure 6
0000
0000
0000
0000
1003
0000
0001
0100
,  // measure 7
0001
0000
0010
0000
0100
1000
0001
0000
,  // measure 8
0100
0010
0100
0000
0010
0000
1000
0000
,  // measure 9
0010
0100
0010
0000
1000
0100
1000
0000
,  // measure 10
0001
1000
0001
0000
1000
0000
0100
0000
,  // measure 11
0010
0001
0100
0000
0001
0000
1000
0000
,  // measure 12
0100
1000
0010
0000
1000
0001
0000
1000
,  // measure 13
0001
0000
1000
0001
0000
0000
0000
0000
,  // measure 14
0000
0000
1001
0000
,  // measure 15
0101
0000
1001
0000
,  // measure 16
1010
0000
1001
0000
,  // measure 17
0110
0000
0000
0000
0000
0000
0001
0000
1000
0000
0000
1000
0000
0000
1001
0000
,  // measure 18
0000
0110
0010
0100
,  // measure 19
0010
0100
0001
0010
,  // measure 20
0100
1000
0010
0100
,  // measure 21
0010
0000
1000
0001
0000
0001
0000
1000
,  // measure 22
0000
1001
0000
0000
1001
0000
0001
0100
,  // measure 23
0001
0000
1000
0100
,  // measure 24
0010
0000
0000
0000
0001
0000
1000
0100
,  // measure 25
1000
0000
0000
0001
0000
0001
0000
1000
,  // measure 26
0000
1001
0000
0000
0110
0000
0100
0000
,  // measure 27
0010
0100
0001
1000
,  // measure 28
0001
0000
1000
0000
0001
0010
0000
0001
,  // measure 29
0010
0000
0001
0010
0000
0000
0000
0000
,  // measure 30
0000
0000
0000
0000
0001
1000
0100
1000
,  // measure 31
0001
0000
0100
0001
0100
0000
0010
0000
,  // measure 32
1000
0000
0001
1000
0001
0000
1000
0100
,  // measure 33
1000
0000
0010
1000
0001
0000
1000
0000
,  // measure 34
0100
0000
0010
0001
0100
0001
0010
0000
,  // measure 35
0001
0000
1000
0000
0001
0100
0001
0000
,  // measure 36
0100
0000
0010
0100
0010
0000
1000
0010
,  // measure 37
1000
0000
0001
1000
0000
1000
0000
0001
,  // measure 38
0000
1001
0000
0000
1000
0100
0010
0100
,  // measure 39
1000
0000
0010
0100
0010
0000
1000
0000
,  // measure 40
0001
0000
1000
0000
0001
0000
0100
0010
,  // measure 41
0100
0000
0001
1000
0000
1000
0000
0001
,  // measure 42
0000
0001
1000
0000
1001
0000
0001
0000
,  // measure 43
0010
0000
1001
1000
,  // measure 44
0100
0000
0000
0000
1000
0001
1000
0001
,  // measure 45
1000
0001
1000
0001
0200
0000
0000
0000
,  // measure 46
0000
0300
2001
0000
,  // measure 47
3200
0000
2300
0000
,  // measure 48
3002
0000
0103
0010
,  // measure 49
0100
0000
0001
1000
0000
1000
0000
0001
,  // measure 50
0000
1001
0000
0000
0100
0000
0010
0000
,  // measure 51
0100
0010
1000
0100
,  // measure 52
1000
0100
0010
0001
,  // measure 53
0010
0001
1000
0000
,  // measure 54
0000
0000
1001
0000
,  // measure 55
0001
0000
1000
0000
,  // measure 56
0100
0000
0000
0000
0010
0001
0010
0000
,  // measure 57
0001
1000
0001
0000
1000
0001
1000
0001
,  // measure 58
1000
0000
0000
0000
0001
0100
0010
0100
,  // measure 59
0001
0000
1000
0000
0100
1000
0100
0000
,  // measure 60
1000
0000
0001
0100
0001
0000
0000
0110
,  // measure 61
0000
0000
1000
0010
0000
0100
0000
0100
,  // measure 62
0000
0110
0000
0000
1000
0001
1000
0000
,  // measure 63
0100
0000
1000
0000
0010
0100
0010
0100
,  // measure 64
0001
0000
1000
0000
0100
1000
0000
0100
,  // measure 65
1000
0000
0100
1000
0000
0000
0000
0000
,  // measure 66
0000
0000
0000
0000
0001
1000
0100
0000
,  // measure 67
0010
0100
0010
0000
0001
0000
0100
0000
,  // measure 68
0010
0100
0010
0000
1000
0000
0100
0000
,  // measure 69
1000
0010
0100
0000
0001
1000
0000
1000
,  // measure 70
0000
1001
0000
0000
1000
0001
0100
0000
,  // measure 71
0010
0100
0010
0000
1000
0000
0100
0000
,  // measure 72
1000
0001
1000
0000
0010
0100
0000
0010
,  // measure 73
0100
0000
0010
0100
0000
0000
0000
0000
,  // measure 74
0000
0000
1001
0000
,  // measure 75
1000
0100
0010
0001
1000
0000
0000
0000
,  // measure 76
0001
0010
0100
1000
0001
0000
0100
0000
,  // measure 77
0010
0000
1000
0000
0001
0100
0010
1000
,  // measure 78
0002
0000
0003
0000
;

//---------------dance-single - ----------------
#NOTES:
     dance-single:
     :
     Hard:
     12:
     0.554,0.563,0.291,0.089,0.040: // measure 1
0000
0000
0000
0000
,  // measure 2
0001
0010
0100
1000
0001
0000
1000
0100
,  // measure 3
0010
0001
0010
0100
1000
0000
0010
0100
,  // measure 4
0001
0000
1000
0001
0010
0001
1000
0000
,  // measure 5
0100
0010
0100
0010
0002
0000
0000
0000
,  // measure 6
0000
0000
0000
0000
1003
0001
1000
0100
,  // measure 7
0010
0001
0100
0000
0001
1000
0001
0100
,  // measure 8
0010
1000
0001
0000
0010
0001
0010
0001
,  // measure 9
1000
0010
0100
0000
0001
1000
0100
0001
,  // measure 10
0100
1000
0001
0000
1000
0001
1000
0100
,  // measure 11
0010
0001
0100
0000
0001
1000
0001
0100
,  // measure 12
0010
1000
0100
0000
1000
1000
0000
0001
,  // measure 13
0001
0000
1000
1000
0100
0000
0100
0000
,  // measure 14
0200
0000
0300
0000
0000
1000
0000
0010
,  // measure 15
0000
0100
0000
0010
0000
1000
0000
0001
,  // measure 16
0000
0010
0000
0100
0000
0010
0000
0001
,  // measure 17
0000
0000
1000
0000
0000
0000
0001
0000
1000
0000
0000
1100
0000
0000
1100
0000
,  // measure 18
0000
0000
1000
0001
1000
0000
1010
0000
,  // measure 19
0010
0000
0110
0000
0100
0001
0010
0100
,  // measure 20
1000
0000
0001
0100
0001
0000
1000
0100
,  // measure 21
0000
1000
0000
1001
0000
1001
0000
0110
,  // measure 22
0000
0110
0000
0000
0201
0000
0010
0010
,  // measure 23
0310
0000
0000
1000
0001
0010
0100
1000
,  // measure 24
0001
0000
1000
0000
0020
0000
0100
0100
,  // measure 25
0130
0000
0000
1001
0000
1001
0000
0011
,  // measure 26
0000
0011
0000
0000
0001
1000
0010
0000
,  // measure 27
0100
0010
0100
0000
0001
1000
0100
0000
,  // measure 28
1000
0001
1000
0000
0001
0001
0000
1000
,  // measure 29
1000
0000
0001
0001
0000
0100
0010
0000
,  // measure 30
0010
0000
0000
0000
1000
0010
0100
0010
,  // measure 31
0001
0000
0010
0000
1000
0001
0010
0100
,  // measure 32
1000
0000
0001
0100
0010
0000
1000
0010
,  // measure 33
0100
0010
0001
0000
0010
0000
1000
0000
,  // measure 34
1001
0000
0001
0010
0100
0001
0100
1000
,  // measure 35
0001
0000
1000
0100
0010
1000
0010
0001
,  // measure 36
1000
0000
0001
1000
0100
0000
1000
0001
,  // measure 37
0100
1000
0100
0001
0000
1001
0000
1001
,  // measure 38
0000
0010
0100
0001
1000
0010
0100
0010
,  // measure 39
0001
0000
0010
0000
1000
0001
0010
0100
,  // measure 40
1000
0000
0001
1000
0010
0000
1000
0010
,  // measure 41
0100
0010
0001
0010
0000
1000
0000
1001
,  // measure 42
0000
0001
1000
0100
1100
0000
1000
0010
,  // measure 43
0100
0000
0100
0000
1001
0000
0001
0010
,  // measure 44
0100
0000
0100
0000
1000
0100
1000
0010
,  // measure 45
0100
0001
0010
0001
1000
0000
0000
1000
,  // measure 46
0000
1000
1002
0000
,  // measure 47
0023
0000
0230
0000
0320
0000
0031
1000
,  // measure 48
0010
0100
0010
0000
1000
0000
1001
0000
,  // measure 49
0001
0000
0100
0010
0000
0110
0000
1001
,  // measure 50
0000
1000
0100
1000
0001
0100
0010
0100
,  // measure 51
0001
0000
0101
0000
0100
0010
0001
0010
,  // measure 52
0100
0000
0110
0000
0010
1000
0100
1000
,  // measure 53
0001
0010
0001
1000
0010
0100
0100
0000
,  // measure 54
0100
0000
0000
0000
1001
0001
0001
0000
,  // measure 55
0100
0001
0010
0000
0001
1000
0001
0000
,  // measure 56
1000
0100
0010
0000
1001
1000
0100
0000
,  // measure 57
1000
0000
0010
0000
0100
0000
0000
0000
0001
0010
0100
1000
0100
0010
0001
1000
,  // measure 58
0002
0000
0003
0000
1000
0100
0010
0100
,  // measure 59
0001
0000
0100
0000
1000
0001
0100
0001
,  // measure 60
1000
0000
0001
1000
1100
0000
0000
0101
,  // measure 61
0000
0000
1000
1001
0000
0110
0000
0110
,  // measure 62
0000
0010
0100
0001
1000
0100
0010
0100
,  // measure 63
0001
0000
0100
0000
1000
0010
0100
0010
,  // measure 64
1000
0000
0001
1000
0010
0010
0000
0100
,  // measure 65
0100
0000
0010
0010
0100
0000
0100
0000
,  // measure 66
0200
0000
0000
0000
0000
0000
0000
0000
0301
0000
0000
0001
0010
0000
0001
0000
,  // measure 67
1000
0000
0010
0000
0100
0000
0000
0000
0010
0000
0000
0010
1000
0000
0100
0000
,  // measure 68
0010
0000
0000
0010
0001
0000
1000
0000
0010
0000
0100
0000
0010
0000
1000
0000
,  // measure 69
0100
0001
0100
1000
0000
1001
0000
1001
,  // measure 70
0000
0000
0001
0000
0001
0000
0000
0000
1000
0000
0000
1000
0010
0000
0100
0000
,  // measure 71
0001
0000
0010
0000
0100
0000
0000
0000
0010
0000
0000
0010
0001
0000
0100
0000
,  // measure 72
0010
0100
0001
1000
0100
0100
0000
1000
,  // measure 73
1000
0000
0100
0100
0010
0000
0010
0000
,  // measure 74
0010
0000
0101
0000
,  // measure 75
0001
0100
1000
0100
0001
0000
0000
0000
,  // measure 76
1000
0100
0001
0100
1000
0000
1100
0000
,  // measure 77
0001
0001
0010
0000
0001
0010
1000
0010
,  // measure 78
0002
0000
0003
0000
;

//---------------dance-single - ----------------
#NOTES:
     dance-single:
     :
     Challenge:
     14:
     0.711,0.782,0.379,0.057,0.234: // measure 1
0000
0000
0000
0000
,  // measure 2
0001
0100
0010
0100
0001
0000
1000
0001
,  // measure 3
1000
0100
0010
0100
1000
0000
0001
1000
,  // measure 4
0100
0000
1000
0100
0001
0100
1000
0001
,  // measure 5
0100
0100
0010
0100
0002
0000
1000
1000
,  // measure 6
0000
0000
1000
0000
1003
0000
0000
0000
0001
0000
1000
0100
1000
0000
0010
0000
,  // measure 7
1000
0000
0100
0000
0010
0000
0100
0000
1000
0000
0001
0010
0001
0000
0100
0000
,  // measure 8
0010
0000
0100
0001
0100
0000
0001
0000
1000
0000
0100
1000
0100
0000
0010
0000
,  // measure 9
0100
0000
1000
0001
1000
0000
0001
0000
1000
0000
0100
1000
0100
0000
1000
0000
,  // measure 10
0100
0000
0010
0000
0001
0000
1000
0000
0001
0000
0100
0010
0100
0000
0001
0000
,  // measure 11
0010
0000
0100
0000
0010
0000
0001
0000
1000
0000
0001
0100
0001
0000
1000
0000
,  // measure 12
0100
0010
0100
1000
0001
0101
0000
0100
,  // measure 13
0110
0000
0000
0000
0010
0000
1010
0000
1000
0000
0001
1000
0001
0000
0010
0000
,  // measure 14
0200
0000
0000
0000
1300
0001
0000
0001
,  // measure 15
0010
0001
0000
1000
0100
1000
0000
0001
,  // measure 16
1000
0001
0000
0100
0010
0100
0000
0001
,  // measure 17
1000
0000
0001
0000
0000
0000
1000
0000
1100
0000
0000
1100
0000
0000
1100
0000
,  // measure 18
0000
0000
0000
0000
1000
0001
1000
0001
1000
0000
0100
0000
1000
0000
0001
0000
,  // measure 19
1000
0100
1000
0001
0010
0100
1000
0100
,  // measure 20
0010
0000
0001
1000
0010
1000
0010
0100
,  // measure 21
0000
0100
0000
1001
0000
1001
0000
1001
,  // measure 22
0000
0000
0001
0000
0100
0010
0100
0000
0002
0000
0000
0000
1003
0000
0010
0000
,  // measure 23
0100
0000
0000
0001
1000
0100
1000
0010
,  // measure 24
0100
0000
0001
0100
0010
0000
0100
0001
,  // measure 25
0010
0100
1000
0001
0000
1001
0000
1001
,  // measure 26
0000
1000
1000
0000
0001
0100
0010
0100
,  // measure 27
0001
0100
0010
0100
0001
1000
0100
1000
,  // measure 28
0001
0010
0001
1000
0010
0110
0000
0100
,  // measure 29
0110
0000
0001
1001
0000
1000
0001
0000
,  // measure 30
0001
0000
0000
0000
1001
0000
0000
0000
1000
0000
0001
0100
0010
0000
0100
0000
,  // measure 31
0001
0010
0100
1000
0100
0001
0100
0010
,  // measure 32
0001
1000
0001
0100
1000
0000
0100
0001
,  // measure 33
1000
0000
0100
1000
0010
0000
0100
0000
0001
0000
0010
0000
0100
0000
0010
0000
,  // measure 34
0001
0000
1000
0001
0101
0000
0001
0100
,  // measure 35
1000
0100
0010
1000
0001
0100
0010
0100
,  // measure 36
0001
0000
1000
0100
0001
0000
0100
1000
,  // measure 37
0001
0000
0100
0001
0010
0000
0100
0000
0000
0000
1100
0000
0000
0000
1100
0000
,  // measure 38
0000
0000
1000
0000
0001
1000
0001
1000
0001
0000
0010
0001
0100
0000
0001
0000
,  // measure 39
0010
0100
1000
0010
0001
0010
0100
0001
,  // measure 40
1000
0000
0001
0100
1000
0000
0100
0001
,  // measure 41
1000
0000
0100
1000
0010
0000
0100
0000
0000
0000
0110
0000
0000
0000
0110
0000
,  // measure 42
0000
0000
0010
0000
0100
0001
0100
0001
0100
0000
0001
0000
0010
0000
0100
0000
,  // measure 43
0010
0000
0011
0000
0010
0100
1000
0100
,  // measure 44
0010
0000
0110
0000
0100
0010
0001
1000
,  // measure 45
0010
0100
0001
1000
0100
0000
1100
0000
,  // measure 46
2001
0000
0001
0000
,  // measure 47
0100
0000
3100
0000
0100
0000
1000
0100
,  // measure 48
0010
0000
0001
1000
0010
0000
1000
0000
0001
0000
0010
0100
0010
0000
0100
0000
,  // measure 49
0010
0000
0001
0000
1000
0010
0100
0000
0000
0000
0110
0000
0000
0000
0110
0000
,  // measure 50
0000
0000
0010
0000
1000
0001
1000
0001
1000
0000
0100
1000
0001
0000
0010
0000
,  // measure 51
0200
0000
0000
0000
1300
0000
0001
0000
0100
0001
0010
0000
0001
0000
0100
0000
,  // measure 52
0020
0000
0000
0000
0130
0000
0001
1000
0001
0000
0010
0100
0010
0000
0001
0000
,  // measure 53
0100
0010
0100
0001
0010
0100
0100
0000
,  // measure 54
0100
0000
0000
0000
1001
0000
0000
0000
1000
0100
0010
0100
1000
0000
0010
0100
,  // measure 55
0001
0000
0010
0000
0100
1000
1000
0000
0100
0000
1000
0001
0100
0001
1000
0000
,  // measure 56
0100
0000
0010
0000
0001
1000
1000
0000
1001
0000
0001
0100
0010
0000
0100
0001
,  // measure 57
0010
0100
1000
0001
1000
0100
0100
0000
1000
0001
0010
0001
1000
0010
0100
0001
,  // measure 58
1000
0000
1000
0000
1001
0000
0000
0000
0001
0000
0100
0001
0010
0000
0001
0000
,  // measure 59
1000
0100
0010
0001
1000
0010
0001
0010
,  // measure 60
0100
0001
1000
0010
0110
0000
0100
0101
,  // measure 61
0000
0001
1000
1100
0000
1100
0000
1000
,  // measure 62
0001
1000
0001
1000
0001
0000
1000
0000
0001
0000
0100
0000
1000
0000
0100
0000
,  // measure 63
0010
1000
0001
0010
1000
0010
0001
0100
,  // measure 64
0001
0010
0100
1000
0001
0101
0000
0100
,  // measure 65
0110
0000
0010
1010
1000
0000
0001
0000
,  // measure 66
1000
0000
0000
0000
1001
0000
0000
0000
0001
0000
1000
0100
0010
0000
0100
0000
,  // measure 67
1000
0000
0001
0000
0100
0000
0010
0000
0100
0000
0001
0010
0100
0000
0010
0000
,  // measure 68
0001
0000
1000
0001
0100
0000
0001
0000
0010
0000
0100
0010
0001
0000
1000
0000
,  // measure 69
0010
0000
1000
0100
0010
0000
0001
0000
0000
0000
0101
0000
0000
0000
0101
0000
,  // measure 70
0000
0000
0001
0000
1001
0000
0000
0000
1000
0000
0001
0100
0010
0000
1000
0000
,  // measure 71
0100
0000
0100
0000
0010
0000
0010
0000
0100
0000
1000
0001
0100
0000
0001
0000
,  // measure 72
1000
1000
0001
0001
0100
0110
0000
1000
,  // measure 73
1100
0000
0001
1001
1000
0010
0010
0100
,  // measure 74
0100
0110
1001
0000
,  // measure 75
0001
0010
1000
0010
0001
0000
0000
0000
,  // measure 76
1000
0010
0001
0010
1000
0000
1100
0000
,  // measure 77
0011
0000
0001
1000
0010
0000
1000
0000
0001
0000
0100
0000
1000
0000
0100
0000
,  // measure 78
0002
0000
0003
0000
;

//---------------dance-single - ----------------
#NOTES:
     dance-single:
     :
     Beginner:
     2:
     0.091,0.124,0.105,0.000,0.000: // measure 1
0000
0000
0000
0000
,  // measure 2
1000
0000
0000
0000
,  // measure 3
1000
0000
0000
0000
,  // measure 4
0001
0000
0000
0000
,  // measure 5
0001
0000
0000
0000
,  // measure 6
0000
0000
1001
0000
,  // measure 7
0000
0000
0001
0000
,  // measure 8
0000
0000
0010
0000
,  // measure 9
0000
0000
0001
0000
,  // measure 10
0000
0000
0100
0000
,  // measure 11
0000
0000
0010
0000
,  // measure 12
0000
0000
1000
0000
,  // measure 13
0000
0000
0000
0000
,  // measure 14
0000
0000
1001
0000
,  // measure 15
0000
0000
0000
0000
,  // measure 16
0000
0000
1000
0000
,  // measure 17
0000
0000
0000
0000
,  // measure 18
0000
0000
0000
0100
,  // measure 19
0000
0000
0000
0000
,  // measure 20
0000
0000
0010
0000
,  // measure 21
0000
0000
0000
0000
,  // measure 22
0000
0000
0100
0000
,  // measure 23
0000
0000
0000
0000
,  // measure 24
0000
0000
0010
0000
,  // measure 25
0000
0000
0000
0000
,  // measure 26
0000
0000
0001
0000
,  // measure 27
0000
0000
0001
0000
,  // measure 28
0000
0000
1001
0000
,  // measure 29
0000
0000
0000
0000
,  // measure 30
0000
0000
1000
0000
,  // measure 31
0000
0000
0100
0000
,  // measure 32
0000
0000
1000
0000
,  // measure 33
0000
0000
0010
0000
,  // measure 34
0000
0000
0100
0000
,  // measure 35
0000
0000
0100
0000
,  // measure 36
0000
0000
0001
0000
,  // measure 37
0000
0000
0001
0000
,  // measure 38
0000
0000
1001
0000
,  // measure 39
0000
0000
1000
0000
,  // measure 40
0000
0000
0100
0000
,  // measure 41
0000
1000
0000
0000
,  // measure 42
0000
0000
1001
0000
,  // measure 43
0000
0000
1001
0000
,  // measure 44
0000
0000
0001
0000
,  // measure 45
0000
0000
1001
0000
,  // measure 46
0000
0000
0100
0000
,  // measure 47
0000
0000
0000
0000
,  // measure 48
0000
0000
0010
0000
,  // measure 49
0000
0000
0000
0000
,  // measure 50
0000
0000
0100
0000
,  // measure 51
0000
0000
0100
0000
,  // measure 52
0000
0000
0100
0000
,  // measure 53
0000
0000
0000
0000
,  // measure 54
0000
0000
0110
0000
,  // measure 55
0000
0000
0001
0000
,  // measure 56
0000
0000
1001
0000
,  // measure 57
0000
0000
1000
0000
,  // measure 58
0001
0000
1001
0000
,  // measure 59
0000
0000
1000
0000
,  // measure 60
0000
0000
0010
0000
,  // measure 61
0000
0000
1000
0000
,  // measure 62
0000
0000
1001
0000
,  // measure 63
0000
0000
1001
0000
,  // measure 64
0000
0000
0001
0000
,  // measure 65
0000
0000
0100
0000
,  // measure 66
0000
0000
0001
0000
,  // measure 67
0000
0000
0001
0000
,  // measure 68
0000
0000
0001
0000
,  // measure 69
0000
0000
0001
0000
,  // measure 70
0000
0000
1000
0000
,  // measure 71
0000
0000
1000
0000
,  // measure 72
0000
0000
1000
0000
,  // measure 73
0000
0000
0000
0000
,  // measure 74
0000
0000
0110
0000
,  // measure 75
0000
0000
0010
0000
,  // measure 76
0000
0000
0010
0000
,  // measure 77
0000
0000
0010
0000
,  // measure 78
0010
0000
0000
0000
;
