#TITLE:ヒーロー;
#SUBTITLE:;
#ARTIST:鈴木友里絵;
#TITLETRANSLIT:HERO;
#SUBTITLETRANSLIT:;
#ARTISTTRANSLIT:YURIE SUZUKI;
#CREDIT:DigiMindAxel;
#BANNER:HERO.png;
#BACKGROUND:HERO-bg.png;
#LYRICSPATH:HERO.lrc;
#CDTITLE:jubeat.png;
#MUSIC:HERO.mp3;
#METERTYPE:DDR X;
#OFFSET:-7.550;
#SAMPLESTART:38.430;
#SAMPLELENGTH:12.000;
#SELECTABLE:YES;
#BPMS:0.000=155.000;
#STOPS:;
#BGCHANGES:;

//---------------dance-single - ----------------
#NOTES:
     dance-single:
     :
     Easy:
     5:
     0.281,0.266,0.033,0.000,0.000:
0001
1000
0001
0000
,
1000
1001
0000
0000
,
0010
0100
0010
0000
,
1000
0001
1000
0000
,
0100
1000
0100
0000
,
1000
0001
1000
0000
,
0001
0010
0001
0000
,
0100
0010
0100
0010
,
1000
0001
1000
0000
,
0001
1000
0001
0000
,
0010
0001
0010
0000
,
0001
1000
0001
0000
,
0100
0001
0100
0000
,
0010
1000
0010
0000
,
1000
0001
0001
0000
,
0010
0100
0010
0000
,
0001
1000
1000
0000
,
0100
0010
0100
0000
,
1000
0001
1000
0100
,
0000
0000
0000
0000
,
1001
1000
0001
0000
,
1000
0001
0100
0000
,
0001
0010
0100
1000
,
0100
0010
0001
0000
,
1000
0001
0100
0000
,
0001
1000
0100
0000
,
1000
0001
0010
0100
,
1000
0001
0001
0001
,
1000
0001
0010
0000
,
0001
1000
0010
0000
,
1000
0100
0010
0001
,
0010
0100
1000
0000
,
0010
0100
0001
0000
,
0010
0100
1000
0000
,
0010
0100
0010
0000
,
1000
0100
0010
0001
,
1000
1000
1000
1000
,
0001
1000
0001
1000
,
0001
0001
0001
0001
,
1000
0001
1000
0001
,
0000
1000
0100
1000
,
0100
0000
0010
0000
,
0001
0100
0001
0000
,
0010
0100
1000
0010
,
0100
0000
0001
0000
,
0010
0100
0010
0100
,
1000
0000
0001
0000
,
1000
0100
1000
0001
,
1000
1000
1000
0000
,
0001
0001
0001
0000
,
1000
0100
0010
0001
,
0010
0100
1000
0000
,
0001
0001
0001
0000
,
1000
1000
1000
0000
,
0001
1000
0001
0100
,
0010
0000
0000
0000
,
0110
0100
0001
0000
,
0010
0100
1000
0000
,
0001
0100
0010
1000
,
0010
0100
0001
1000
,
0001
0100
0010
0000
,
0100
0001
0010
0000
,
0001
1000
0001
0000
,
0010
0100
1000
0010
,
0100
0100
0100
0100
,
0001
1000
0001
1000
,
0010
0010
0010
0010
,
1000
0001
1000
0001
,
0010
0010
0010
0010
,
0100
1000
0100
1000
,
0001
0001
0001
0001
,
1000
0100
0010
1001
;

//---------------dance-single - ----------------
#NOTES:
     dance-single:
     :
     Medium:
     8:
     0.459,0.535,0.479,0.074,0.000:
0001
1000
0100
1000
,
0001
1001
0000
0000
,
0010
0100
1000
0010
,
0100
0010
0100
0010
,
1000
0100
0010
0100
,
1000
0000
0010
0100
0000
0000
0001
0000
,
0100
0110
0100
0001
,
0010
0100
1000
0000
,
0010
0100
0001
1000
,
0100
0000
1000
0001
0000
0001
0000
0000
,
0100
0010
1000
1100
,
1000
0100
1000
0001
,
0100
0010
0000
1000
0010
1000
0000
0000
,
0001
0010
0100
1000
,
0010
0100
0000
0001
1000
0001
0000
0000
,
0010
0000
0100
0000
1000
0000
0000
0010
,
0100
0000
0000
0001
0100
0001
0000
0000
,
0010
0100
1000
0100
,
0010
0100
0010
0100
0010
0100
0010
0000
,
0000
0000
1001
1001
,
1100
0000
1100
0000
1100
0000
0000
0110
,
0000
0010
0100
0000
0110
0000
0000
0000
,
0010
0001
0010
0000
0001
0010
0001
0000
,
0010
0000
0100
0000
1000
0010
0100
0000
,
0001
1000
0001
1000
0001
0000
0000
0000
,
0100
0010
0100
0010
0100
0000
0000
0000
,
0001
0100
0001
0000
1000
0010
1000
0000
,
0100
0000
0010
0000
0001
1000
0001
0000
,
0101
0000
0101
0000
0101
0000
0000
0110
,
0000
0100
0010
0000
0110
0000
0000
0000
,
1000
0100
1000
0000
0001
0010
0001
0000
,
0010
0000
0100
0000
1000
0001
0100
0000
,
0010
0100
0010
0100
0010
0000
0000
0000
,
1000
0001
1000
0001
1000
0000
0000
0000
,
0100
0000
0010
0000
0001
1000
0001
0000
,
0010
0100
0010
0001
,
1001
1001
1001
1001
,
1100
1100
1100
1100
,
0011
0011
0011
0011
,
1001
1001
1001
1001
,
0001
0000
0010
0001
0010
0001
0010
0000
,
0001
0000
1000
0000
0010
0100
0001
0000
,
0200
0010
0320
1000
,
1030
0000
0001
0010
0100
1000
0100
0010
,
0002
0000
2003
0000
,
3200
1000
2300
0001
,
3002
0000
1000
0000
,
1003
0100
0010
0001
0010
0100
1000
0000
,
0001
0000
0100
0000
0101
0000
0000
0010
,
0000
0100
0010
0000
0100
0000
0000
0000
,
0001
1000
0100
0001
,
0100
1000
0001
1000
,
0100
1000
1100
0000
,
0010
0100
0110
0000
,
1000
0001
1000
0000
0010
0100
0010
0000
,
0100
0000
0110
0110
,
0101
0000
0101
0000
0101
0000
0000
0110
,
0000
0010
0100
0000
0110
0000
0000
0000
,
0010
1000
0010
0000
0100
0001
0100
0000
,
0001
0000
0010
0000
0100
1000
0001
0000
,
1000
0010
1000
0010
0100
0000
0001
0000
,
0010
0100
0010
0100
1000
0000
0001
0000
,
0100
0010
0100
0010
,
1000
0100
0010
0000
0001
0010
0100
0000
,
1001
1001
1001
1001
,
1010
1010
1010
1010
,
0101
0101
0101
0101
,
1001
1001
1001
1001
,
0100
1000
0100
1000
0100
1000
0100
0000
,
1000
0001
1000
0001
1000
0001
1000
0000
,
0001
0100
0001
0100
0001
0100
0001
0000
,
0010
0100
0010
0100
1000
0000
2200
0000
,
3300
0000
0000
0000
;

//---------------dance-single - ----------------
#NOTES:
     dance-single:
     :
     Hard:
     11:
     0.608,0.594,0.297,0.272,0.103: // measure 1
1000
0000
1100
0000
0100
0010
0100
1000
,  // measure 2
0010
0000
2002
0000
3003
0000
1000
0001
,  // measure 3
1000
0100
0000
0100
1000
0001
0010
0100
,  // measure 4
0000
1000
0010
0100
0010
0100
0010
0100
,  // measure 5
0010
0000
0110
0000
0100
0001
0010
0100
,  // measure 6
0010
0001
1000
0010
0000
0000
1000
0000
,  // measure 7
0001
0000
1001
0000
0001
1000
0000
1000
,  // measure 8
0100
0010
0001
0100
0010
0100
0010
0100
,  // measure 9
0010
0000
0110
0000
0100
0001
0010
0000
,  // measure 10
0001
0010
0001
2000
0000
3010
0000
0000
,  // measure 11
1000
0010
0100
0001
0100
0010
1000
0000
,  // measure 12
0001
0100
0010
0100
0010
0100
0010
1000
,  // measure 13
1000
0100
0000
0010
0010
0100
2000
0000
,  // measure 14
0010
0000
0010
0000
3010
0000
1000
0001
,  // measure 15
0001
0010
0000
0100
0100
0010
0002
0000
,  // measure 16
0100
0000
0100
0000
0103
0000
0001
1000
,  // measure 17
1000
0010
0000
0100
0100
0001
0010
0100
,  // measure 18
2000
0001
0001
3001
,  // measure 19
1000
0001
0010
0100
1000
0100
0010
0001
,  // measure 20
0000
0000
0000
0000
0000
0000
0000
0000
1000
0001
1000
0000
1001
0000
0000
0000
,  // measure 21
0110
0000
0110
0000
0200
0001
0301
0110
,  // measure 22
0000
0010
0100
0000
0020
1000
1030
0000
,  // measure 23
0001
0010
1000
0010
0001
1000
0100
0010
,  // measure 24
0100
1000
0010
0200
0000
0001
0301
0000
,  // measure 25
1000
0100
0001
0100
1000
0001
0000
1000
,  // measure 26
0001
0100
1000
0100
0001
1000
0000
0001
,  // measure 27
1000
0100
1000
0001
0100
0010
0100
0001
,  // measure 28
1000
0000
0100
0000
0001
0100
1000
0000
,  // measure 29
0110
0000
0110
0000
0020
1000
1030
0110
,  // measure 30
0000
0100
0010
0000
0200
0001
0301
0000
,  // measure 31
1000
0010
0001
0010
1000
0100
0010
0100
,  // measure 32
1000
0001
0010
0002
0000
1000
1003
0000
,  // measure 33
0001
0100
1000
0100
0001
1000
0000
0001
,  // measure 34
1000
0100
0001
0100
1000
0001
1000
0000
,  // measure 35
0001
0000
0100
0000
1000
0100
0001
0000
,  // measure 36
1000
0000
0000
0010
0000
0000
0200
0000
0000
0000
0000
0000
0310
0000
0000
0000
,  // measure 37
1100
1100
0110
0110
,  // measure 38
1100
1100
0011
0011
,  // measure 39
0110
0110
0101
0101
,  // measure 40
1010
1010
0101
0101
,  // measure 41
1001
0000
0000
0000
0001
0000
1000
0001
0000
0100
0000
0001
1000
0000
0100
0000
,  // measure 42
0010
0000
0010
0000
0010
0000
0100
1000
0000
0001
0000
1000
0100
0000
0010
0000
,  // measure 43
0002
0000
0000
0000
0000
0000
1003
0010
2000
0000
0000
0000
0000
0000
3001
0000
,  // measure 44
0010
0000
0000
1000
0000
0000
0010
0000
0000
0001
0000
0000
1000
0000
0000
0001
0000
0000
1000
0000
0100
0000
0010
0000
,  // measure 45
0002
0000
0000
0000
1003
0000
0010
0000
0020
0000
0000
0000
0000
0000
0130
0010
,  // measure 46
0200
0000
0000
0001
0000
0000
0301
0000
2000
0000
0000
0100
0000
0000
3100
0000
,  // measure 47
1002
0000
1000
0000
1000
0000
1003
0001
,  // measure 48
0100
1000
0100
0001
0010
0100
1000
0000
,  // measure 49
1001
0000
0000
1000
0001
0000
0000
0000
2000
0000
0001
0000
3001
0000
0100
0000
,  // measure 50
0000
0010
0100
0000
0020
0100
0130
0000
,  // measure 51
0001
1000
0001
1000
0010
1000
0010
0200
,  // measure 52
0000
0001
0000
0001
0000
0301
0000
0000
,  // measure 53
1000
0100
0010
0100
1000
0010
0000
0100
,  // measure 54
0100
0001
0010
0001
0100
0001
0000
1000
,  // measure 55
0100
0010
0001
0010
0100
1000
0001
1000
,  // measure 56
0001
0000
0000
0000
0001
0000
0000
0000
1000
0001
1000
0000
1001
0000
0000
0000
,  // measure 57
0110
0000
0000
0100
0010
0000
0000
0000
0200
0000
0001
0000
0301
0000
0110
0000
,  // measure 58
0000
0010
0110
0000
0020
1000
1030
0000
,  // measure 59
0001
0010
1000
0010
0001
1000
0100
0020
,  // measure 60
0000
0001
0000
0031
1000
0010
0100
0000
,  // measure 61
0001
0010
1000
0010
0001
1000
0000
0001
,  // measure 62
1000
0010
0001
0010
1000
0001
1000
0000
,  // measure 63
0001
0000
0100
0000
1000
0100
0001
0000
,  // measure 64
1000
0000
0000
0010
0000
0000
0200
0000
0000
0000
0000
0000
0310
0000
0000
0000
,  // measure 65
1000
0100
0010
0100
1000
0100
0010
0001
,  // measure 66
0100
0010
0100
0001
0100
0010
0100
0002
,  // measure 67
0000
1000
1003
0001
0001
0100
0020
0000
,  // measure 68
0000
1000
0000
0100
0000
1030
0001
0010
,  // measure 69
0100
0000
1000
0000
0001
0000
0100
0001
0000
0100
0001
0000
1000
0010
0000
1000
,  // measure 70
0010
0000
1000
0001
0000
1000
0001
0000
0010
0000
0100
1000
0200
0000
0000
0000
,  // measure 71
0300
0010
0001
0100
1000
0100
0001
2000
,  // measure 72
0000
3010
0100
0001
1000
0100
2200
0000
,  // measure 73
3300
0000
0000
0000
;

//---------------dance-single - ----------------
#NOTES:
     dance-single:
     :
     Beginner:
     3:
     0.120,0.178,0.058,0.000,0.000:
0001
0000
0000
0000
,
1000
0000
0000
0000
,
0010
0000
0000
0000
,
0100
0000
0000
0000
,
0001
0000
0000
0000
,
0010
0000
0000
0000
,
0100
0000
0000
0000
,
1000
0000
0000
0000
,
0001
0000
0000
0000
,
1000
0000
0000
0000
,
0001
0000
0000
0000
,
1000
0000
0000
0000
,
0100
0000
0100
0000
,
0100
0000
0000
0000
,
0010
0000
0010
0000
,
0010
0000
0000
0000
,
0100
0000
0100
0000
,
0100
0000
0000
0000
,
1000
0000
0001
0000
,
0000
0000
0000
0000
,
1001
0000
1000
0000
,
0001
0000
0000
0000
,
1000
0000
0001
0000
,
1000
0000
0000
0000
,
0010
0000
0100
0000
,
0010
0000
0000
0000
,
0100
0000
0010
0000
,
0100
0000
0000
0000
,
1001
0000
1000
0000
,
0001
0000
0000
0000
,
1000
0000
0001
0000
,
1000
0000
0000
0000
,
0100
0000
0010
0000
,
0100
0000
0000
0000
,
0010
0000
0100
0000
,
0010
0000
0000
0000
,
0001
0000
0001
0000
,
0001
0000
0001
0000
,
0001
0000
0001
0000
,
0001
0000
0001
0000
,
1001
0000
0000
0000
,
1000
0000
0000
0000
,
0010
0000
0000
0000
,
0100
0000
0000
0000
,
0001
0000
0000
0000
,
0100
0000
0000
0000
,
0010
0000
0000
0000
,
1000
0000
0000
0000
,
1001
0000
0000
0000
,
0000
0000
0000
0000
,
0000
0000
0000
0000
,
0000
0000
0000
0000
,
0001
0000
0000
0000
,
0000
0000
0000
0000
,
1000
0000
0000
0000
,
0000
0000
0000
0000
,
1001
0000
0001
0000
,
1000
0000
0000
0000
,
0001
0000
1000
0000
,
0001
0000
0000
0000
,
0100
0000
0010
0000
,
0100
0000
0000
0000
,
0010
0000
0100
0000
,
0010
0000
0000
0000
,
1001
0000
1000
0000
,
1000
0000
1000
0000
,
1000
0000
1000
0000
,
1000
0000
1000
0000
,
1001
0000
0001
0000
,
0001
0000
0001
0000
,
0001
0000
0010
0000
,
0100
0000
1000
0001
;
