#TITLE:HEAVEN'S GATE;
#SUBTITLE:;
#ARTIST:NAHJEE & HATA;
#TITLETRANSLIT:;
#SUBTITLETRANSLIT:;
#ARTISTTRANSLIT:;
#CREDIT:DigiMindAxel;
#BANNER:HEAVEN'S GATE.png;
#BACKGROUND:HEAVEN'S GATE-bg.png;
#LYRICSPATH:HEAVEN'S GATE.lrc;
#CDTITLE:KEYBOARDMANIA.png;
#MUSIC:HEAVEN'S GATE.mp3;
#METERTYPE:DDR X;
#OFFSET:-9.430;
#SAMPLESTART:48.914;
#SAMPLELENGTH:12.000;
#SELECTABLE:YES;
#BPMS:0.000=152.000;
#STOPS:;
#BGCHANGES:-24.000=HEAVEN'S GATE.avi=1.000=1=1=0,
209.000=HEAVEN'S GATE-bg.png=1.000=1=0=1,
99999=-nosongbg-=1.000=0=0=0 // don't automatically add -songbackground-
;

//---------------dance-single - ----------------
#NOTES:
     dance-single:
     :
     Easy:
     3:
     0.232,0.243,0.145,0.208,0.000:
0002
0000
2003
0000
,
3002
0000
2003
0000
,
3002
0000
0003
0000
,
2002
0000
0000
3003
,
1001
1000
0001
0000
,
1000
0000
0100
0010
,
0100
0000
1000
0000
,
0001
0100
0001
0100
,
0001
0000
0010
0000
,
0100
1000
0100
0000
,
1000
0000
0001
0000
,
0100
0010
0100
0000
,
0001
0000
1000
0000
,
0100
1000
0100
1000
,
0100
0000
0010
0000
,
0001
1000
0001
0000
,
0200
0000
0300
0000
,
0020
0000
0030
0000
,
2000
0000
3000
0000
,
0002
0000
0003
0000
,
2000
0000
3000
0000
,
0200
0000
0300
0000
,
0020
0000
0030
0000
,
0002
0000
0003
0000
,
2002
0000
0000
3003
,
1000
0100
1000
0000
,
0001
0100
0010
0100
,
0001
0000
1000
0000
,
0100
1000
0010
0100
,
0001
1000
0001
0000
,
0010
0001
0100
0001
,
0010
0000
0001
0000
,
1000
0100
0010
0001
,
1001
0000
1000
0000
,
1001
0000
0001
0000
,
1001
0000
1000
0000
,
1001
0000
0001
0000
,
0200
0000
0000
0000
,
0310
0100
0010
0000
,
1000
0100
0010
0100
,
1000
0001
1000
0000
,
0010
0100
0001
0100
,
0010
0100
0010
0000
,
1000
0001
1000
0100
,
1000
0001
1000
0000
,
0001
0010
0100
1000
,
1001
0000
0001
0000
,
0110
0000
1000
0000
,
0110
0000
0001
0000
,
0110
0000
1000
0000
,
1001
0000
0000
0000
1001
0000
0000
2002
,
0000
0000
0000
0000
,
3003
0000
0000
0000
;

//---------------dance-single - ----------------
#NOTES:
     dance-single:
     :
     Medium:
     8:
     0.426,0.459,0.426,0.083,0.005: // measure 1
1000
0100
1000
0100
,  // measure 2
1000
0001
1000
0001
,  // measure 3
0100
0001
0100
0001
,  // measure 4
2000
0000
0000
0000
0000
0000
3000
0001
,  // measure 5
1001
0101
0101
1010
,  // measure 6
1010
0000
0101
0000
0101
0000
0010
0100
,  // measure 7
0010
0110
0011
0011
,  // measure 8
1100
0000
1100
0000
0100
0010
0100
0000
,  // measure 9
1001
0001
1000
0001
,  // measure 10
0100
0000
0010
0000
1000
0001
1000
0000
,  // measure 11
0100
1000
0001
0100
,  // measure 12
0010
0000
1000
0000
0001
1000
0001
0000
,  // measure 13
0010
0100
0010
0001
,  // measure 14
0100
0000
0010
0000
1000
0001
1000
0000
,  // measure 15
0100
0010
0100
1000
,  // measure 16
0001
1000
0001
0000
0100
0010
0100
0000
,  // measure 17
0001
0100
0001
1000
0000
0000
0000
0000
,  // measure 18
0100
0010
0001
0010
0000
0000
0000
0000
,  // measure 19
0001
1000
0010
1000
0000
0000
0000
0000
,  // measure 20
0100
0010
0001
1000
0100
0000
0000
0000
,  // measure 21
1000
0001
0100
0001
0000
0000
0000
0000
,  // measure 22
0010
0100
1000
0001
0000
0000
0000
0000
,  // measure 23
1000
0100
1000
0000
0010
0100
0010
0000
,  // measure 24
1000
0100
0010
0001
1000
0000
0000
0000
,  // measure 25
2002
0000
0000
3003
,  // measure 26
0001
0100
0010
0100
0001
0000
1000
0000
,  // measure 27
0200
0010
0310
0100
,  // measure 28
1000
0000
0001
0100
0001
0000
1000
0000
,  // measure 29
0100
1000
0010
1000
0100
0000
1000
0000
,  // measure 30
0001
0010
0100
0010
0001
0000
0100
0000
,  // measure 31
0010
1000
0010
0000
1000
0001
1000
0000
,  // measure 32
0100
1000
0001
0100
,  // measure 33
0001
1000
0100
1000
0001
0000
1000
0000
,  // measure 34
1001
1001
0011
0011
,  // measure 35
1100
0000
1100
0000
0100
0010
0100
0000
,  // measure 36
1001
1001
1010
1010
,  // measure 37
0101
0000
0101
0000
0010
0100
0010
0000
,  // measure 38
0220
0000
0000
0330
,  // measure 39
0100
0001
0010
0001
0100
0000
0001
0000
,  // measure 40
1000
0100
1000
0000
0001
0010
0001
0000
,  // measure 41
1000
0100
0010
0001
,  // measure 42
1000
0100
1000
0001
1000
0100
1000
0000
,  // measure 43
0010
1000
0100
1000
0010
0000
1000
0000
,  // measure 44
0001
0100
0001
0000
1000
0010
1000
0000
,  // measure 45
0001
0010
0100
1000
,  // measure 46
0001
0100
0001
1000
0001
0100
0001
0000
,  // measure 47
1001
1001
1100
1100
,  // measure 48
0011
0000
0011
0000
0100
0010
0100
0000
,  // measure 49
0110
1010
1010
0101
,  // measure 50
0101
0000
1001
0000
0001
1000
0100
1000
,  // measure 51
0001
0000
0000
0000
1001
0000
0000
0000
0100
0000
0000
0100
0000
0000
2002
0000
,  // measure 52
0000
0000
0000
0000
,  // measure 53
3003
0000
0000
0000
;

//---------------dance-single - ----------------
#NOTES:
     dance-single:
     :
     Hard:
     11:
     0.585,0.675,0.395,0.135,0.239: // measure 1
1001
0000
0001
0000
0010
0100
0100
0100
,  // measure 2
0010
0000
0001
0000
1000
0010
0010
0010
,  // measure 3
1000
0100
0010
0001
,  // measure 4
2000
0000
0000
0000
0000
3000
0000
1001
,  // measure 5
1001
0000
0000
0000
1010
0000
0000
1010
0000
0000
1000
0000
0001
0000
0000
0011
,  // measure 6
0000
0000
0001
0000
1000
0000
0000
1001
0000
0000
1000
0000
0100
0000
0001
0000
,  // measure 7
0100
0000
0000
0000
1100
0000
0000
1100
0000
0000
1000
0000
0001
0000
0000
0101
,  // measure 8
0000
0000
0001
0000
1000
0000
0000
1001
0000
0000
1000
0000
0100
0000
0001
0000
,  // measure 9
0100
0000
1000
0010
0000
1000
0000
1000
,  // measure 10
0000
0001
0010
0100
1000
0100
0010
0000
,  // measure 11
0001
0000
1000
0100
0000
1000
0000
1000
,  // measure 12
0000
0000
0001
0000
0100
0000
0010
0000
1000
0000
0001
0000
0100
0010
0100
0010
,  // measure 13
0100
0000
0001
1000
0000
0001
0000
0001
,  // measure 14
0000
1000
0010
0100
0001
0100
0010
1000
,  // measure 15
0001
0000
0010
0001
0000
0100
0000
0100
,  // measure 16
0001
0010
0100
1000
0100
0010
0001
0000
,  // measure 17
1001
1000
0010
0100
0000
0100
0010
1000
,  // measure 18
0100
0010
0001
0100
0020
0000
0230
0000
,  // measure 19
0301
0010
0100
0010
0000
0010
0100
0010
,  // measure 20
0001
0100
0010
0000
0120
0000
0230
0000
,  // measure 21
0301
0100
0010
0100
0000
0100
0010
0100
,  // measure 22
0001
1000
0100
0010
0200
0000
0320
0000
,  // measure 23
0031
0000
0010
0000
0100
0000
0010
0000
0001
0000
1000
0001
0000
0000
0001
0000
,  // measure 24
1000
0000
0000
0010
0000
0000
0001
0000
0010
0000
1000
0000
0010
0100
0010
0100
,  // measure 25
0020
0000
0000
0100
0000
0000
0100
0000
0000
0100
0000
0000
0230
0000
0000
0000
,  // measure 26
0301
0100
1000
0100
0001
1000
1000
1000
,  // measure 27
0001
0000
0100
0000
1000
0100
0010
1000
,  // measure 28
0001
0000
0000
0000
0100
0000
0000
0010
1000
0000
0010
0000
1000
0000
0000
0000
,  // measure 29
0100
0000
0010
0000
0001
1000
0001
0000
0010
0000
0100
0000
1000
0001
1000
0000
,  // measure 30
0001
0010
1000
0010
0001
1000
1000
1000
,  // measure 31
0001
0000
0010
0000
1000
0010
0100
1000
,  // measure 32
0001
0000
0000
0000
0100
0000
0000
0010
0100
0000
0010
0000
0100
0000
0000
0000
,  // measure 33
0001
0000
0010
0000
0001
1000
0001
0000
1000
0000
0100
0000
1000
0001
1000
0000
,  // measure 34
1001
0000
0000
0000
1100
0000
0000
1100
0000
0000
1000
0000
0010
0000
0000
0110
,  // measure 35
0000
0000
0100
0000
0001
0000
0000
0101
0000
0000
0100
0000
0110
0000
0100
0000
,  // measure 36
1001
0000
0000
0000
0011
0000
0000
0011
0000
0000
0001
0000
0100
0000
0000
0110
,  // measure 37
0000
0000
0010
0000
1000
0000
0000
1010
0000
0000
0010
0000
0110
0000
0010
0000
,  // measure 38
1002
0000
0000
1000
0000
0000
1000
0000
0000
1000
0000
0000
2003
0000
0000
0000
,  // measure 39
3001
0010
1000
0010
0001
1000
1000
1000
,  // measure 40
0001
0000
0010
0000
0100
0001
0100
1000
,  // measure 41
0001
0000
0000
0000
0100
0000
0000
0010
1000
0000
0001
0000
1000
0000
0001
0000
,  // measure 42
0100
0000
0010
0000
1000
0001
1000
0000
0100
0000
0010
0000
0001
1000
0001
0000
,  // measure 43
1000
0010
0001
0010
1000
0001
0001
0001
,  // measure 44
1000
0000
0010
0000
0100
1000
0100
0001
,  // measure 45
1000
0000
0000
0000
0100
0000
0000
0010
0001
0000
1000
0000
0001
0000
1000
0000
,  // measure 46
0001
0000
0100
0000
0001
1000
0001
0000
1000
0000
0010
0000
1000
0001
1000
0000
,  // measure 47
1001
0000
0000
0000
1100
0000
0000
0100
1000
0000
0100
0000
0110
0000
0000
0010
,  // measure 48
0100
0000
0010
0000
0011
0000
0000
0010
0001
0000
0010
0000
0011
0000
0001
0000
,  // measure 49
1001
0000
0000
0000
0101
0000
0000
0100
0001
0000
0100
0000
0110
0000
0000
0010
,  // measure 50
0100
0000
0001
1000
0001
1000
0001
0000
1000
0100
1000
0100
0010
0001
0010
0001
,  // measure 51
1000
0000
0000
0000
1001
0000
0000
0000
0101
0000
0000
1010
0000
0000
2002
0000
,  // measure 52
0000
0000
0000
0000
,  // measure 53
3003
0000
0000
0000
;

//---------------dance-single - ----------------
#NOTES:
     dance-single:
     :
     Beginner:
     1:
     0.095,0.130,0.104,0.000,0.000:
1000
0000
0000
0000
,
0100
0000
0000
0000
,
0010
0000
0000
0000
,
0001
0000
0000
0000
,
1001
0000
0000
0000
,
0000
0000
0000
0000
,
0100
0000
0000
0000
,
0000
0000
0000
0000
,
0110
0000
0000
0000
,
0000
0000
0000
0000
,
0010
0000
0000
0000
,
0000
0000
0000
0000
,
1001
0000
0000
0000
,
1000
0000
0000
0000
,
0001
0000
0000
0000
,
1000
0000
0000
0000
,
0110
0000
0000
0000
,
0010
0000
0000
0000
,
0100
0000
0000
0000
,
0010
0000
0000
0000
,
1001
0000
0000
0000
,
0001
0000
0000
0000
,
1000
0000
0000
0000
,
0001
0000
0000
0000
,
1000
0000
0000
0000
,
1001
0000
0100
0000
,
0010
0000
0000
0000
,
0001
0000
0100
0000
,
0010
0000
0000
0000
,
1000
0000
0010
0000
,
0100
0000
0000
0000
,
0001
0000
0010
0000
,
0100
0000
0000
0000
,
1001
0000
1000
0000
,
0001
0000
0000
0000
,
1001
0000
0001
0000
,
1000
0000
0000
0000
,
0010
0000
0000
0000
,
0110
0000
0000
0000
,
0100
0000
0000
0000
,
0010
0000
0000
0000
,
1000
0000
0000
0000
,
0001
0000
0000
0000
,
1000
0000
0000
0000
,
0100
0000
0000
0000
,
0010
0000
0100
0000
,
0010
0000
0000
0000
,
0100
0000
0000
0000
,
0001
0000
0000
0000
,
1000
0000
0000
0000
,
1001
0000
0000
0000
;
