#TITLE:HAELEQUIN;
#SUBTITLE:;
#ARTIST:orangentle / Yu_Asahina;
#TITLETRANSLIT:;
#SUBTITLETRANSLIT:;
#ARTISTTRANSLIT:orangentle / Yu_Asahina;
#CREDIT:DigiMindAxel;
#BANNER:HAELEQUIN.png;
#BACKGROUND:HAELEQUIN-bg.png;
#LYRICSPATH:;
#CDTITLE:SOUND VOLTEX.png;
#MUSIC:HAELEQUIN.mp3;
#METERTYPE:DDR X;
#OFFSET:-8.485;
#SAMPLESTART:78.224;
#SAMPLELENGTH:12.000;
#SELECTABLE:YES;
#BPMS:0.000=172.000;
#STOPS:;
#BGCHANGES:;

//---------------dance-single - ----------------
#NOTES:
     dance-single:
     :
     Easy:
     6:
     0.280,0.315,0.156,0.239,0.000:
2000
0100
0000
3100
,
0020
0001
0000
0031
,
2000
0001
0000
3001
,
0000
2002
0000
0000
,
0000
0000
0000
3003
,
1000
0000
0100
0000
,
1000
0000
0100
0000
,
0120
0000
0000
0000
,
0130
0000
0000
0000
,
1002
0000
0000
0000
,
1003
0000
0000
0000
,
0110
0000
0000
0000
,
0110
0000
0000
0000
,
1001
0000
0000
0000
,
0000
1001
0000
0000
,
0001
1000
0001
0000
,
0010
0001
0010
0000
,
1001
0000
1001
0000
,
2000
0000
3001
0000
,
1000
0010
1000
0000
,
0001
1000
0001
0000
,
0000
0110
0000
0110
,
0000
0100
0010
0100
,
0002
0000
0000
0000
,
0023
0000
0000
0000
,
0230
0000
0000
0000
,
1300
0001
1000
0000
,
0100
1000
0100
1000
,
0010
0100
0010
0000
,
1000
0001
1000
0001
,
0200
0000
0302
0000
,
2003
0000
3010
0100
,
0010
0000
0010
0000
,
0010
0000
0010
0000
,
0110
0000
0100
0000
,
0100
0000
0100
0000
,
1001
0000
0001
0000
,
0001
0000
0001
0000
,
1001
0000
1000
0000
,
0001
0000
1000
0000
,
0100
1000
0100
1000
,
0001
0100
0001
0000
,
0100
0001
0100
0001
,
1000
0100
1000
0000
,
0010
0100
0010
0100
,
0001
1000
0001
1000
,
0100
0010
0100
0010
,
0100
0010
0100
0010
,
0200
0000
0000
0000
,
0000
0300
0000
0000
,
1001
0100
0010
0001
,
1000
0100
0010
0001
,
2000
0000
3002
0000
,
1003
0010
0100
0001
,
1000
0010
0100
0001
,
0010
0100
0010
0100
,
2000
0000
3002
0000
,
2003
0000
3002
0000
,
1003
0100
1000
0100
,
1000
0001
1000
0001
,
0100
0001
0100
0001
,
0010
0100
1000
0100
,
0220
0000
0000
0330
,
2002
0000
0000
3003
,
0010
0100
0010
0100
,
0001
1000
0001
1000
,
0100
0010
0100
0010
,
0001
1000
0001
1000
,
0100
0010
0001
0010
,
0100
1000
0100
0010
,
0001
0001
1000
1000
,
0001
0001
0100
0010
,
0000
0220
0000
0000
,
0000
0000
0000
0000
,
0000
0000
0000
0330
,
2002
0000
0000
0000
,
0000
0000
3003
0000
;

//---------------dance-single - ----------------
#NOTES:
     dance-single:
     :
     Medium:
     9:
     0.455,0.504,0.304,0.436,0.000:
0001
0010
0100
1000
,
0100
0010
0001
1000
,
0010
0100
0001
0100
,
0010
0220
0000
0000
,
0000
0000
0000
0330
,
0001
0001
1000
1000
,
0001
0001
1000
1000
,
1001
0000
0000
1001
0000
0001
0000
0000
,
1000
0000
0000
0001
0000
0000
0000
0000
,
0110
0000
0000
0110
0000
0000
0100
0000
,
0010
0000
0000
0100
0000
0000
0000
0000
,
1001
0000
0000
1001
0000
0000
0000
0000
,
1100
0000
0000
1100
0000
0000
0000
0000
,
0011
0000
0001
1000
,
0001
2002
0000
3003
,
1000
0100
1000
0000
0100
1000
0001
1000
,
0001
0010
0100
0010
,
0202
0303
2020
3030
,
2002
3003
2002
3003
,
0001
0101
0100
0010
,
1000
0100
1000
0000
0100
1000
0001
0000
,
0000
0100
0101
0000
0000
0010
1010
0000
,
0010
0100
0010
0100
0010
0100
0010
0000
,
2000
0000
3200
0000
,
0320
0000
0032
0000
,
2003
0000
3200
0000
,
0310
0011
0011
0011
,
0001
1000
0001
1000
0010
0000
0100
0000
,
0001
0010
0001
0010
0100
0000
1000
0000
,
0200
0010
0010
0310
,
0202
0303
2020
3030
,
2002
3003
1000
0001
,
2000
0000
0000
3002
0000
0000
0103
0000
,
0010
0100
0010
0100
,
0002
0000
0000
2003
0000
0000
3100
0000
,
0010
0100
0010
0100
,
2000
0000
0000
3002
0000
0000
0013
0000
,
0100
0010
0100
0010
,
2002
0000
0000
3003
,
0220
0000
0000
0330
,
1000
0000
0001
1000
0000
0000
0001
0100
,
0001
0000
1000
0010
1000
0000
0001
0000
,
1000
0000
0001
1000
0000
0000
0001
0010
,
0001
0000
1000
0100
1000
0000
0001
0000
,
0200
0000
0010
0000
0310
0000
1000
0001
,
2000
0000
0001
0000
3001
0000
1000
0001
,
0000
0010
0100
1000
,
0100
0000
0010
0001
1000
0001
1000
0001
,
0020
0000
0000
0000
,
0000
0130
0100
0100
,
1001
0000
0010
0000
0100
1000
0001
1000
,
0100
0000
0010
0001
0010
0100
1000
0001
,
1000
0000
0001
0000
1000
0001
0100
0001
,
1000
0000
0100
0000
1000
0001
1000
0001
,
1000
0000
0100
0000
0010
0001
0010
0000
,
0100
0000
0010
0100
1000
0100
1000
0001
,
0100
1001
1000
1001
,
0001
1001
1000
1001
,
0001
0000
0010
0001
0100
0001
0010
0000
,
0001
0011
0010
0110
,
0100
1000
0010
1000
0100
0000
1000
0000
,
0100
0010
0001
0010
0100
0000
1000
0000
,
2200
0000
0000
3300
,
0202
0000
0000
0303
,
0002
0000
1003
0010
1000
0000
0100
0010
,
0100
0000
1000
0001
1000
0000
0002
0000
,
0023
0000
0031
1000
0001
0000
1000
0010
,
2000
3200
0320
0032
,
0103
0010
0100
0010
0100
0010
0100
0000
,
0001
1000
0001
1000
0001
1000
0001
0000
,
0010
0001
0010
0001
1000
0010
1000
0010
,
1000
0001
1000
0001
0010
0100
0010
0100
,
0000
2020
0000
0000
,
0000
0000
0000
0000
,
0000
0000
0000
3030
,
2002
0000
0000
0000
,
0000
0000
3003
0000
;

//---------------dance-single - ----------------
#NOTES:
     dance-single:
     :
     Hard:
     13:
     0.625,0.661,0.354,0.346,0.247:
1100
0100
1000
0100
,
0011
0001
0010
0001
,
0110
0100
0010
1000
,
0010
0120
0100
0100
,
0100
0000
0100
0000
0130
0001
0010
0100
,
1000
0010
0100
0000
0001
0010
0100
0000
,
1000
0000
0010
0000
0100
0000
0000
0000
0001
0000
0010
0000
0100
0000
1000
0001
,
2000
0000
0000
0000
3000
0000
0100
1000
0100
0000
1000
0000
0001
0000
0010
0000
,
0100
0000
0000
0010
0000
0000
0200
0000
0000
0000
0000
0000
0300
0000
1000
0001
,
2000
0000
0000
0000
0000
0000
3001
0010
0001
0000
1000
0000
0100
0000
0010
0000
,
0200
0000
0000
1000
0000
1300
0001
0010
,
0110
0000
0000
0100
0000
0000
0202
0000
0000
0000
0303
0000
0001
0000
0010
0000
,
0100
0000
1000
0000
0100
0000
0220
0000
0000
0000
0330
0000
0000
0000
1000
0001
,
2000
0000
0000
0000
0000
0000
3100
0000
1000
0000
0000
0010
0000
0000
0100
0000
,
0001
0000
0000
0000
2002
0000
0000
0000
0000
0000
3003
0000
0000
0000
0001
1000
,
0001
0000
1000
0000
0001
0000
0010
0001
0010
0000
0100
0000
1000
0000
0001
0000
,
0100
0000
0000
0001
0000
0000
1000
0000
0100
0000
0010
0000
0100
0000
1000
0000
,
0010
0000
0000
0010
0000
0000
0010
0000
0100
0000
0000
0100
0000
0000
0100
0000
,
2002
3000
2000
3003
,
1001
0000
1100
0000
1000
0100
0001
0100
,
1000
0000
0000
0010
0000
0000
0110
0000
0000
0000
0100
0000
0010
0000
0001
0000
,
0010
0000
0000
0100
0000
0000
1000
0000
0001
0000
0000
0010
0000
0000
0100
0000
,
0001
0000
1000
0000
0100
0000
0010
0000
0100
0000
1000
0000
0001
1000
0001
1000
,
0002
0010
0023
0100
,
0230
1000
2300
0001
,
3002
0000
1000
0000
1003
0001
0010
0100
,
1000
1001
0110
1001
,
1000
0000
0000
1000
0100
0000
0000
0100
0010
0000
0000
0010
0100
0000
0000
0100
,
1000
0000
0000
1000
0001
0000
0000
0001
0100
0000
0000
0100
0010
0000
0000
0000
,
1000
0100
0001
0100
1000
0100
0001
0100
,
2000
3100
0020
0031
,
1002
0000
0000
0000
1003
0000
0001
1000
,
1010
0000
0000
0201
0000
0301
0010
0100
,
1000
0000
0100
0000
0010
0000
0001
0000
0100
0001
0000
1000
0000
0000
0001
0000
,
0011
0000
0000
1200
0000
1300
0010
0100
,
0001
0000
0100
0000
0010
0000
1000
0000
0100
1000
0000
0001
0000
0000
0100
0000
,
0110
0000
0000
1002
0000
1003
0001
0100
,
1000
0000
0100
0000
0001
0000
0010
0000
0100
1000
0000
0001
0000
0000
1000
0000
,
2020
0000
0000
0000
0000
0000
0000
0000
0000
0000
3030
0000
0000
0000
0001
0100
,
0002
1000
1000
1003
,
1001
0000
1000
1100
0000
1000
0001
0010
,
1000
0000
0010
0000
0001
0000
1000
0000
0010
1000
0000
0001
0000
0000
1000
0000
,
1001
0000
0001
0011
0000
0001
1000
0100
,
0001
0000
0100
0000
1000
0000
0001
0000
0100
0001
0000
1000
0000
0000
0010
0000
,
0120
0000
0130
0010
0001
0010
0100
1000
,
0020
0000
0130
0001
0100
0010
1000
1002
,
0000
0000
1003
0001
0010
0001
1000
0010
,
1000
0000
0001
0000
0010
0000
0100
0000
1000
0000
0100
0000
0010
0000
0001
1000
,
0002
0000
0000
0000
,
0000
1003
0001
1000
,
0001
0100
1000
0100
0001
0010
1000
0010
,
0001
0000
0000
1000
0001
0000
0001
0000
1000
0000
1000
0000
0100
0000
0100
0000
,
0110
0000
1000
0100
0001
0100
1000
0001
,
0100
0000
0100
0001
0010
0100
1000
0001
,
1000
0100
0001
0100
1000
0010
0001
0010
,
1000
0000
0000
0000
0001
1000
0001
1000
0001
0000
0010
0000
0100
0000
1000
0000
,
0001
0100
0101
0000
1000
0010
1010
0000
,
0001
0000
1000
0000
1001
0000
0000
0000
1000
0001
1000
0001
1000
0001
1000
0001
,
1000
0000
0000
1000
0010
0000
0100
0000
0010
0000
1000
0000
0100
0000
0010
0000
,
0001
0000
0000
0001
0100
0000
0000
0100
0010
0000
0000
0010
1000
0000
0000
0000
,
1001
0000
0000
0001
0100
0000
0010
0000
0100
0000
0000
0001
1000
0000
0100
0000
,
1000
0000
0000
0001
1000
0000
0100
0000
0010
0000
0000
0000
0001
0000
0100
0000
,
0202
0000
0000
0000
0000
0300
0000
1000
,
2000
0000
0000
0000
0003
0000
0000
0001
0000
0000
3001
0000
0000
1000
0001
0000
,
1001
0000
1000
0100
0010
0000
1000
0010
,
0001
0010
0100
1000
0001
0100
0010
0000
,
1001
0000
0001
0010
0100
0000
0001
0100
,
1000
0100
0010
0001
0010
0100
1000
0001
,
0010
0000
0000
0000
0100
0010
0000
0000
0101
0000
0000
0001
0000
0000
1001
0000
,
0000
1000
0000
0000
1100
0000
0000
0100
0000
0000
0220
0000
0000
0000
0330
0000
,
0001
1000
0001
0100
1000
0100
0001
1000
,
0001
0000
0010
0000
1000
0000
0010
0000
0001
1000
0001
1000
0010
0100
0010
0000
,
0000
0202
0000
0000
,
0000
0000
0000
0000
,
0000
0000
0000
0303
,
2002
0000
0000
0000
,
0000
0000
3003
0000
;

//---------------dance-single - ----------------
#NOTES:
     dance-single:
     :
     Challenge:
     17:
     0.886,0.976,0.354,0.321,0.848: // measure 1
1000
0100
1000
0001
1000
0100
1000
0000
,  // measure 2
0001
0010
0001
1000
0001
0010
0001
0000
,  // measure 3
1000
0010
1000
0001
1000
0010
1000
0000
,  // measure 4
0001
1002
0100
0010
,  // measure 5
0100
1000
0100
0013
,  // measure 6
0001
1000
0100
0010
0001
1000
0100
0010
,  // measure 7
0001
1000
0000
0000
0100
1000
0000
0000
0010
0100
0000
0000
0001
0000
1000
0010
,  // measure 8
0200
0000
0000
0000
0310
0000
1000
0100
0010
0000
0100
0000
1000
0000
0001
0000
,  // measure 9
0101
0000
0000
0110
0000
0000
0101
0000
0000
0000
0001
1000
0001
0000
1000
0100
,  // measure 10
0020
0000
0000
0000
0130
0000
1000
0010
0100
0000
0010
0000
1000
0000
0001
0000
,  // measure 11
0200
0000
0000
0000
0000
0000
0310
0000
0000
0000
1000
0001
1000
0000
0100
0000
,  // measure 12
1100
0000
0000
0110
0000
0000
0202
0000
0000
0000
0303
0000
0001
0000
0100
0000
,  // measure 13
1000
0000
0100
0000
0001
0000
2002
0000
0000
0000
3003
0000
0001
0000
1000
0010
,  // measure 14
2000
0000
0000
0000
3001
0000
1000
0000
0200
0000
0000
0010
0000
0000
0310
0001
,  // measure 15
0010
0000
0000
0000
2002
0000
0000
0000
3003
0000
1000
0001
1000
0000
0001
0100
,  // measure 16
0010
0000
0100
0000
0001
0000
0010
0001
1000
0000
0100
0000
0010
0000
0100
0000
,  // measure 17
1000
0000
0000
1000
0001
0000
0100
0000
0001
0100
0001
0000
1000
0100
1000
0000
,  // measure 18
1002
0000
0000
0010
0000
0000
0013
0000
0210
0000
0000
0010
0000
0000
0310
0000
,  // measure 19
2200
0000
0000
0000
3300
0000
0001
1000
0001
0000
1000
0100
1000
0100
1000
0100
,  // measure 20
1000
0000
1001
1000
0001
0100
1000
0100
,  // measure 21
0002
0000
0000
1000
0000
0000
1003
0000
0001
0000
0100
0001
0100
0001
0100
0001
,  // measure 22
1000
0000
0000
1000
0100
0000
0010
0000
0100
0000
0000
1000
0001
0000
0100
0000
,  // measure 23
0001
1000
0001
1000
0010
1000
0010
1000
0001
1000
0001
1000
0100
1000
0100
0010
,  // measure 24
0002
0000
0000
0000
0103
0010
0100
0010
0100
0000
0001
1000
0001
1000
0001
1000
,  // measure 25
0010
0000
0100
0001
0100
0001
0100
0001
1000
0000
0100
1000
0100
1000
0100
1000
,  // measure 26
0001
0000
0100
0010
0100
0010
0100
0010
1000
0000
0100
0000
0010
0000
0001
0000
,  // measure 27
1001
0000
0000
0000
1100
0000
0000
0000
0011
0000
0000
0000
1001
0000
1000
0100
,  // measure 28
1000
0100
1000
0100
1000
0001
1000
0001
1000
0100
1000
0100
0010
0001
0010
0000
,  // measure 29
0001
0100
0001
0100
0010
1000
0010
1000
0001
1000
0001
0010
0100
0000
0000
0000
,  // measure 30
1000
0001
1000
0001
0100
0001
0100
0001
1000
0010
1000
0010
1000
0001
1000
0001
,  // measure 31
2000
0000
0000
3010
1000
0000
0100
0010
0200
0000
0000
0000
1300
0001
1000
0001
,  // measure 32
0010
0000
0001
0010
0001
0000
0100
0010
2000
0000
0000
3100
0010
0001
0010
0000
,  // measure 33
0012
0000
0000
2003
0000
3001
0100
1000
,  // measure 34
0100
0000
0001
0000
0010
0000
0100
0000
1000
0001
0000
0100
0000
0000
0101
0000
,  // measure 35
2001
0000
0000
0000
0000
0000
3002
0000
0000
0000
1003
0000
0100
0000
0001
1000
,  // measure 36
0001
0000
0100
0000
1000
0000
0001
0000
1000
0001
0000
0010
0000
0000
0011
0000
,  // measure 37
1002
0000
0000
2003
0000
3001
0100
1000
,  // measure 38
0100
0000
0001
0000
0010
0000
0100
0000
1000
0001
0000
0100
0000
0000
0101
0000
,  // measure 39
2002
0000
0000
0000
0000
0000
0000
0000
0000
0000
3003
0000
0000
0000
0010
0100
,  // measure 40
0010
0000
0000
1000
0001
0000
1000
0001
1000
0001
1000
0001
1000
0001
1000
0001
,  // measure 41
2000
0000
3010
0110
0000
1000
0100
0010
,  // measure 42
1000
0000
0010
0000
0001
0000
1000
0000
0100
1000
0000
0001
0000
0000
0101
0000
,  // measure 43
1002
0000
0103
0110
0000
0001
0100
0010
,  // measure 44
0001
0000
0010
0000
1000
0000
0001
0000
0010
0001
0000
1000
0000
0000
1010
0000
,  // measure 45
2001
0000
0000
0000
3001
0000
1000
0100
1000
0100
0010
0001
0010
0001
1000
0000
,  // measure 46
0002
0000
0000
0000
1003
0000
0001
0100
0001
0100
0010
1000
0010
1000
0001
0000
,  // measure 47
0001
1000
1000
0100
0100
0010
0010
0001
,  // measure 48
0001
0000
1000
0000
0010
0000
0100
0000
0001
0000
0100
0000
0010
0000
1000
0001
,  // measure 49
0100
0010
0100
0010
0100
0010
0100
0010
0100
0010
0100
0010
0100
0010
0100
0010
,  // measure 50
0100
0010
0100
0010
0100
0000
0000
0000
0110
0000
0000
0000
1001
0000
0000
0000
,  // measure 51
0001
1000
0100
0010
0001
1000
0010
1000
0001
0010
0100
1000
0001
0010
0100
1000
,  // measure 52
0001
0000
0000
0100
0001
0000
0001
0000
1000
0000
1000
0000
0010
0000
0010
0000
,  // measure 53
0110
0000
0000
0000
0100
0001
0010
0001
0100
0000
0001
0000
0010
0000
0100
1000
,  // measure 54
0010
0100
0010
0100
0010
0000
1000
0000
1000
0000
0001
0100
0001
0000
1000
0000
,  // measure 55
0100
0010
0100
0010
0001
1000
0010
1000
0001
0000
0010
0000
0100
0000
1000
0000
,  // measure 56
1100
0000
0000
1000
0001
0010
0100
1000
0001
0000
0100
0000
0001
1000
0001
1000
,  // measure 57
0100
0010
0001
0010
0100
1000
0100
0000
0010
0100
1000
0100
0010
0001
0010
0000
,  // measure 58
0001
1000
0010
0100
0001
0100
0010
0000
1000
0001
1000
0001
1000
0001
1000
0001
,  // measure 59
1000
0000
0000
0001
1000
0010
0100
0010
1000
0100
0010
0001
1000
0100
0010
0001
,  // measure 60
1000
0000
0100
1000
0100
0000
0010
0100
0010
0000
0001
0010
0001
0000
1000
0001
,  // measure 61
1000
0100
0010
0100
1000
0010
0100
0000
0001
0100
0010
0100
0001
0010
0100
0000
,  // measure 62
1000
0001
0100
0001
1000
0100
0010
0001
1000
0000
0000
0000
0001
1000
0010
0100
,  // measure 63
0002
0000
0000
0000
0000
0000
0003
1000
,  // measure 64
2001
0000
0000
0000
0000
0000
0000
0001
0000
0000
3001
0000
0000
1000
0001
1000
,  // measure 65
0001
0100
0001
1000
0010
1000
0001
0010
,  // measure 66
0100
1000
0100
0001
0100
1000
0001
0001
,  // measure 67
1000
0100
1000
0001
0010
0001
1000
0010
,  // measure 68
0100
0001
0100
1000
0100
0001
1000
0010
,  // measure 69
0110
0000
0000
0000
1000
0010
0000
0000
0110
0000
0000
0110
0000
0000
0010
0100
,  // measure 70
0001
0010
0000
0000
0011
0000
0000
1100
0000
0000
0110
0000
0010
0100
0010
1000
,  // measure 71
0100
1000
0100
1000
0001
0010
0001
0010
0001
1000
0001
1000
0010
1000
0010
1000
,  // measure 72
0001
0100
0001
0100
0001
0010
0100
1000
0100
0010
0001
1000
0010
1000
0001
0000
,  // measure 73
0000
0220
0000
0000
,  // measure 74
0000
0000
0000
0000
,  // measure 75
0000
0000
0000
0330
,  // measure 76
2002
0000
0000
0000
,  // measure 77
0000
0000
3003
0000
;

//---------------dance-single - ----------------
#NOTES:
     dance-single:
     :
     Beginner:
     3:
     0.152,0.216,0.132,0.016,0.000:
0001
0000
0000
0000
,
1000
0000
0000
0000
,
0001
0000
0000
0000
,
0000
0110
0000
0000
,
0000
0000
0000
0000
,
0010
0000
0000
0000
,
0010
0000
0000
0000
,
0110
0000
0000
0000
,
1000
0000
0000
0000
,
0001
0000
0000
0000
,
1000
0000
0000
0000
,
0110
0000
0000
0000
,
0010
0000
0000
0000
,
0100
0000
0001
0000
,
0000
0110
0000
0000
,
0001
0000
1000
0000
,
0100
0000
1000
0000
,
0001
0000
0001
0000
,
1001
0000
0000
0000
,
1000
0000
0001
0000
,
0010
0000
0001
0000
,
1000
0000
1000
0000
,
1000
0000
0000
0000
,
1001
0000
0000
0000
,
0100
0000
0000
0000
,
0010
0000
0000
0000
,
0001
0000
1000
0000
,
0001
0000
0010
0000
,
0100
0000
1000
0000
,
1001
0000
0000
0000
,
0100
0000
0100
0000
,
0110
0000
0010
0000
,
0100
0000
0000
0000
,
0000
0000
0001
0000
,
1001
0000
0000
0000
,
0000
0000
1000
0000
,
1001
0000
0000
0000
,
0000
0000
0001
0000
,
2000
0000
0000
0000
,
3002
0000
0000
0000
,
1003
0000
0100
0000
,
1000
0000
0100
0000
,
0010
0000
0001
0000
,
0010
0000
0001
0000
,
1000
0000
0010
0000
,
1000
0000
0001
0000
,
0100
0000
0001
0000
,
0100
0000
0001
0000
,
1000
0000
0000
0000
,
0000
0000
0000
0000
,
1001
0000
0001
0000
,
1000
0000
0100
0000
,
0010
0000
0100
0000
,
1000
0000
1000
0000
,
0001
0000
0100
0000
,
0010
0000
0100
0000
,
0000
1001
0000
1001
,
0000
1001
0000
0000
,
1000
0000
0100
0000
,
1000
0000
0010
0000
,
0100
0000
0001
0000
,
0100
0000
0001
0000
,
0010
0000
0000
0000
,
0010
0000
0000
0000
,
0110
0000
0100
0000
,
0010
0000
0100
0000
,
0001
0000
1000
0000
,
0001
0000
1000
0000
,
0100
0000
0100
0000
,
0010
0000
0010
0000
,
0001
0000
1000
0000
,
0001
0000
1000
0000
,
0000
1001
0000
0000
,
0000
0000
0000
0000
,
0000
0000
0000
0000
,
0001
0000
0000
0000
;
