#TITLE:Grapes;
#SUBTITLE:;
#ARTIST:肥塚良彦;
#TITLETRANSLIT:;
#SUBTITLETRANSLIT:;
#ARTISTTRANSLIT:YOSHIHIKO KOEZUKA;
#CREDIT:DigiMindAxel;
#BANNER:Grapes.png;
#BACKGROUND:Grapes-bg.png;
#LYRICSPATH:;
#CDTITLE:GITADORA.png;
#MUSIC:Grapes.mp3;
#METERTYPE:DDR X;
#OFFSET:-8.405;
#SAMPLESTART:8.460;
#SAMPLELENGTH:12.000;
#SELECTABLE:YES;
#BPMS:0.000=240.000;
#STOPS:;
#BGCHANGES:;

//---------------dance-single - ----------------
#NOTES:
     dance-single:
     :
     Easy:
     4:
     0.203,0.265,0.110,0.253,0.000:
1001
0000
0000
0000
,
0000
0000
0000
0000
,
2000
0000
0002
0000
,
3003
0000
0000
0000
,
0010
0000
0010
0000
,
0100
0000
0100
0000
,
0010
0000
0010
0000
,
0100
0000
0000
0000
,
1001
0000
0000
0000
,
0000
0000
0000
0000
,
0002
0000
2000
0000
,
3003
0000
0000
0000
,
0100
0000
0100
0000
,
0010
0000
0010
0000
,
1000
0000
0000
0000
,
0000
0000
0000
0000
,
0002
0000
0000
0000
,
0023
0000
0030
0000
,
0002
0000
0000
0000
,
0023
0000
0030
0000
,
0200
0000
0000
0000
,
2300
0000
3000
0000
,
0200
0000
0000
0000
,
2300
0000
3000
0000
,
2002
0000
0000
0000
,
3003
0000
0000
0000
,
0001
0000
0000
0000
,
1000
0000
0000
0000
,
0100
0000
0000
0000
,
0010
0000
0000
0000
,
0100
0000
0000
0000
,
0010
0000
0000
0000
,
0001
0000
0000
0000
,
0100
0000
0000
0000
,
0110
0000
0000
0000
,
0110
0000
0000
0000
,
1001
0000
0000
0000
,
0000
0000
0000
0000
,
2000
0000
0002
0000
,
3003
0000
0000
0000
,
0001
0000
1000
0000
,
0001
0000
0000
0000
,
0010
0000
0001
0000
,
0010
0000
0000
0000
,
1001
0000
0000
0000
,
0000
0000
0000
0000
,
0002
0000
2000
0000
,
3003
0000
0000
0000
,
0010
0000
0010
0000
,
0100
0000
0100
0000
,
0001
0000
0000
0000
,
0000
0000
0000
0000
,
0010
0000
0100
0000
,
0010
0000
0100
0000
,
1000
0000
0001
0000
,
1000
0000
0001
0000
,
0100
0000
0010
0000
,
0100
0000
0010
0000
,
1000
0000
1000
0000
,
0100
0000
0100
0000
,
2002
0000
0000
0000
,
3003
0000
0000
0000
,
0010
0000
0100
0000
,
0001
0000
0001
0000
,
0010
0000
0100
0000
,
1000
0000
1000
0000
,
0100
0000
0010
0000
,
0001
0000
0001
0000
,
0100
0000
0010
0000
,
1000
0000
1000
0000
,
1001
0000
0010
0000
,
1001
0000
0000
0000
,
0200
0000
0000
0000
,
0000
0000
0000
0000
,
0320
0000
0000
0000
,
0000
0000
0000
0000
,
0230
0000
0000
0000
,
0000
0000
0000
0000
,
0320
0000
0000
0000
,
0000
0000
0000
0000
,
0130
0000
0001
0000
,
0100
0000
0001
0000
,
1000
0000
0100
0000
,
1000
0000
0100
0000
,
0010
0000
0010
0000
,
0010
0000
0000
0000
,
1001
0000
0000
0000
,
0000
0000
0000
0000
,
0002
0000
2000
0000
,
3003
0000
0000
0000
,
0001
0000
1000
0000
,
0100
0000
1000
0000
,
0001
0000
0010
0000
,
0100
0000
1000
0000
,
1001
0000
0000
0000
,
0000
0000
0000
0000
,
2000
0000
0002
0000
,
3003
0000
0000
0000
,
1000
0000
0001
0000
,
0010
0000
0001
0000
,
1000
0000
0000
0000
,
0000
0000
0000
2002
,
0000
0000
0000
0000
,
0000
0000
0000
0000
,
0000
0000
0000
3003
;

//---------------dance-single - ----------------
#NOTES:
     dance-single:
     :
     Medium:
     10:
     0.459,0.619,0.380,0.220,0.401:
1002
0000
0000
0000
,
1003
1000
0001
0001
,
1001
0000
0000
0000
0000
0000
1100
0000
0000
0000
0000
1100
,
0000
0000
0000
1000
,
0001
0010
0100
0000
,
0010
0000
0001
0001
,
1000
0100
0010
0001
,
1000
0000
0001
1000
,
2002
0000
0000
0000
0000
0000
0000
0000
3003
0000
0000
2002
,
0000
0000
0000
3003
,
1001
0000
0000
0000
0000
0000
0011
0000
0000
0000
0000
0011
,
0000
0000
0000
0001
,
1000
0100
0010
0000
,
0100
1000
0010
0100
,
0002
1000
0000
1000
,
0000
1003
0001
1000
,
0001
0000
0000
0000
0000
0100
0001
0000
0000
0000
0000
0100
,
0001
0000
0000
0000
0000
0100
0001
0000
0000
0000
0000
0000
,
1000
0000
0000
0000
0000
0100
1000
0000
0000
0000
0000
0100
,
1000
0000
0000
0000
0000
0100
1000
0000
0000
0000
0000
0000
,
0010
0000
0000
0000
0000
0100
0010
0000
0000
0000
0000
0100
,
0010
0000
0000
0000
0000
0100
0010
0000
0000
0000
0000
0000
,
1000
0000
0000
0000
0000
0001
1000
0000
0000
0000
0000
0001
,
1000
0000
0000
0000
0000
0001
1000
0000
0000
0000
0000
0000
,
1001
0000
0000
0000
0000
1000
0000
0000
0001
0000
0000
0100
,
0000
0000
0110
0000
0000
0000
0000
0000
0000
0000
0000
0000
,
0100
0000
0000
0000
0000
0001
0100
0000
0000
0000
0000
0001
,
1000
0000
0000
0000
0000
0001
0100
0000
0000
0000
0000
0000
,
0010
0000
0000
0000
0000
1000
0001
0000
0000
0000
0000
1000
,
0100
0000
0000
0000
0000
1000
0001
0000
0000
0000
0000
0000
,
0010
0000
0000
0000
0000
0001
1000
0000
0000
0000
0000
0000
,
2200
0000
0000
0000
0000
0000
3300
0000
1000
0001
0000
0000
,
0100
0000
0000
0000
0000
0010
0100
0000
0000
0000
0000
0001
,
1000
0000
0000
0000
0000
0010
0100
0000
0000
0000
0000
0000
,
0101
0000
0101
0000
,
1010
0000
0000
0000
0000
0000
0000
0000
1010
0000
0000
0000
,
2000
0000
0000
0000
0000
0000
0000
0000
0000
0000
0000
3001
,
0000
0000
0000
0000
0000
0000
0000
0000
1000
0001
0000
0000
,
0101
0000
0000
0000
0000
0000
0101
0000
0000
0000
0000
1001
,
0000
0000
0000
0000
0000
0000
0000
0000
1000
0001
0000
0000
,
1000
0000
0000
0100
0000
0000
0010
0000
0000
0000
0000
0001
,
1000
0000
0100
0100
,
1000
0000
0000
0010
0000
0000
0100
0000
0000
0000
0000
0001
,
1000
0000
0010
0010
,
0220
0000
0000
0000
0000
0000
0000
0000
0000
0330
0000
0220
,
0000
0000
0000
0000
0000
0000
0330
0000
0001
1000
0000
0000
,
1010
0000
0000
0000
0000
0000
1010
0000
0000
0000
0000
1001
,
0000
0000
0000
0000
0000
0000
0000
0000
1000
0001
0000
0000
,
0000
0000
0100
0010
0000
0000
0100
0000
0000
0000
0000
0001
,
1000
0100
0010
0001
,
2000
0001
0000
0001
,
0000
3001
1000
0001
,
0100
0100
0100
0100
,
0110
0000
0000
0110
0000
0000
0000
0000
0000
0000
0000
0010
,
0100
0000
0000
0001
0000
0000
1000
0000
0000
0100
0000
0010
,
0000
0000
0000
0100
0000
0010
0000
0000
0001
0000
0000
0000
,
0100
0010
1000
0010
,
0100
0000
0000
0000
0100
0000
0000
0000
0000
0000
0000
0000
,
0001
0000
1000
0001
0000
1000
0001
0000
0000
0010
0000
0000
,
0100
0000
1000
0001
0000
1000
0001
0000
0000
1000
0000
0000
,
1001
0000
0000
0000
0000
0001
0000
0000
1000
0000
0000
0010
,
0000
0000
0110
0000
0000
0000
0000
0000
0000
0000
0000
0010
,
0100
0000
0010
0100
0000
0010
0100
0000
0000
0001
0000
0000
,
1000
0000
0000
0000
0000
1001
0000
0000
0000
0000
0000
0000
,
0100
0000
0010
0100
0000
0010
0000
0000
1000
0000
0000
0100
,
0000
0000
0000
1000
0000
0000
0001
0000
1000
0001
0000
0000
,
0100
0000
0010
0100
0000
0000
0001
0000
0000
1000
0000
0000
,
1001
0000
0000
0000
0000
0001
0000
0000
0000
0000
0000
0000
,
0000
0020
0000
0000
0000
0000
0130
0000
0000
0100
0000
0000
,
1000
1000
0001
0001
,
1001
0000
1001
0000
,
0110
0000
0000
0000
0000
0000
0000
0000
0110
0000
0000
0000
,
0020
0000
0000
0000
,
0000
0000
0000
0000
,
0230
0000
0000
0000
,
0000
0000
0000
0000
,
0320
0000
0000
0000
0000
0000
0000
0000
0100
0000
0000
0130
,
0000
0000
0000
0000
,
0020
0000
0000
0000
0000
0000
0000
0000
0100
0000
0000
0130
,
0000
0000
0001
1000
,
0001
0000
0000
0001
0000
1000
0000
0000
1000
0000
0000
1001
,
0000
0000
0001
0000
0000
1000
0000
0000
0001
0000
0000
0000
,
1000
0000
0000
1000
0000
0001
0000
0000
0001
0000
0000
1001
,
0000
0000
1000
0000
0000
0001
0000
0000
1000
0000
0000
0000
,
0200
0000
0320
0000
,
0230
0000
0000
0000
0000
1000
0000
0000
1300
0000
0000
0000
,
1001
0000
1000
0100
,
0010
0001
0010
0100
,
1001
0000
0000
0000
0000
0000
1001
0000
0000
0000
0000
0101
,
0000
0000
0000
0001
,
1000
0000
0000
0100
0000
0000
0010
0000
0100
0000
0000
0000
,
1000
1000
0001
0001
,
1000
0000
0000
0010
0000
0000
0100
0000
0001
0000
0000
0000
,
0020
0000
0130
0100
,
1001
0001
0010
0100
,
1000
0100
0010
0001
,
1001
0000
0000
0000
0000
0000
1001
0000
0000
0000
0000
1100
,
0000
0000
0000
1000
,
0001
0000
0100
0001
0000
0000
1000
0000
0100
0000
0000
0000
,
1000
0000
0000
0001
0000
0000
1000
0000
0010
0100
0000
0000
,
0020
0000
0000
0000
,
0130
0000
0000
0000
0100
0000
0000
0000
0000
2002
0000
0000
,
0000
0000
0000
0000
,
0000
0000
0000
0000
,
0000
0000
0000
3003
;

//---------------dance-single - ----------------
#NOTES:
     dance-single:
     :
     Hard:
     13:
     0.684,0.708,0.456,0.380,0.912: // measure 1
0001
0000
1000
0001
0000
0000
0010
0000
0000
0100
0000
0000
,  // measure 2
1000
0100
0010
0001
,  // measure 3
0011
0000
0000
0000
0000
0000
1100
0000
0000
0000
0000
2200
,  // measure 4
0000
0000
3300
1000
,  // measure 5
0001
0000
0000
0100
0000
0000
0001
0000
1000
0000
0000
0001
,  // measure 6
0010
0000
0001
0000
0000
1000
0001
0000
1000
0001
0000
1000
,  // measure 7
0001
0000
0000
0010
0000
0000
0100
0000
1000
0000
0000
0100
,  // measure 8
0010
0000
0100
0000
0000
1000
0001
0000
1000
0001
0000
0000
,  // measure 9
1000
0000
0001
1000
0000
0000
0100
0000
0000
0010
0000
0002
,  // measure 10
1000
1000
1000
1003
,  // measure 11
1010
0000
0000
0000
0000
0000
0101
0000
0000
0000
0000
0202
,  // measure 12
0000
0000
0000
0000
0000
0000
0303
0000
0001
1000
0000
0000
,  // measure 13
0010
1000
0010
1000
0000
0000
0100
0000
0010
0000
0000
0001
,  // measure 14
1000
0000
0100
0000
0000
1000
0000
0000
0100
0010
0000
0110
,  // measure 15
0000
0100
0000
0100
,  // measure 16
0000
0000
0010
0100
0000
0000
0010
0000
0100
0010
0000
0000
,  // measure 17
1000
0000
0001
0010
0000
0001
0010
0000
0100
1000
0000
0100
,  // measure 18
2000
0000
0000
3001
0000
0000
0000
0000
1000
0000
0000
0001
,  // measure 19
0000
0000
0100
0001
0000
0010
0000
0000
0100
1000
0000
0020
,  // measure 20
0000
0000
0000
0130
0000
0001
1000
0000
0001
1000
0000
0000
,  // measure 21
0001
0000
0100
0001
0000
0100
0001
0000
1000
0010
0000
1000
,  // measure 22
0010
0000
1000
0001
0000
1000
0001
0000
0010
0000
0000
0100
,  // measure 23
0000
0000
0000
1000
0000
0000
1000
0000
0000
0001
0000
1000
,  // measure 24
0001
0000
0010
0100
0000
1000
0001
0000
1001
0000
0000
0000
,  // measure 25
0001
0000
1000
0000
0000
1010
0000
0000
1010
0000
0000
0110
,  // measure 26
0000
0000
0110
0000
0000
0000
0000
0000
0100
0010
0000
1000
,  // measure 27
0100
0000
1000
0100
0000
0010
0001
0000
0010
0001
0000
1000
,  // measure 28
0001
0000
0010
0200
0000
2000
0000
0000
0000
3300
0000
0000
,  // measure 29
1000
0000
0100
0010
0000
0001
0000
0000
0100
0000
0000
0001
,  // measure 30
1000
0000
0001
1000
0000
0000
0010
0000
0000
0010
0000
0000
,  // measure 31
1000
0000
0010
0100
0000
0001
0000
0000
0010
0000
0000
0001
,  // measure 32
1000
0000
0000
0001
0010
0001
0010
0000
0001
1000
0000
0000
,  // measure 33
0001
0000
0100
0010
0000
1000
0000
0000
0100
0000
0000
1000
,  // measure 34
0001
0000
0100
0001
0000
0100
0001
0000
1000
0100
0000
0000
,  // measure 35
2200
3300
0220
0330
,  // measure 36
0022
0000
0000
0000
0000
0033
0000
0000
1001
0000
0000
0000
,  // measure 37
0001
0000
1000
0001
0000
0000
0010
0000
0000
0100
0000
2000
,  // measure 38
0001
0000
0000
0001
0000
0000
3001
0000
1000
0001
0000
0000
,  // measure 39
0011
0000
0000
0000
0000
0000
0011
0000
0000
0000
0000
2002
,  // measure 40
0000
0000
0000
0000
0000
0000
3003
0000
0001
1000
0000
0000
,  // measure 41
0010
0000
0000
1000
0000
0000
0100
0000
0010
0000
0000
0001
,  // measure 42
1000
0000
0100
0000
0000
1000
0001
0000
1000
0001
0000
1000
,  // measure 43
0001
0000
0000
0100
0000
0000
0010
0000
0100
0000
0000
0001
,  // measure 44
1000
0000
0100
0000
0000
0010
0100
0000
0010
0100
0000
0000
,  // measure 45
1000
0000
0001
1000
0000
0000
0100
0000
0000
0010
0000
0002
,  // measure 46
1000
0000
0000
1000
0000
0000
1003
0000
0001
1000
0000
0000
,  // measure 47
1100
0000
0000
0000
0000
0000
1100
0000
0000
0000
0000
2002
,  // measure 48
0000
0000
0000
0000
0000
0000
3003
0000
1000
0001
0000
0000
,  // measure 49
0100
0001
0100
0001
0000
0000
0010
0000
0100
0000
0000
1000
,  // measure 50
0001
0000
0010
0000
0000
0100
0000
0000
1000
0010
0000
0110
,  // measure 51
0000
0100
0000
0100
,  // measure 52
0000
0000
0010
0100
0000
0000
0010
0000
0000
0010
0000
0000
,  // measure 53
1000
0000
0001
0010
0000
0001
0010
0000
0001
0010
0000
0001
,  // measure 54
1000
0000
0000
1001
0000
0000
0000
0000
0000
0000
0000
0100
,  // measure 55
0010
0000
0100
0001
0000
0000
0001
0000
0000
0010
0000
0100
,  // measure 56
0000
0000
1000
0010
0000
0100
0000
0000
0001
1000
0000
0000
,  // measure 57
0001
0000
1000
0010
0000
1000
0010
0000
1000
0010
0000
1000
,  // measure 58
0001
0000
0020
0000
0002
0000
0000
0000
0000
0033
0000
0000
,  // measure 59
0001
0000
1000
0010
0000
1000
0010
0000
1000
0001
0000
1000
,  // measure 60
0001
0000
0010
0100
0000
0010
0100
0000
1000
0000
0000
0000
,  // measure 61
1001
0000
0000
0000
0000
0011
0000
0000
0011
0000
0000
0110
,  // measure 62
0000
0000
0110
0000
0000
0000
0000
0000
0000
0000
0000
0010
,  // measure 63
0100
0000
0001
0010
0000
0001
0010
0000
0001
0010
0000
0001
,  // measure 64
1000
0000
0000
0000
0000
1001
0000
0000
0000
0000
0000
0000
,  // measure 65
0001
0000
1000
0010
0000
1000
0000
0000
0100
0000
0000
0010
,  // measure 66
0000
0000
0001
2000
0000
0000
3100
0000
1000
0002
0000
0000
,  // measure 67
0103
0000
0001
0100
0000
0001
0000
0000
0010
0000
0000
0120
,  // measure 68
0000
0000
0000
0000
0000
1030
0000
0000
0000
0000
0000
0000
,  // measure 69
0000
0002
0000
0000
0000
0000
1003
0000
0000
1000
0000
0000
,  // measure 70
0001
0000
0010
0100
0000
0010
0000
0000
0100
0010
0000
0000
,  // measure 71
0101
0000
0101
0000
,  // measure 72
1100
0000
0000
0000
0000
0000
0000
0000
1100
0000
0000
0000
,  // measure 73
2000
0000
0001
0000
,  // measure 74
0001
0000
0001
3000
,  // measure 75
0020
0000
0100
0000
,  // measure 76
0100
0000
0100
0030
,  // measure 77
1002
0000
0000
0000
0000
0000
0000
0000
0013
0000
0000
0022
,  // measure 78
0000
0000
0000
0033
,  // measure 79
2001
0000
0000
0000
0000
0000
0000
0000
3010
0000
0000
2020
,  // measure 80
0000
0000
0000
3030
0000
0000
1000
0000
0001
1000
0000
0000
,  // measure 81
0001
0000
0100
0001
0000
1000
0000
0000
1100
0000
0000
1100
,  // measure 82
0000
0000
0011
0000
0000
0011
0000
0000
0001
1000
0000
0000
,  // measure 83
0001
0000
0010
0001
0000
1000
0000
0000
1010
0000
0000
1010
,  // measure 84
0000
0000
0101
0000
0000
0101
0000
0000
0001
1000
0000
0001
,  // measure 85
2000
0000
3002
0000
,  // measure 86
1003
0000
0001
0000
0000
0010
0000
0000
0100
0010
0000
0000
,  // measure 87
0001
0000
1000
0001
0000
0000
0010
0000
0000
0100
0000
0000
,  // measure 88
1000
0100
0010
0001
,  // measure 89
0101
0000
0000
0000
0000
0000
0101
0000
0000
0000
0000
2002
,  // measure 90
0000
0000
0000
0000
0000
0000
3003
0000
1000
0001
0000
0000
,  // measure 91
0100
0000
0000
1000
0000
0000
0100
0000
0001
0000
0000
0100
,  // measure 92
0010
0000
1000
0000
0000
0100
0010
0000
0100
0010
0000
0001
,  // measure 93
1000
0000
0000
0100
0000
0010
0100
0000
0010
0000
0000
0001
,  // measure 94
1000
0000
0100
0000
0000
1000
0001
0000
0100
0001
0000
0000
,  // measure 95
1000
0000
0001
1000
0000
0000
0100
0000
0000
0010
0000
0002
,  // measure 96
1000
1000
1000
1003
,  // measure 97
1100
0000
0000
0000
0000
0000
1100
0000
0000
0000
0000
2002
,  // measure 98
0000
0000
0000
0000
0000
0000
3003
0000
1000
0001
0000
0000
,  // measure 99
0010
0001
0010
0001
0000
0000
1000
0000
0010
0000
0000
1000
,  // measure 100
0001
0000
0010
0000
0000
0001
0000
0000
0100
0010
0000
0200
,  // measure 101
0000
0001
0001
0001
,  // measure 102
0301
1000
0100
0000
0100
0000
0000
0000
0000
2002
0000
0000
,  // measure 103
0000
0000
0000
0000
,  // measure 104
0000
0000
0000
0000
,  // measure 105
0000
0000
0000
3003
;

//---------------dance-single - ----------------
#NOTES:
     dance-single:
     :
     Beginner:
     2:
     0.092,0.172,0.084,0.000,0.000:
1000
0000
0000
0000
,
0000
0000
0000
0000
,
1001
0000
0000
0000
,
0000
0000
0000
0000
,
0001
0000
0000
0000
,
0010
0000
0000
0000
,
0100
0000
0000
0000
,
1000
0000
0000
0000
,
1001
0000
0000
0000
,
0000
0000
0000
0000
,
0001
0000
0000
0000
,
0000
0000
0000
0000
,
1000
0000
0000
0000
,
0010
0000
0000
0000
,
0100
0000
0000
0000
,
0000
0000
0000
0000
,
0110
0000
0000
0000
,
0000
0000
0000
0000
,
0010
0000
0000
0000
,
0000
0000
0000
0000
,
0100
0000
0000
0000
,
0000
0000
0000
0000
,
0010
0000
0000
0000
,
0000
0000
0000
0000
,
1001
0000
0000
0000
,
0000
0000
0000
0000
,
1000
0000
0000
0000
,
0100
0000
0000
0000
,
0010
0000
0000
0000
,
0001
0000
0000
0000
,
0010
0000
0000
0000
,
0100
0000
0000
0000
,
1000
0000
0000
0000
,
0010
0000
0000
0000
,
0110
0000
0000
0000
,
0000
0000
0000
0000
,
0100
0000
0000
0000
,
0000
0000
0000
0000
,
0001
0000
0000
0000
,
0000
0000
0000
0000
,
0010
0000
0000
0000
,
0100
0000
0000
0000
,
0010
0000
0000
0000
,
0001
0000
0000
0000
,
1001
0000
0000
0000
,
0000
0000
0000
0000
,
1000
0000
0000
0000
,
0000
0000
0000
0000
,
0100
0000
0000
0000
,
0010
0000
0000
0000
,
0100
0000
0000
0000
,
0000
0000
0000
0000
,
1000
0000
0000
0000
,
0000
0000
0000
0000
,
0001
0000
0000
0000
,
0000
0000
0000
0000
,
1000
0000
0000
0000
,
0000
0000
0000
0000
,
0001
0000
0000
0000
,
0000
0000
0000
0000
,
1001
0000
0000
0000
,
0000
0000
0000
0000
,
0001
0000
0000
0000
,
0100
0000
0000
0000
,
0010
0000
0000
0000
,
0100
0000
0000
0000
,
0001
0000
0000
0000
,
0001
0000
0000
0000
,
1000
0000
0000
0000
,
0010
0000
0000
0000
,
0100
0000
0000
0000
,
0000
0000
0000
0000
,
0001
0000
0000
0000
,
0000
0000
0000
0000
,
0001
0000
0000
0000
,
0000
0000
0000
0000
,
0001
0000
0000
0000
,
0000
0000
0000
0000
,
0001
0000
0000
0000
,
0000
0000
0000
0000
,
1001
0000
0000
0000
,
0000
0000
0000
0000
,
1000
0000
0000
0000
,
0000
0000
0000
0000
,
0010
0000
0000
0000
,
0000
0000
0000
0000
,
0110
0000
0000
0000
,
0000
0000
0000
0000
,
0100
0000
0000
0000
,
0000
0000
0000
0000
,
0001
0000
0000
0000
,
0000
0000
0000
0000
,
0010
0000
0000
0000
,
0000
0000
0000
0000
,
0100
0000
0000
0000
,
0000
0000
0000
0000
,
1000
0000
0000
0000
,
0000
0000
0000
0000
,
0001
0000
0000
0000
,
0000
0000
0000
0000
,
0010
0000
0000
0000
,
0000
0000
0000
0110
;
