#TITLE:Give Me Your Love;
#SUBTITLE:;
#ARTIST:星野奏子;
#TITLETRANSLIT:;
#SUBTITLETRANSLIT:;
#ARTISTTRANSLIT:KANAKO HOSHINO;
#CREDIT:DigiMindAxel;
#BANNER:Give Me Your Love.png;
#BACKGROUND:Give Me Your Love-bg.png;
#LYRICSPATH:Give Me Your Love.lrc;
#CDTITLE:beatmania IIDX.png;
#MUSIC:Give Me Your Love.mp3;
#METERTYPE:DDR X;
#OFFSET:-10.882;
#SAMPLESTART:61.183;
#SAMPLELENGTH:12.000;
#SELECTABLE:YES;
#BPMS:0.000=130.000;
#STOPS:;
#BGCHANGES:;

//---------------dance-single - ----------------
#NOTES:
     dance-single:
     :
     Easy:
     4:
     0.157,0.192,0.129,0.051,0.000:
0001
0000
1000
0000
,
0100
1000
0100
0000
,
0110
0000
0000
0000
,
0110
0000
0000
0001
,
1000
0000
0000
0000
,
0001
0000
0000
0000
,
0010
0000
0000
0000
,
0100
0000
0000
0000
,
0010
0000
0000
0000
,
0001
0000
0000
0000
,
1000
0000
0000
0000
,
0001
0000
0000
0000
,
1001
0000
1000
0000
,
0001
0000
0010
0000
,
0100
0000
0010
0000
,
0001
0000
1000
0000
,
0002
0000
0000
0000
,
1003
0000
0010
0000
,
0200
0000
0000
0000
,
0310
0000
0000
0000
,
0110
0000
0000
0000
,
0100
0000
0000
0000
,
0110
0000
0000
0000
,
0010
0000
0000
0000
,
1001
0000
0000
0000
,
1000
0000
0000
0000
,
1001
0000
0000
0000
0000
0000
0000
0200
,
0000
0000
0000
0300
,
0110
0100
0100
0000
,
0001
0000
0010
0000
,
0001
1000
0001
0000
,
1000
0000
0010
0000
,
0100
0100
0100
0000
,
0001
0000
1000
0000
,
0100
1000
0100
0000
,
1000
0000
0000
0000
,
1001
0001
0001
0000
,
0010
0000
0001
0000
,
0100
0010
0100
0000
,
0001
0000
1000
0000
,
0010
0010
0010
0000
,
1000
0000
0001
0000
,
0010
0001
0100
0000
,
0020
0000
0000
0000
,
0130
0001
1000
0000
,
1001
0000
0000
0110
,
0100
0100
0100
0000
,
1001
0001
0001
0000
,
0010
0010
0010
0000
,
0100
0100
0100
0000
,
1000
1000
1000
0000
,
0001
0001
0001
0000
,
0100
0100
0100
0000
,
0110
0000
0000
1001
,
0001
0001
0001
0000
,
0220
0000
0000
0000
,
0330
0000
0000
0000
;

//---------------dance-single - ----------------
#NOTES:
     dance-single:
     :
     Medium:
     6:
     0.304,0.385,0.429,0.077,0.000:
1001
1001
1001
0000
,
0110
0110
0110
0000
,
0101
0000
0000
0100
0000
0000
0100
0000
,
0000
0001
1000
0000
1000
0000
0000
0000
,
1002
0000
0103
0000
,
0001
1000
0001
1000
,
0002
0000
0013
0000
,
0100
0010
0100
0010
,
0200
0000
0300
0000
,
1000
0001
1000
0001
,
0200
0000
0300
0000
,
0010
0100
0010
0000
,
1001
1000
0001
0100
,
0001
0010
0100
1000
,
0010
0100
0010
1000
,
0001
0010
0100
0010
,
0001
0000
0000
0100
0000
0000
0010
0000
,
1000
0010
0100
0001
,
1000
0000
0000
0100
0000
0000
0010
0000
,
0001
0010
0100
1000
,
0110
0000
0000
0010
0000
0000
0000
0000
,
0110
0000
0000
0100
0000
0000
0000
0000
,
1001
0000
0000
1000
0000
0000
0000
0000
,
1001
0000
0000
0001
0000
0000
0000
0000
,
0101
0000
0000
0100
0000
0000
0000
0000
,
1010
0000
0000
0010
0000
0000
0000
0000
,
0110
0000
0000
0010
0000
0100
0000
0220
,
0000
0000
0000
0330
,
0101
0101
0101
0010
,
0100
1000
0100
0000
0010
0100
0010
0000
,
0000
0001
1000
0000
0001
1000
0000
0000
,
0010
0100
0001
1000
,
1100
1100
1100
1000
,
0010
0100
0010
0000
1000
0001
1000
0000
,
0000
0010
0100
0000
0010
0100
0000
0000
,
0002
0000
0000
0003
,
1001
1001
1001
0001
,
1000
0100
1000
0000
0001
0100
0001
0000
,
0000
0010
0100
0000
0010
0100
0000
0000
,
1000
0010
0100
0001
,
0101
0101
0101
0100
,
0001
0010
0001
0000
1000
0001
1000
0000
,
0000
0010
0100
0000
0010
0100
0000
0000
,
0001
0010
0100
1000
,
0010
0100
0001
0100
,
0110
0000
0000
0010
0000
0000
0010
0000
,
0000
1000
0001
0000
0001
0000
0000
0000
,
0011
0011
0011
0100
,
1100
1100
1100
0100
,
0110
0110
0110
0001
,
0101
0101
0101
1000
,
1010
1010
1010
0100
,
0110
0110
0110
0001
,
1001
0000
0000
1000
0000
0000
1000
0000
,
0000
0001
0010
0000
0010
0000
0000
0000
,
0220
0000
0000
0000
,
0330
0000
0000
0000
;

//---------------dance-single - ----------------
#NOTES:
     dance-single:
     :
     Hard:
     11:
     0.493,0.505,0.421,0.103,0.180: // measure 1
1000
0000
0010
0100
0000
0010
0100
0000
0001
0000
0001
0000
2000
0000
0000
0000
,  // measure 2
3001
0000
0100
0010
0000
0100
0010
0000
1000
0000
1000
0000
0001
0000
0001
0000
,  // measure 3
1000
0101
0000
1000
0101
0000
1000
0101
,  // measure 4
0000
1000
1000
1000
0101
0000
0100
0000
,  // measure 5
1001
0000
0000
0001
0000
0000
0011
0000
0000
0000
0000
0000
0000
0000
0000
0000
,  // measure 6
0011
0000
0000
0001
0000
0000
1000
0000
0010
0000
0000
0000
0010
0000
0000
0000
,  // measure 7
0110
0000
0000
0010
0000
0000
1010
0000
0000
0000
0000
0000
0000
0000
0000
0000
,  // measure 8
1010
0000
0000
1000
0000
0000
0001
0000
0010
0000
0000
0000
0010
0000
0000
0000
,  // measure 9
0110
0000
0000
0100
0000
0000
0020
0000
1000
0000
0000
0000
1030
0000
0000
0000
,  // measure 10
1010
0000
0000
1000
0000
0000
0002
0000
0010
0000
0000
0000
0013
0000
0000
0000
,  // measure 11
0110
0000
0000
0100
0000
0000
0002
0000
1000
0000
0000
0000
1003
0000
0000
0000
,  // measure 12
0120
0000
0000
0100
0000
0000
0100
0000
0000
0000
0000
0000
1030
0000
0000
0000
,  // measure 13
0001
0010
1000
0010
0002
0000
1003
0001
,  // measure 14
0100
0000
1000
0001
1000
0000
0100
0000
0001
0000
0010
0000
0100
0000
0000
0000
,  // measure 15
1000
0010
0001
0010
2000
0000
3001
1000
,  // measure 16
0100
0000
0001
1000
0001
0000
0100
0000
1000
0000
0010
0000
0100
0000
0000
0000
,  // measure 17
0001
0010
0100
1000
0100
0010
0001
0000
,  // measure 18
1000
0001
0001
0100
0020
0000
0130
0000
,  // measure 19
0001
0010
0100
1000
0100
0010
0001
0000
,  // measure 20
1000
0000
0000
0001
0000
0000
0100
0000
0010
0000
0000
0010
0100
0000
0001
0000
,  // measure 21
1001
0000
0000
1100
0000
0100
0000
0000
,  // measure 22
1001
0000
0000
0011
0000
0001
0000
0000
,  // measure 23
0110
0000
0000
1010
0000
0010
0000
0000
,  // measure 24
0110
0000
0000
0101
0000
0100
0000
0000
,  // measure 25
0110
0000
0000
1001
0000
0001
0000
0000
,  // measure 26
0110
0000
0000
1001
0000
1000
0000
0000
,  // measure 27
0101
0000
0001
1000
0000
0100
0000
0220
,  // measure 28
0000
0000
0000
0330
,  // measure 29
0100
0000
0001
1000
0000
0001
1000
0000
0100
0000
0000
0000
1000
0000
0100
0000
,  // measure 30
0010
1000
0010
0001
1000
0010
0100
0001
,  // measure 31
0000
0100
1001
0000
0100
1001
0000
0001
,  // measure 32
1000
0100
0010
0100
1000
0001
0100
0000
,  // measure 33
0010
0000
1000
0001
0000
1000
0001
0000
0010
0000
0000
0000
0001
0000
0010
0000
,  // measure 34
0100
0001
0100
1000
0001
0100
0010
1000
,  // measure 35
0000
0100
1001
0000
0100
1001
0000
0001
,  // measure 36
1000
0000
0000
0000
0010
0100
0010
0100
0010
0100
0010
0100
0010
0100
0010
0100
,  // measure 37
0010
0000
1000
0100
0000
1000
0100
0000
0010
0000
0000
0000
0001
0000
1000
0000
,  // measure 38
0100
0001
1000
0100
0010
1000
0001
1000
,  // measure 39
0000
0100
1001
0000
0100
1001
0000
1000
,  // measure 40
0001
0010
1000
0010
0001
1000
0001
0000
,  // measure 41
0010
0000
0001
0010
0000
0001
0010
0000
0100
0000
0000
0000
1000
0000
0001
0000
,  // measure 42
0010
1000
0001
0010
0100
0001
1000
0001
,  // measure 43
0000
0100
1001
0000
0100
1001
0000
0001
,  // measure 44
1000
0010
0001
0010
1000
0001
1000
0001
,  // measure 45
0000
0100
1001
0000
0100
1000
0010
0100
,  // measure 46
0001
1100
0000
0001
1100
0000
0001
1100
,  // measure 47
0000
0001
0001
0001
1100
0000
0000
0000
,  // measure 48
1000
0000
0001
0100
0000
0001
0100
0000
0001
0000
1000
0000
1001
0000
0000
0000
,  // measure 49
0001
0000
1000
0010
0000
1000
0010
0000
1000
0000
1000
0000
0001
0000
0001
0000
,  // measure 50
1000
0000
0001
0010
0000
0001
0010
0000
0001
0000
1000
0000
1001
0000
0000
0000
,  // measure 51
1000
0000
0010
0100
0000
0010
0100
0000
0001
0000
0001
0000
0100
0000
0100
0000
,  // measure 52
0001
0000
1000
0100
0000
1000
0100
0000
0010
0000
0100
0000
0110
0000
0000
0000
,  // measure 53
0100
0000
1000
0001
0000
1000
0001
0000
0010
0000
0010
0000
0100
0000
0100
0000
,  // measure 54
1000
0101
0000
1000
0101
0000
1000
0101
,  // measure 55
0000
1000
1000
1000
0101
0000
0100
0000
,  // measure 56
2002
0000
0000
0000
,  // measure 57
3003
0000
0000
0000
;

//---------------dance-single - ----------------
#NOTES:
     dance-single:
     :
     Beginner:
     2:
     0.102,0.189,0.112,0.000,0.000:
0001
0000
0000
0000
,
1000
0000
0000
0000
,
0001
0000
0000
0000
,
0000
0000
0000
0000
,
1001
0000
0000
0000
,
1000
0000
0000
0000
,
0010
0000
0000
0000
,
0100
0000
0000
0000
,
0001
0000
0000
0000
,
1000
0000
0000
0000
,
0001
0000
0000
0000
,
1000
0000
0000
0000
,
0001
0000
0000
0000
,
0010
0000
0000
0000
,
0100
0000
0000
0000
,
1000
0000
0000
0000
,
0001
0000
0000
0000
,
1000
0000
0000
0000
,
0001
0000
0000
0000
,
1000
0000
0000
0000
,
1001
0000
0000
0000
,
0000
0000
0000
0000
,
0001
0000
0000
0000
,
0000
0000
0000
0000
,
1000
0000
0000
0000
,
0000
0000
0000
0000
,
0001
0000
0000
0000
,
0000
0000
0000
0000
,
0110
0000
0100
0000
,
0100
0000
0000
0000
,
1001
0000
0001
0000
,
0001
0000
0000
0000
,
0110
0000
0010
0000
,
0010
0000
0000
0000
,
1001
0000
1000
0000
,
1000
0000
0000
0000
,
0001
0000
0100
0000
,
0001
0000
0100
0000
,
0001
0000
0001
0000
,
0001
0000
0000
0000
,
1000
0000
0100
0000
,
1000
0000
0100
0000
,
1000
0000
1000
0000
,
1000
0000
0000
0000
,
0001
0000
0001
0000
,
1000
0000
0010
0000
,
0100
0000
0000
0000
,
0110
0000
0010
0000
,
1001
0000
1000
0000
,
0110
0000
0100
0000
,
1001
0000
0001
0000
,
0110
0000
0100
0000
,
1001
0000
1000
0000
,
0001
0000
0010
0000
,
0100
0000
0000
0000
,
1001
0000
0000
0000
;
