#TITLE:Get Off of My Way;
#SUBTITLE:;
#ARTIST:MAN WITH A MISSION;
#TITLETRANSLIT:;
#SUBTITLETRANSLIT:;
#ARTISTTRANSLIT:;
#CREDIT:DigiMindAxel;
#BANNER:Get Off of My Way.png;
#BACKGROUND:Get Off of My Way-bg.png;
#LYRICSPATH:Get Off of My Way.lrc;
#CDTITLE:DigiMindAxel original simfile.png;
#MUSIC:Get Off of My Way.mp3;
#METERTYPE:DDR X;
#OFFSET:-7.460;
#SAMPLESTART:57.220;
#SAMPLELENGTH:12.000;
#SELECTABLE:YES;
#BPMS:0.000=135.000;
#STOPS:12.000=1.333
;
#BGCHANGES:-18.000=Get Off of My Way.avi=1.000=1=1=0,
208.000=Get Off of My Way-bg.png=1.000=1=0=1,
99999=-nosongbg-=1.000=0=0=0 // don't automatically add -songbackground-
;

//---------------dance-single - ----------------
#NOTES:
     dance-single:
     :
     Hard:
     12:
     0.625,0.541,0.470,0.115,0.523: // measure 1
0002
0000
0000
0000
0103
0000
0000
0000
0020
0000
0000
0100
0000
0000
0130
0000
,  // measure 2
0000
0000
0001
0000
2000
0000
0000
0001
0000
0000
3001
0000
0010
0000
0100
0000
,  // measure 3
2000
0000
0000
0000
3001
0000
0000
0000
0200
0000
0000
0001
0000
0000
0301
0000
,  // measure 4
2002
3003
0000
0000
0000
0000
0000
0000
0000
0000
0000
0000
0000
0000
0000
0000
0110
0000
0000
0000
0000
0000
0000
0000
0000
0000
0000
0000
0110
0000
0000
0000
0000
0000
0000
0000
0000
0000
0000
0000
0101
0000
0000
0000
0000
0000
0000
0000
0000
0000
0000
0000
0101
0000
0000
0000
0000
0000
0000
0000
0000
0000
0000
0000
,  // measure 5
0110
0000
0000
0110
0000
0000
0101
0000
0000
0101
0000
0000
0001
0000
0001
0000
,  // measure 6
1000
0000
1000
0000
0110
0000
0000
0110
0000
0000
1010
0000
0000
1010
0000
0000
,  // measure 7
0110
0000
0000
0110
0000
0000
0001
0000
0001
0000
1000
0010
0000
0010
1000
0000
,  // measure 8
1001
0000
0000
0000
1100
0000
0000
1100
0000
0000
1001
0000
0000
1001
0000
0000
,  // measure 9
1100
0000
0000
1100
0000
0000
1001
0000
0000
1001
0000
0000
0001
0000
0001
0000
,  // measure 10
1000
0000
1000
0000
1001
0000
0000
1001
0000
0000
0011
0000
0000
0011
0000
0000
,  // measure 11
1001
0000
0000
1001
0000
0000
1000
0000
1000
0000
0001
0100
0000
0100
0001
0000
,  // measure 12
1001
0000
0000
0000
2100
0000
0000
0000
3001
0000
0000
0000
1000
0001
0000
0100
,  // measure 13
0000
0001
1000
0000
0000
0000
0001
0000
0010
0100
0000
0010
0000
0100
0010
0000
,  // measure 14
0001
0000
1000
0000
1002
0000
0000
0000
0013
0000
0000
0000
0001
1000
0000
0100
,  // measure 15
0000
1000
0000
0010
0000
0100
0001
0000
0001
0000
1000
0000
1000
0000
0100
0000
,  // measure 16
0010
0000
0001
0000
2001
0000
0000
0000
3010
0000
0000
0000
1000
0001
0000
0010
,  // measure 17
0000
0001
1000
0000
0000
0000
0001
0000
0100
0010
0000
0100
0000
0010
0100
0000
,  // measure 18
0001
0000
1000
0000
2001
0000
0000
0000
3010
0000
0000
0000
1000
0001
0000
0100
,  // measure 19
0000
0001
0000
1000
0000
0010
0100
0000
0001
0000
0001
0000
1000
0100
1000
0000
,  // measure 20
0001
0100
0001
0000
1001
0000
0000
0000
1001
0000
0000
0000
0001
0100
0000
0010
,  // measure 21
0000
0100
0001
0000
0000
0000
1000
0000
0001
1000
0000
0100
0000
0010
0001
0000
,  // measure 22
0001
0000
1000
0000
1001
0000
0000
0000
0101
0000
0000
0000
0010
1000
0000
0100
,  // measure 23
0000
1000
0000
0001
0000
0100
0010
0000
0010
0000
1000
0000
1000
0000
0001
0000
,  // measure 24
0001
0000
0100
0000
0110
0000
0000
0000
1001
0000
0000
0000
1000
0100
0000
0010
,  // measure 25
0000
0100
1000
0000
0000
0000
0001
0000
1000
0001
0000
0010
0000
0100
1000
0000
,  // measure 26
0010
0000
0100
0000
0110
0000
0000
0000
1010
0000
0000
0000
0100
0001
0000
0010
,  // measure 27
0000
0001
0000
1000
0000
0010
0100
0000
0100
0000
0001
0000
0001
0000
1000
0010
,  // measure 28
1000
0010
1000
0000
0001
0010
0000
0001
1000
0000
0001
0010
0000
0001
1000
0000
,  // measure 29
0001
0010
0000
0001
1000
0000
0001
0010
0000
0001
1000
0000
0010
0000
0100
0000
,  // measure 30
0001
0000
0001
0000
1000
0100
0000
1000
0001
0000
1000
0100
0000
1000
0001
0000
,  // measure 31
1000
0100
0000
1000
0001
0000
0001
0000
0001
0000
0100
0010
0000
0010
0100
0000
,  // measure 32
1001
0000
0000
0000
1000
0010
0000
1000
0001
0000
1000
0010
0000
1000
0001
0000
,  // measure 33
1000
0010
0000
1000
0001
0000
1000
0010
0000
1000
0001
0000
0010
0000
0100
0000
,  // measure 34
1000
0000
1000
0000
0001
0100
0000
0001
1000
0000
0001
0100
0000
0001
1000
0000
,  // measure 35
0001
0100
0000
0001
1000
0000
1000
0000
1000
0000
0100
0010
0000
0010
0100
0000
,  // measure 36
1001
0000
0001
0100
0010
0001
0010
0100
,  // measure 37
0001
0000
1000
0010
0100
1000
0100
0010
,  // measure 38
1000
0000
0001
0100
1000
0100
0010
1000
,  // measure 39
0001
0001
1000
0010
0001
0010
0100
0001
,  // measure 40
1000
1000
0001
0100
0010
0001
0010
0100
,  // measure 41
0001
0000
1000
0010
0100
1000
0100
0010
,  // measure 42
1000
0000
0000
0000
0001
0100
0010
0100
0001
0000
0000
0000
1000
0010
0100
0010
,  // measure 43
1000
0000
0000
0000
0100
0010
0001
0010
0100
0000
0000
0000
0010
0100
1000
0100
,  // measure 44
0010
0000
0001
0010
1000
0010
0001
1000
,  // measure 45
0100
0000
1000
0100
0001
0100
1000
0001
,  // measure 46
0010
0000
0001
0010
1000
0010
0100
1000
,  // measure 47
0001
2000
0000
3100
0001
0100
0010
0001
,  // measure 48
1000
1000
0001
0100
1000
0100
0001
0010
,  // measure 49
0100
0010
0001
0010
1000
0010
0001
0100
,  // measure 50
0010
0100
0001
0001
0100
0100
0010
0010
,  // measure 51
1000
1000
0001
0001
1000
1000
0001
0011
,  // measure 52
0011
0011
1001
0000
0000
0000
0000
0000
;

//---------------dance-single - ----------------
#NOTES:
     dance-single:
     :
     Easy:
     4:
     0.207,0.221,0.106,0.019,0.000:
1001
0000
0000
0000
,
1000
0000
0000
0000
,
0001
0000
0000
0000
,
2002
3003
0000
0000
0000
0000
0000
0000
0000
0000
0000
0000
0000
0000
0000
0000
0010
0000
0000
0000
0000
0000
0000
0000
0000
0000
0000
0000
0000
0000
0000
0000
0000
0000
0000
0000
0000
0000
0000
0000
0000
0000
0000
0000
0000
0000
0000
0000
0010
0000
0000
0000
0000
0000
0000
0000
0000
0000
0000
0000
0000
0000
0000
0000
,
0000
0010
0000
0100
,
0010
0100
0000
0100
,
0000
0100
0001
1000
,
0001
1000
0000
1000
,
0000
1000
0000
1000
,
0001
1000
0000
0001
,
0000
0001
1000
0010
,
0100
0010
0000
0100
,
0000
0010
0000
1000
,
0000
0001
0000
1000
,
0000
0001
0000
0010
,
0000
0100
0000
0010
,
0000
0001
0000
1000
,
0000
0001
0000
0001
,
0000
1000
0000
1000
,
0000
1001
0000
0010
,
0000
0100
0000
0010
,
0000
1000
0000
0001
,
0000
1000
0000
0010
,
0000
0100
0000
0100
,
0000
0001
0000
0001
,
0000
1000
0000
0001
,
0000
1000
0000
0001
,
0000
1001
0000
1000
,
0000
1001
0000
0001
,
1000
1001
0000
0001
,
0000
1001
1000
0001
,
1000
1001
0000
0001
,
0000
1001
0000
1000
,
0001
1001
0000
1000
,
0000
1001
0000
0001
,
1000
0001
0001
0001
,
0000
1000
1000
1000
,
0000
0010
0100
0010
,
0100
0001
1000
0001
,
1000
0010
0010
0010
,
0000
0100
0100
0100
,
0000
0001
1000
0010
,
1000
0001
0100
0001
,
1000
0010
0010
0010
,
0000
0100
0100
0100
,
0000
0001
1000
0001
,
1000
0100
0100
0100
,
0100
1000
0001
1000
,
0001
0010
0010
0010
,
0010
0001
1000
0010
,
0100
0001
1000
0010
,
0100
0001
0000
0000
;

//---------------dance-single - ----------------
#NOTES:
     dance-single:
     :
     Medium:
     8:
     0.422,0.369,0.278,0.029,0.096:
0001
0001
0001
0001
,
1000
1000
1000
1000
,
0010
0010
0010
0010
,
0220
0330
0000
0000
0000
0000
0000
0000
0000
0000
0000
0000
0000
0000
0000
0000
0110
0000
0000
0000
0000
0000
0000
0000
0000
0000
0000
0000
0000
0000
0000
0000
0110
0000
0000
0000
0000
0000
0000
0000
0000
0000
0000
0000
0000
0000
0000
0000
0100
0000
0000
0000
0000
0000
0000
0000
0000
0000
0000
0000
0000
0000
0000
0000
,
0101
0000
0100
0000
0110
0000
0100
0001
,
0100
0001
1000
0000
1001
0000
1000
0000
,
1100
1000
1001
0001
,
0101
0010
0110
0010
,
1010
0000
0010
0000
0110
0000
0010
0100
,
0010
0100
0001
0000
1001
0000
0001
0000
,
0011
0000
0001
1000
0010
1000
0010
0000
,
0110
0000
0000
0000
0200
0000
0000
0000
0301
0000
0000
0000
1000
0000
0000
1000
,
0000
1000
0000
0010
0100
0000
0010
0000
,
0010
0100
0110
0001
,
0001
0000
1000
0001
0100
0000
0010
0100
,
0001
0000
0100
0000
0010
0000
0000
0000
1001
0000
0000
0000
0001
0000
0000
0001
,
0000
0001
0000
0100
0010
0000
1000
0000
,
0100
1000
1001
1000
,
1000
0000
0001
0100
0010
0000
0100
0010
,
1000
0000
0010
0000
0100
0000
0000
0000
1001
0000
0000
0000
0010
0000
0000
0100
,
0000
0010
0000
1000
0001
0010
0100
0000
,
0010
0000
0000
0000
0001
0000
0000
0000
1001
0000
0000
0000
1000
0000
0000
0010
,
0000
0000
0100
0000
0100
0000
0001
1000
,
0010
0000
1000
0000
0001
0000
0000
0000
1001
0000
0000
0000
0100
0000
0000
0010
,
0000
0100
0000
0001
1000
0100
0010
0000
,
0100
0000
0000
0000
1000
0000
0000
0000
1001
0000
0000
0000
0001
0000
0000
0100
,
0000
0000
0010
0100
0010
0000
0001
0010
,
0100
0000
1000
0000
0010
0000
0000
0010
0000
0000
0010
0000
0000
0010
0000
0000
,
1000
0000
0000
1000
0000
0000
1000
0000
0000
1000
0000
0000
1000
0000
0010
0000
,
0100
0000
0000
0000
0001
0000
0000
0001
0000
0000
0001
0000
0000
0001
0000
0000
,
0100
0000
0000
0100
0000
0000
0100
0000
0001
0000
0000
0000
1000
0000
0000
0000
,
1001
0000
0000
0000
0010
0000
0000
0010
0000
0000
0010
0000
0000
0010
0000
0000
,
0001
0000
0000
0001
0000
0000
0001
0000
0000
0001
0000
0000
0001
0000
0100
0000
,
0010
0000
0000
0000
1000
0000
0000
1000
0000
0000
1000
0000
0000
1000
0000
0000
,
0010
0000
0000
0010
0000
0000
0010
0000
0100
0000
0000
0000
0001
0000
0000
0000
,
1001
0000
0110
0000
0100
0000
0001
0010
,
0100
0000
0110
0000
0010
0000
1000
0100
,
0010
0000
0001
1000
0001
1000
0001
1000
,
0100
0000
1000
0001
1000
0001
1000
0001
,
0100
0000
0110
0000
0010
0000
1000
0100
,
0010
0000
0110
0000
0100
0000
0001
0010
,
0100
0000
1000
0001
1000
0000
0001
1000
,
0001
0000
0100
0010
0100
0000
0010
0100
,
0010
0000
1000
0001
1000
0001
1000
0010
,
1000
0000
0001
1000
0001
1000
0001
0100
,
0001
0000
0010
0100
0010
0100
0010
0100
,
0000
1001
0000
0001
1000
0010
1000
0001
,
1000
0000
0010
0100
0001
0000
1000
0100
,
1000
0000
0100
0010
0001
0000
1000
0010
,
1000
0000
0100
0010
0100
0010
0100
0010
,
0100
0010
0100
0010
0001
0100
0001
1000
,
1000
1000
0001
0000
0000
0000
0000
0000
;

//---------------dance-single - ----------------
#NOTES:
     dance-single:
     :
     Beginner:
     1:
     0.089,0.123,0.096,0.000,0.000:
1000
0000
0000
0000
,
0000
0000
0000
0000
,
0001
0000
0000
0000
,
1001
1000
0000
0000
,
1000
0000
0000
1000
,
0000
0001
0000
0000
,
0001
0000
0000
0001
,
0000
1000
0000
0000
,
1000
0000
0000
1000
,
0000
0010
0000
0010
,
0000
0010
0000
0000
,
0000
0110
0000
0000
,
0000
0001
0000
0000
,
0000
1000
0000
0000
,
0000
0000
0000
0000
,
0000
0110
0000
0000
,
0000
0000
1000
0000
,
0000
0001
0000
0000
,
0000
1000
0000
0000
,
0000
1001
0000
0000
,
0000
0001
0000
0000
,
0000
1000
0000
0000
,
0000
0001
0000
0000
,
0000
0100
0000
0000
,
0000
0000
0010
0000
,
0000
0100
0000
0010
,
0000
0100
0000
0000
,
0000
1001
0000
0000
,
0000
0000
0000
1000
,
0000
1001
0000
0000
,
0000
0000
0000
0000
,
0000
1001
0000
0000
,
0000
0000
0000
0001
,
0000
1001
0000
0000
,
0000
0000
0000
0000
,
0000
1001
0000
0000
,
0000
0001
0000
0000
,
0000
1000
0000
0000
,
0000
0001
0000
0000
,
0000
0100
0000
0000
,
0000
0100
0000
0000
,
0000
0010
0000
0000
,
0000
0100
0000
0000
,
0000
0001
0000
0000
,
0000
0001
0000
0000
,
0000
0010
0000
0000
,
0000
0100
0000
0000
,
0000
1000
0000
0000
,
0000
1000
0000
0000
,
0000
0001
0000
1000
,
0000
0001
0000
0000
,
0000
1001
0000
0000
;
