#TITLE:Gears of Love;
#SUBTITLE:;
#ARTIST:ギガP×レタスP feat. GUMI;
#TITLETRANSLIT:;
#SUBTITLETRANSLIT:;
#ARTISTTRANSLIT:GIGAPxLETTUCEP feat. GUMI;
#CREDIT:DigiMindAxel;
#BANNER:Gears of Love.png;
#BACKGROUND:Gears of Love-bg.png;
#LYRICSPATH:Gears of Love.lrc;
#CDTITLE:DigiMindAxel original simfile.png;
#MUSIC:Gears of Love.mp3;
#METERTYPE:DDR X;
#OFFSET:-10.650;
#SAMPLESTART:51.190;
#SAMPLELENGTH:12.000;
#SELECTABLE:YES;
#BPMS:0.000=94.000;
#STOPS:;
#BGCHANGES:;

//---------------dance-single - ----------------
#NOTES:
     dance-single:
     :
     Easy:
     4:
     0.178,0.174,0.045,0.204,0.000:
1001
0001
0001
0000
,
1000
1000
1000
0000
,
0010
0010
0010
0000
,
0100
0100
0100
0000
,
0001
0001
0001
0000
,
0010
0010
0010
0000
,
0100
0100
0100
0000
,
1000
1000
1000
0000
,
2001
0000
3002
0000
,
0203
0000
0302
0000
,
2003
0000
3200
0000
,
2300
0000
3002
0000
,
2003
0000
3200
0000
,
0320
0000
0032
0000
,
2003
0000
3020
0000
,
0230
0000
0300
0000
,
0110
0010
0010
0100
,
0010
0010
0010
1000
,
0002
0000
2003
0000
,
3002
0000
0203
0000
,
0301
0001
0001
0100
,
0010
0010
0010
1000
,
0200
0000
0320
0000
,
0032
0000
2003
0000
,
3001
0000
0000
0000
,
0000
0000
0000
0000
,
2000
0000
0000
0000
,
3002
0000
0000
0003
,
1001
0001
0001
0100
,
0010
0010
1000
0100
,
0010
0010
0010
0001
,
1000
1000
1000
0100
,
1000
1000
0010
0100
,
0001
0001
0001
0010
,
0100
0100
0100
0100
,
0010
0010
0010
0010
,
1001
1000
1000
0001
,
0100
0100
0100
0001
,
0010
0010
0010
0100
,
1000
1000
1000
0001
,
0100
0100
0100
0001
,
1000
1000
1000
0100
,
0010
0010
0010
0010
,
0001
0001
0001
0100
,
0210
0000
0000
0000
,
0320
0000
0000
0000
,
0030
0000
0000
0000
;

//---------------dance-single - ----------------
#NOTES:
     dance-single:
     :
     Medium:
     7:
     0.220,0.243,0.076,0.083,0.000:
1001
0000
0001
0000
0100
0001
0100
0000
,
0001
1000
0010
0110
,
1000
0000
0100
0000
0010
0100
0010
0000
,
0001
0000
1000
0000
0010
1000
0010
0000
,
1001
0000
0001
0000
0010
0001
0010
0000
,
0001
1000
0100
1100
,
1000
0000
0001
0000
0100
0001
0100
0000
,
0001
0000
1000
0000
0100
1000
0100
0000
,
1001
0001
0020
0000
,
0130
1000
0020
0000
,
0130
0001
2000
0000
,
3100
0010
0002
0000
,
1003
0001
0200
0000
,
0301
1000
0200
0000
,
0310
0001
0200
0000
,
0310
0000
0000
0000
,
0110
0000
0100
0100
0100
0000
0001
0000
,
1000
0000
0100
0100
0100
0000
1000
0000
,
0001
0000
0100
0001
0000
0100
0000
0000
,
0001
0000
1000
0100
0000
0000
0000
0000
,
1000
0000
0001
0100
0001
0000
1000
0000
,
0100
0000
1000
0001
1000
0000
0010
0000
,
0100
0000
0001
1000
0000
0100
0000
0000
,
1000
0000
0001
1000
0000
0000
0000
0000
,
1001
0000
0010
0000
,
0010
0000
0010
0000
,
0010
0000
0010
0000
,
0010
0000
0000
0000
,
1001
0000
1000
0000
0001
0100
0010
0000
,
0100
0000
0001
0000
0010
0100
1000
0000
,
0002
0000
0000
1003
0000
0100
0000
1000
,
0001
0000
0100
0001
0000
0000
0000
0000
,
1000
0000
0001
1000
0001
0000
0010
0001
,
0010
0000
0100
0010
0100
0000
1000
0001
,
0100
0000
0001
1000
0000
0100
0000
1000
,
0001
0000
0010
0100
0000
0000
1000
0001
,
0100
0000
0001
1000
0100
0000
0010
0001
,
0100
0000
0001
0010
0100
0000
0010
0001
,
0100
0000
0001
1000
0000
0100
0000
1000
,
0001
0000
0010
0100
0000
0000
1000
0000
,
1001
0000
0001
0100
0001
0000
0010
0100
,
1000
0000
0010
1000
0100
0000
1000
0001
,
0010
0000
0001
1000
0000
0100
0000
1000
,
0001
0000
0100
0010
0000
0000
0000
0000
,
0220
0000
0000
0030
,
0002
0000
0000
0000
,
0303
0000
0000
0000
;

//---------------dance-single - ----------------
#NOTES:
     dance-single:
     :
     Hard:
     9:
     0.339,0.330,0.060,0.060,0.249:
1001
0001
0001
0000
0100
0001
0010
0000
,
0001
0000
0001
0000
0001
0000
0000
0000
0000
0110
0000
0000
0110
0000
0000
0000
,
1000
1000
1000
0000
0100
1000
0010
0000
,
1000
0000
1000
0000
1000
0000
0000
0000
0000
0010
0000
0000
0010
0000
0100
0000
,
0001
0001
0001
0000
0010
0100
1000
0000
,
0010
0000
0010
0000
0010
0000
0000
0000
0000
1001
0000
0000
1001
0000
0000
0000
,
1000
1000
1000
0000
0010
0100
0001
0000
,
0010
0000
0010
0000
0010
0000
0000
0000
0000
0100
0000
0000
0100
0000
1000
0000
,
0001
0000
0000
0010
0000
0000
0200
0000
0000
0000
0000
0000
0310
0000
0001
0000
,
1000
0000
0000
0010
0000
0000
0200
0000
0000
0010
0000
0000
0310
0000
1000
0000
,
0100
0000
0000
0010
0000
0000
0002
0000
0000
0000
0000
0000
1003
0000
0000
0000
,
0001
0100
0010
1000
0100
0010
0100
0000
,
1000
0000
0000
0010
0000
0000
0200
0000
0000
0000
0000
0000
0310
0000
1000
0000
,
0001
0000
0000
0010
0000
0000
0200
0000
0000
1000
0000
0000
1300
0000
0001
0000
,
0100
0000
0000
0010
0000
0000
0200
0000
0000
0000
0000
0000
0301
0000
1000
0000
,
0001
0000
0010
0000
0100
0000
1000
0000
0001
0100
0001
0100
0001
0100
0010
0000
,
0110
0000
0000
1000
0000
0100
0000
0001
0000
0000
0100
0000
1000
0000
0001
0000
,
0100
0000
0000
0001
0000
0100
0000
1000
0000
0000
0100
0000
0001
0000
1000
0000
,
0100
0010
1000
0010
0001
1000
0001
0000
,
1000
0000
0010
0000
0100
0000
1000
0000
0100
0000
0001
0000
1000
0001
1000
0001
,
1000
0000
0000
0001
0000
0010
0000
1000
0000
0000
0010
0000
0001
0000
1000
0000
,
0100
0000
0000
1000
0000
0010
0000
0001
0000
0000
0010
0000
1000
0000
0001
0000
,
0100
0010
0001
0010
1000
0001
1000
0000
,
0001
0010
0100
0001
0100
1000
0001
0000
,
1001
1000
0000
1000
,
0000
0001
0000
0001
,
0000
1000
0000
1000
,
0010
0000
0000
0010
0100
0000
0000
0010
0100
0000
0000
0010
0100
0000
0000
0000
,
1001
0000
0000
0001
0000
0100
0000
0010
0000
0000
0001
0000
0010
0000
1000
0000
,
0001
0000
0000
1000
0000
0100
0000
0010
0000
0000
1000
0000
0010
0000
0001
0000
,
1000
0001
0100
1000
0100
0001
0000
1000
,
0001
0000
0010
0000
1000
0000
0010
0000
0001
0000
1000
0000
0001
1000
0001
1000
,
0001
0000
0000
1000
0000
0010
0000
0100
0000
0000
1000
0000
0100
0000
0001
0000
,
1000
0000
0000
0001
0000
0010
0000
0100
0000
0000
0001
0000
0100
0000
1000
0000
,
0001
1000
0010
0001
0010
1000
0000
0001
,
1000
0000
0100
0000
0001
0000
0100
0000
1000
0000
0001
0000
1000
0001
1000
0001
,
1000
0000
0000
0001
0000
0100
0000
0010
0000
0000
0001
0000
0010
0000
1000
0000
,
0001
0000
0000
1000
0000
0100
0000
0010
0000
0000
1000
0000
0010
0000
0001
0000
,
1000
0001
0100
1000
0100
0001
0000
1000
,
0001
0000
0010
0000
1000
0000
0010
0000
0001
0000
0100
0000
0010
1000
0010
1000
,
0010
0000
0000
1000
0000
0010
0000
0100
0000
0000
1000
0000
0100
0000
0001
0000
,
1000
0000
0000
0001
0000
0010
0000
0100
0000
0000
0001
0000
0100
0000
1000
0000
,
0001
1000
0010
0001
0010
1000
0000
0001
,
1000
0000
0100
0000
0001
0000
0100
0000
1000
0000
0001
0000
0100
0010
0100
0010
,
0200
0000
0000
0001
0000
0000
0001
0000
0000
0000
0000
0000
0300
0000
0000
0000
,
0002
0000
0000
1000
0000
0000
1000
0000
0000
0000
0000
0000
0000
0000
0000
0000
,
0003
0000
0000
0000
;

//---------------dance-single - ----------------
#NOTES:
     dance-single:
     :
     Challenge:
     13:
     0.568,0.521,0.317,0.348,0.608: // measure 1
1001
0000
0001
0000
1000
0000
0001
0010
0000
0010
0001
0000
1000
0000
0000
0000
,  // measure 2
0001
0000
1000
0000
0001
0000
1000
0010
0000
0110
0000
0100
0110
0000
0010
0100
,  // measure 3
0001
0000
1000
0000
0010
0000
1000
0001
0000
0001
1000
0000
0001
0000
0000
0000
,  // measure 4
1000
0000
0001
0000
0010
0000
0001
1000
0000
1000
0000
0010
0100
0000
0010
0100
,  // measure 5
0001
0000
1000
0000
0100
0000
1000
0001
0000
0001
1000
0000
0100
0000
0000
0000
,  // measure 6
0010
0000
0001
0000
0100
0000
0010
0100
0000
0101
0000
0001
0101
0000
0100
0001
,  // measure 7
1000
0000
0100
0000
1000
0000
0010
0100
0000
0100
0010
0000
1000
0000
0000
0000
,  // measure 8
0001
0000
1000
0000
0100
0000
1000
0001
0000
0001
0000
0100
0001
1000
0001
1000
,  // measure 9
0001
0000
0010
0001
0000
0001
0020
0000
0100
0000
0100
0000
0130
0000
1000
0001
,  // measure 10
1000
0000
0010
1000
0000
1000
0010
0000
0000
0110
0000
0100
0101
0000
0001
0010
,  // measure 11
0100
0000
1000
0001
0000
0001
2000
0000
0100
0000
0100
0000
3100
0000
1000
0001
,  // measure 12
1000
0000
0010
0000
0100
0000
0001
1000
0000
1000
0000
0010
0100
0001
0100
0001
,  // measure 13
1000
0000
0100
1000
0000
1000
0200
0000
0010
0000
0010
0000
0310
0000
0001
0100
,  // measure 14
0001
0000
0010
0100
0000
0100
0010
0000
0000
0011
0000
0001
0011
0000
0010
0100
,  // measure 15
1000
0000
0001
0100
0000
0100
0002
0000
1000
0000
1000
0000
1003
0000
0001
0000
,  // measure 16
1000
0000
0000
0000
0000
0000
0000
0000
0000
0000
0000
0000
0001
0000
0000
0000
1000
0000
0010
1000
0010
0000
1000
0000
0100
0000
0010
0000
0001
0000
0100
0000
,  // measure 17
0101
0000
0001
1000
0000
0100
0000
0002
0000
0000
0103
0000
1000
0000
0001
0000
,  // measure 18
1001
0000
1000
0001
0000
0100
0000
0010
0000
1010
0000
1000
1001
0000
0001
0100
,  // measure 19
0020
0000
1000
0000
2030
0000
0100
0000
3100
0000
1100
0000
1000
0000
0001
1000
,  // measure 20
0002
0000
0100
0000
0103
0000
0020
0000
0100
0000
0130
0000
0001
1000
0010
1000
,  // measure 21
0001
0000
1000
0001
0000
0100
0000
2000
0000
0000
3100
0000
0001
0000
1000
0000
,  // measure 22
1001
0000
0001
1000
0000
0100
0000
0010
0000
0011
0000
0001
1001
0000
1000
0010
,  // measure 23
0200
0000
0001
0000
0302
0000
1000
0000
1003
0000
1001
0000
0001
0000
1000
0001
,  // measure 24
2000
0000
0000
0000
0010
0000
0000
0000
3020
0000
0000
0000
0100
0000
0000
0000
0130
0000
0001
1000
0001
0000
1000
0000
0001
0000
0010
0000
0100
0000
1000
0000
,  // measure 25
1200
1000
0320
0001
,  // measure 26
0230
1000
0320
0001
,  // measure 27
0230
1000
0320
0001
,  // measure 28
0130
0000
0000
0000
0000
0000
1000
0000
0001
0000
0000
0000
0000
0000
1000
0000
0001
0000
1000
0001
1000
0000
0001
0000
0010
0000
0100
0000
1000
0000
0001
0000
,  // measure 29
0101
0000
0001
1000
0000
0010
0000
0210
0000
0000
0301
1000
0100
1000
0001
0000
,  // measure 30
1000
0000
0001
1000
0000
1000
0000
0010
0100
0101
0000
0001
1001
1000
0010
0100
,  // measure 31
0002
0000
0010
0000
0023
0000
0100
0000
0130
0000
1001
0000
1000
0000
0001
1000
,  // measure 32
0002
0000
0100
0000
0203
0000
0010
0000
0310
0000
1000
0000
0001
1000
0100
1000
,  // measure 33
0001
0000
1000
0001
0000
0010
0000
0120
0000
0000
1030
0001
0100
0001
1000
0000
,  // measure 34
0001
0000
1000
0001
0000
0100
0000
0010
1000
1010
0000
1000
1001
0001
0010
0100
,  // measure 35
2000
0000
0010
0000
3020
0000
0100
0000
0130
0000
0101
0000
0001
0000
1000
0001
,  // measure 36
2000
0000
0000
0000
0100
0000
0000
0000
3200
0000
0000
0000
0010
0000
0000
0000
0310
0000
0001
1000
0001
0000
1000
0000
0001
0000
0100
0000
0010
0000
1000
0000
,  // measure 37
1001
0000
0001
1000
0000
0100
0000
2100
0000
0000
3001
0100
0010
1000
0001
0000
,  // measure 38
1000
0000
0001
1000
0000
0100
0000
0010
0001
0101
0000
0100
0110
0010
1000
0001
,  // measure 39
2001
0000
0010
0000
3020
0000
0100
0000
0130
0000
0101
0000
0001
0000
1000
0001
,  // measure 40
2000
0000
0100
0000
3200
0000
0010
0000
0310
0000
1001
0000
0001
1000
0010
1000
,  // measure 41
1001
0000
0001
1000
0000
0010
0000
1020
0000
0000
1030
0001
0010
0100
1000
0000
,  // measure 42
0001
0000
1000
0001
0000
0100
0000
0010
0100
0101
0000
0001
1001
1000
0100
0010
,  // measure 43
0012
0000
1000
0000
2003
0000
0010
0000
3010
0000
0110
0000
0100
0000
0001
1000
,  // measure 44
0002
0000
0000
0000
0010
0000
0000
0000
0023
0000
0000
0000
0100
0000
0000
0000
0130
0000
1000
0001
1000
0000
0001
0000
1000
0000
0100
0000
0010
0000
0001
0000
,  // measure 45
2001
0000
0000
3200
0000
0000
2300
0000
0000
3000
0001
1000
0001
0010
0100
1000
,  // measure 46
0002
0000
0000
0203
0000
0000
0302
0000
0000
0000
0000
0000
0000
0000
0000
0000
,  // measure 47
0003
0000
0000
0000
;

//---------------dance-single - ----------------
#NOTES:
     dance-single:
     :
     Beginner:
     2:
     0.082,0.100,0.038,0.000,0.000:
0001
0000
0000
0000
,
0010
0000
0000
0000
,
0001
0000
0000
0000
,
0100
0000
0000
0000
,
0001
0000
0000
0000
,
0010
0000
0000
0000
,
0001
0000
0000
0000
,
1000
0000
0000
0000
,
1001
0000
0000
0000
,
0010
0000
0100
0000
,
0010
0000
0000
0000
,
1000
0000
0001
0000
,
1000
0000
0000
0000
,
0100
0000
1000
0000
,
0100
0000
0000
0000
,
1000
0000
0000
0000
,
1001
0000
0001
0000
,
0100
0000
0010
0000
,
1000
0000
1000
0000
,
0001
0000
0001
0000
,
1000
0000
0100
0000
,
0010
0000
0001
0000
,
1000
0000
1000
0000
,
0001
0000
0001
0000
,
1001
0000
0000
0000
,
0000
0000
0000
0000
,
0010
0000
0000
0000
,
0010
0000
0000
0000
,
0110
0000
0100
0000
,
0010
0000
0100
0000
,
0001
0000
1000
0000
,
0001
0000
1000
0000
,
0100
0000
0010
0000
,
0100
0000
0010
0000
,
0001
0000
0100
0000
,
0010
0000
0100
0000
,
0010
0000
1000
0000
,
0001
0000
1000
0000
,
0001
0000
0001
0000
,
1000
0000
1000
0000
,
0001
0000
0010
0000
,
0100
0000
0010
0000
,
0100
0000
1000
0000
,
0001
0000
0100
0000
,
0110
0000
0000
0000
;
