#TITLE:紅蓮の焔;
#SUBTITLE:;
#ARTIST:劇団レコード feat. 浅葉リオ;
#TITLETRANSLIT:GUREN NO HONOO;
#SUBTITLETRANSLIT:;
#ARTISTTRANSLIT:GEKIDAN RECORD feat. RIO ASABA;
#CREDIT:SupremeX & DigiMindAxel;
#BANNER:GUREN NO HONOO.png;
#BACKGROUND:GUREN NO HONOO-bg.png;
#LYRICSPATH:GUREN NO HONOO.lrc;
#CDTITLE:GuitarFreaksXG & DrumManiaXG.png;
#MUSIC:GUREN NO HONOO.mp3;
#METERTYPE:DDR X;
#OFFSET:-7.940;
#SAMPLESTART:43.910;
#SAMPLELENGTH:12.000;
#SELECTABLE:YES;
#BPMS:0.000=155.000;
#STOPS:;
#BGCHANGES:-22.000=GUREN NO HONOO.avi=1.000=1=1=0,
224.000=GUREN NO HONOO-bg.png=1.000=1=0=1,
99999=-nosongbg-=1.000=0=0=0 // don't automatically add -songbackground-
;

//---------------dance-single - ----------------
#NOTES:
     dance-single:
     :
     Hard:
     9:
     0.523,0.479,0.181,0.211,0.000: // measure 1
2000
0000
0000
3001
0010
0100
1000
0001
,  // measure 2
0002
0000
0000
1003
2000
0000
3100
0000
,  // measure 3
1000
0001
0100
0000
0010
1000
0100
0001
,  // measure 4
0100
1000
0010
0000
0200
0000
0000
0000
,  // measure 5
0310
1000
1000
0100
0010
0001
0010
1000
,  // measure 6
0010
0001
0100
0010
0010
0000
0000
0000
,  // measure 7
1000
0001
0100
0001
0100
0010
1000
0100
,  // measure 8
0000
0100
0010
0100
1000
0001
0100
0010
,  // measure 9
0000
0010
0100
0001
0010
0100
0010
0001
,  // measure 10
2000
3200
0302
0203
,  // measure 11
1300
0000
0100
1000
0010
0100
0001
0010
,  // measure 12
0000
0010
0100
0010
0001
1000
0010
0100
,  // measure 13
0000
0100
0001
1000
0100
0010
0001
0100
,  // measure 14
0010
0100
0001
0000
0101
0000
1000
0000
,  // measure 15
1001
0100
0100
0100
,  // measure 16
0100
0010
1000
0100
0010
0001
0010
0100
,  // measure 17
1000
1100
0110
0011
,  // measure 18
0010
0100
0001
0010
0100
1000
0100
0010
,  // measure 19
0001
0101
0110
1010
,  // measure 20
0010
0001
1000
0100
0010
0010
0100
1000
,  // measure 21
0010
0000
0110
0000
1001
0000
0010
1000
,  // measure 22
0001
0201
0000
0310
,  // measure 23
0010
1000
0100
0000
0001
0000
0100
0000
,  // measure 24
1000
0010
0010
0010
,  // measure 25
1020
0000
0000
0130
0001
1000
0100
0000
,  // measure 26
0010
0100
1000
0010
0100
0001
0010
0000
,  // measure 27
2100
0000
0000
3010
0100
0001
0010
0000
,  // measure 28
0100
0000
0010
0001
0100
0010
1000
0000
,  // measure 29
1001
1000
0001
0010
,  // measure 30
2000
0000
3010
0000
0001
0000
0100
0010
,  // measure 31
2000
0000
0000
3100
0010
0001
0100
0010
,  // measure 32
0100
0100
0100
0100
,  // measure 33
0201
0000
0000
0310
1000
0010
0100
0010
,  // measure 34
1000
0000
0100
0010
0001
0010
0100
0000
,  // measure 35
0012
0000
0000
0103
0010
1000
0100
0000
,  // measure 36
0010
0000
0100
1000
0010
0100
0001
0000
,  // measure 37
1001
1000
0100
0002
,  // measure 38
0103
1000
0020
0130
,  // measure 39
0001
0100
0010
0000
0100
0010
0000
2002
,  // measure 40
0000
0000
0000
3003
,  // measure 41
1000
0000
0010
0100
0001
0100
1000
0100
,  // measure 42
0001
1000
0010
0100
0010
0100
0010
0000
,  // measure 43
0100
0001
0010
1000
0010
0001
0100
0010
,  // measure 44
1000
0100
0010
0001
0100
0010
0100
0000
,  // measure 45
0001
0100
1000
0100
0001
0100
0010
0100
,  // measure 46
0001
0010
1000
0010
0001
0100
0010
0100
,  // measure 47
0001
0010
0100
0010
0001
0010
0100
1000
,  // measure 48
0100
0010
0100
1000
0001
0000
0000
0000
,  // measure 49
0100
0001
0010
0100
1000
0100
0001
0100
,  // measure 50
1000
0100
0010
0001
0000
0100
0010
0100
,  // measure 51
0001
0010
1000
0010
0001
0010
0100
0010
,  // measure 52
0001
0100
1000
0100
0001
1000
0001
0100
,  // measure 53
0010
0000
1000
0100
0000
1000
0100
0010
,  // measure 54
0001
0000
0001
0100
0000
0001
0100
0010
,  // measure 55
1000
1000
0000
0001
0001
0000
2000
0002
,  // measure 56
0000
0000
0000
0000
,  // measure 57
3003
0000
0000
0000
;

//---------------dance-single - ----------------
#NOTES:
     dance-single:
     :
     Medium:
     7:
     0.411,0.394,0.101,0.181,0.000:
2000
0000
3001
0010
,
0200
0000
0310
0001
,
1001
0100
1100
0001
,
0011
0100
0010
0000
,
1000
0001
0010
0100
1000
0100
0010
0001
,
1000
0100
0010
0001
0100
0000
0000
0000
,
0010
0100
0010
1000
0100
0000
0010
0000
,
0100
0010
0001
0100
0010
0000
0100
0000
,
0010
0000
1000
0010
1000
0001
0100
0001
,
1000
0001
1000
0001
,
0100
0010
0100
0001
0010
0000
0100
0000
,
0010
0100
1000
0010
0100
0000
0001
0000
,
1000
0000
0001
0010
0100
1000
0010
0100
,
0010
1000
0010
0100
,
0020
0000
0000
0030
,
1000
0100
0010
0001
0010
0100
1000
0000
,
0010
0010
0010
0010
,
1000
0010
0100
0001
0100
0010
1000
0000
,
0100
0100
0100
0100
,
1000
1100
0010
0110
,
0001
0100
0010
0100
0001
0000
0000
0000
,
1001
0100
0010
0001
,
0100
0010
0100
0000
0100
0000
0100
0000
,
0220
0000
0000
0330
,
0001
0000
0001
0100
0020
0000
0000
0000
,
1030
0000
0010
0100
0010
0000
1000
0001
,
1000
0000
1000
0010
0200
0000
0000
0000
,
0301
0000
0100
0010
0100
0000
0001
1000
,
0001
0100
0010
0100
,
0001
0000
1000
0100
0010
0001
1000
0000
,
0002
0000
0000
1000
1003
0000
0001
0000
,
0010
1000
0010
0001
,
0200
0000
0000
0010
0310
0000
1000
0000
,
0001
0000
1000
0010
1000
0000
0010
0100
,
0002
0000
0000
1000
1003
0000
0010
0000
,
0100
0000
0001
1000
0100
0010
0001
0100
,
0010
1000
0010
0100
,
0001
0010
0100
1000
,
0020
0000
0000
0100
0130
0000
0000
0220
,
0000
0000
0330
0000
,
0100
0001
0010
0100
,
1000
0100
0001
0100
,
1000
0010
0100
0000
0010
0100
0001
0000
,
0100
0010
0100
0010
0100
0000
0000
0000
,
0001
1000
0010
0000
0100
0001
0010
0000
,
0001
0100
0010
1000
,
0001
1000
0010
1000
0001
0000
0100
0001
,
0010
0000
0100
1000
0010
0000
0000
0000
,
1000
0010
0100
0010
2000
0000
0000
0000
,
3001
0100
0010
0200
0000
0000
0300
0000
,
0001
0100
1000
0100
,
0001
0010
0100
1000
0010
0000
0100
0000
,
1002
0000
0000
0100
0000
0103
0000
0010
,
0200
0000
0000
0001
0000
0301
1000
0100
,
1000
0000
0000
1001
0000
1000
0001
2000
,
0000
0000
0000
0000
,
3000
0000
0000
0000
;

//---------------dance-single - ----------------
#NOTES:
     dance-single:
     :
     Easy:
     4:
     0.218,0.253,0.111,0.191,0.000:
2000
0000
3001
0000
,
0020
0000
0130
0000
,
1001
0000
1001
0000
,
1001
0000
0000
0000
,
2000
0000
3200
0000
,
0320
0000
0032
0003
,
1000
0000
0100
0000
,
1000
0000
0010
0000
,
0100
0000
0001
0000
,
0010
0000
0100
0000
,
0000
1001
0000
0010
,
0000
0110
0000
0100
,
0000
1001
0000
0010
,
0000
1000
0000
0001
,
1000
0000
0000
0000
,
0010
0100
0010
0100
,
0010
0000
1000
0000
,
0001
0100
0001
0100
,
0001
0000
1000
0000
,
0100
1000
0100
1000
,
0010
0000
0100
0000
,
0001
0000
1000
0000
,
0001
0000
0000
0000
,
1001
0000
0000
0000
,
2000
0000
3001
0000
,
0010
0000
0100
0000
,
0020
0000
0130
0000
,
0001
0000
1000
0000
,
1001
0000
0010
0000
,
0010
0000
0010
0100
,
0010
0000
0010
0000
,
0100
0010
0100
0010
,
0200
0000
0310
0000
,
1000
0001
1000
0001
,
2000
0000
3100
0000
,
0010
0001
0010
0001
,
0100
0000
0010
0000
,
0010
0000
0010
0000
,
0220
0000
0000
0000
,
0330
0000
0000
0000
,
1000
0000
0100
0000
,
1000
0000
0010
0000
,
0100
0001
0100
0000
,
0010
1000
0010
0000
,
0100
0010
0100
0010
,
0100
0000
0010
0100
,
0002
0000
2003
0000
,
3002
0000
1003
0000
,
0010
0100
0010
0000
,
1000
0001
1000
0000
,
0100
0000
0010
0000
,
0001
0000
1000
0000
,
0020
0000
0000
0000
,
0230
0000
0000
0300
,
1001
0000
0000
0001
0000
0000
0000
2002
,
0000
0000
0000
0000
,
3003
0000
0000
0000
;

//---------------dance-single - ----------------
#NOTES:
     dance-single:
     :
     Challenge:
     11:
     0.608,0.676,0.151,0.231,0.156: // measure 1
0002
0000
0000
0000
0000
0000
1003
0010
1000
0000
0001
0000
0010
0000
0100
0000
,  // measure 2
0020
0000
0000
0000
0000
0000
0130
1000
0100
0000
0000
0000
1100
0000
0000
0000
,  // measure 3
1000
0000
0010
0100
0010
0000
1000
0000
0001
0000
0010
0001
0010
0000
0100
0000
,  // measure 4
1000
0000
0010
1000
0010
0000
0100
0000
0001
0000
0000
0000
0101
0000
0000
0000
,  // measure 5
1000
0100
0001
0100
0010
0001
0100
1000
,  // measure 6
0100
0000
0010
0000
1000
0000
0010
0000
0100
0000
0000
0000
0010
0100
0010
0100
,  // measure 7
0010
1000
0100
0010
0100
1000
0010
0100
,  // measure 8
0000
0100
0001
0100
0010
1000
0100
0010
,  // measure 9
0000
0010
0001
0100
0010
1000
0010
0100
,  // measure 10
0001
0011
0110
1100
,  // measure 11
0100
0001
0010
0100
0010
0001
1000
0100
,  // measure 12
0000
0100
1000
0010
0100
0001
0010
0100
,  // measure 13
0000
0100
0010
0001
1000
0100
1000
0001
,  // measure 14
0100
0101
0110
1010
,  // measure 15
1001
0010
0010
0010
,  // measure 16
0010
0100
0001
0100
1000
0001
0010
1000
,  // measure 17
0010
0010
0100
0100
0010
1000
0001
0001
,  // measure 18
0100
0010
1000
0010
0001
1000
0100
0001
,  // measure 19
0100
0100
0010
0010
0100
0001
1000
1000
,  // measure 20
0001
0010
1000
0010
0001
1000
0010
0100
,  // measure 21
0110
0000
0000
1100
0000
0000
0011
0000
0000
0001
0010
0100
,  // measure 22
1000
0000
0010
1000
0100
0000
0010
0100
,  // measure 23
1000
0001
0000
0100
0000
1000
0000
0100
,  // measure 24
0001
0000
0000
0000
0100
0000
0000
0000
0100
0000
0000
0000
0100
0010
0100
0010
,  // measure 25
0200
0000
0000
0301
1000
0100
0010
0000
,  // measure 26
0001
0100
1000
0100
0001
1000
0100
1000
,  // measure 27
0020
0000
0000
1030
0001
0010
0100
0000
,  // measure 28
1000
0100
0001
0100
1000
0010
0100
0001
,  // measure 29
1001
0000
0000
0000
0000
0000
0000
0000
1000
0000
0000
0100
0000
0000
0001
0000
,  // measure 30
0100
2000
3200
0320
,  // measure 31
0130
1000
0010
0100
0001
0010
0001
0100
,  // measure 32
0010
0000
0000
0000
0010
0000
0000
0000
0010
0000
0000
0000
0010
0100
0010
0100
,  // measure 33
0020
0000
0000
1030
0001
0010
0100
0000
,  // measure 34
1000
0010
0001
0010
1000
0010
0100
0001
,  // measure 35
0200
0000
0000
0301
1000
0100
0010
0000
,  // measure 36
0001
0100
1000
0100
0001
1000
0010
0100
,  // measure 37
0110
0000
0000
0000
0000
0000
0000
0000
0001
0000
0000
0010
0000
0000
1000
0000
,  // measure 38
0010
0002
0023
0230
,  // measure 39
0310
0001
0001
0100
0010
0010
1000
0002
,  // measure 40
0000
0000
1000
0000
1003
0000
0100
0000
0010
0000
0001
1000
0001
0000
0100
0000
,  // measure 41
0002
0000
0000
1003
0010
0100
0010
1000
,  // measure 42
0200
0000
0000
0310
0001
0100
0010
0000
,  // measure 43
1000
0000
1000
0000
0100
1000
0010
0000
0100
0000
0100
0000
0001
0010
0100
0000
,  // measure 44
1000
0010
0001
0010
1000
0010
0110
0000
,  // measure 45
0001
0200
0000
0010
0310
1000
0100
0000
,  // measure 46
1000
0020
0000
0100
0130
0001
1000
0001
,  // measure 47
0100
0010
0100
0010
0100
0010
0100
0000
0001
1000
0001
1000
0001
1000
0001
0000
,  // measure 48
1000
0000
0100
0000
0001
0000
0100
0000
1000
0000
0001
0000
0100
0001
0100
0000
,  // measure 49
0001
0000
0100
0001
0010
0000
0100
0000
2000
0000
0000
0000
3010
0000
1000
0000
,  // measure 50
0001
0000
0010
0100
1000
0000
0020
0000
0000
0000
0130
0000
0001
0000
1000
0000
,  // measure 51
0001
1000
0001
0000
0100
0001
0100
0000
0010
1000
0010
0000
1000
0001
1000
0000
,  // measure 52
0001
0010
1000
0010
0001
0100
0010
1000
,  // measure 53
0200
0000
0010
0310
0000
0001
0010
0100
,  // measure 54
0020
0000
0100
0130
0000
1000
0100
0010
,  // measure 55
0001
0100
0100
0001
1000
1000
0020
0200
,  // measure 56
0000
0000
0000
0000
,  // measure 57
0330
0000
0000
0000
;

//---------------dance-single - ----------------
#NOTES:
     dance-single:
     :
     Beginner:
     1:
     0.078,0.110,0.050,0.000,0.000:
0001
0000
0000
0000
,
1000
0000
0000
0000
,
0001
0000
0000
0000
,
0001
0000
0000
0000
,
1001
0000
0000
0000
,
0000
0000
0000
0000
,
0100
0000
0000
0000
,
0100
0000
0000
0000
,
0100
0000
0000
0000
,
0000
0000
0000
0000
,
0010
0000
0000
0000
,
0010
0000
0000
0000
,
0010
0000
0000
0000
,
0000
0000
0000
0000
,
1000
0000
0000
0000
,
0001
0000
0000
0000
,
0001
0000
0000
0000
,
0010
0000
0000
0000
,
0100
0000
0000
0000
,
1000
0000
0000
0000
,
1000
0000
0000
0000
,
0010
0000
0000
0000
,
0100
0000
0000
0000
,
0010
0000
0000
0000
,
0110
0000
0000
0000
,
0000
0000
0000
0000
,
1000
0000
0000
0000
,
0001
0000
0000
0000
,
1000
0000
0000
0000
,
0001
0000
0000
0000
,
1000
0000
0000
0000
,
0010
0000
0000
0000
,
0010
0000
0000
0000
,
0010
0000
0000
0000
,
0100
0000
0000
0000
,
0010
0000
0000
0000
,
0110
0000
0000
0000
,
0000
0000
0000
0000
,
1000
0000
0000
0000
,
0000
0000
0000
0000
,
1001
0000
0000
0000
,
0000
0000
0000
0000
,
0001
0000
0000
0000
,
0100
0000
0000
0000
,
0100
0000
0000
0000
,
1000
0000
0000
0000
,
0010
0000
0000
0000
,
0100
0000
0000
0000
,
0001
0000
0000
0000
,
0001
0000
0000
0000
,
1000
0000
0000
0000
,
1000
0000
0000
0000
,
1001
0000
0000
0000
,
0001
0000
0000
0000
,
1000
0000
0000
0000
0000
0000
0000
0001
;
