#TITLE:ぐっばい my crybaby;
#SUBTITLE:;
#ARTIST:鈴木 友里絵;
#TITLETRANSLIT:GOODBYE my crybaby;
#SUBTITLETRANSLIT:;
#ARTISTTRANSLIT:YURIE SUZUKI;
#CREDIT:DigiMindAxel;
#BANNER:GOODBYE my crybaby.png;
#BACKGROUND:GOODBYE my crybaby-bg.png;
#LYRICSPATH:GOODBYE my crybaby.lrc;
#CDTITLE:GITADORA.png;
#MUSIC:GOODBYE my crybaby.mp3;
#METERTYPE:DDR X;
#OFFSET:-14.145;
#SAMPLESTART:35.477;
#SAMPLELENGTH:12.000;
#SELECTABLE:YES;
#BPMS:0.000=157.000;
#STOPS:;
#BGCHANGES:;

//---------------dance-single - ----------------
#NOTES:
     dance-single:
     :
     Easy:
     4:
     0.205,0.248,0.048,0.016,0.000:
1000
0000
0100
0000
,
0100
0000
0100
0000
,
0010
0000
0001
0000
,
0001
0000
0001
0000
,
1000
0000
1000
0000
,
0100
0000
0100
0000
,
0110
0000
0010
0000
,
0100
0000
0000
0000
,
0010
0000
0100
0000
,
0010
0000
0000
0000
,
0100
0000
0010
0000
,
1000
0000
0100
0000
,
0010
0000
0001
0000
,
1000
0001
1000
1000
,
1001
0001
1000
0000
,
0001
1000
0100
0000
,
0010
0001
0100
0000
,
0010
0100
0010
0100
,
0001
0010
0100
0000
,
0010
0001
0010
0000
,
0100
1000
0100
0000
,
1000
0100
0010
0001
,
1000
0001
1000
0000
,
0100
1000
0010
0000
,
0100
0001
0010
0000
,
0100
1000
0100
1000
,
0001
0000
1000
0000
,
0100
0000
1000
0000
,
0001
0000
0100
0000
,
0010
0000
0100
0000
,
0001
1000
0001
1000
,
0001
1000
0000
0000
,
0001
0000
0100
0000
,
0010
0000
0100
0000
,
0001
0000
1000
0000
,
0100
0000
0010
0000
,
0100
0000
1000
0000
,
0100
0000
1000
0000
,
0001
0000
0100
0000
,
0010
0100
0010
0100
,
0001
0000
0010
0000
,
0100
0000
0000
0000
,
1000
0000
0100
0000
,
0010
0000
0000
0000
,
1001
0000
1000
0000
,
0100
0000
1000
0000
,
1001
0000
0000
0000
,
0110
0000
0000
0000
,
0010
0100
0001
0000
,
0010
0100
1000
0000
,
0010
0100
0001
0000
,
1000
0001
1000
0001
,
1000
0100
0010
0000
,
0100
1000
0100
0000
,
0010
0010
0010
0010
,
0100
0010
0001
0000
,
1000
0001
0100
0000
,
0010
1000
0001
0000
,
0100
0010
0100
0000
,
0001
1000
0001
1000
,
0001
0010
0100
0000
,
0010
0001
0010
0000
,
0100
0010
0100
0010
,
0100
1000
0100
1000
,
0001
0000
0100
0000
,
0010
1000
0010
0000
,
1000
0000
0001
0000
,
2002
0000
0000
0000
,
0000
0000
0000
0000
,
3003
0000
0000
0000
;

//---------------dance-single - ----------------
#NOTES:
     dance-single:
     :
     Medium:
     7:
     0.383,0.441,0.343,0.008,0.000:
0001
0100
0001
0100
,
0010
1000
0010
1000
,
0001
1000
0001
1000
,
0100
1000
0100
1000
,
0001
0010
0100
1000
,
0001
0001
0001
1000
,
1001
0001
1000
0000
,
0100
0100
1000
0000
,
0010
0010
0100
0000
,
0001
0001
0100
0000
,
1001
1000
0001
0000
,
0010
0010
0001
0000
,
1000
1000
0010
0010
,
1000
0000
1000
0000
0001
1000
0001
1000
,
0001
1001
1001
0100
,
1100
1100
0100
0110
,
0110
0010
0001
0010
,
0100
1000
0010
0010
,
0110
0100
0100
0001
,
0010
0100
1000
0010
,
0100
0110
0010
0110
,
0100
0000
0001
0000
1000
0001
1000
0000
,
0100
1100
1100
0010
,
0110
0110
0100
0101
,
0101
0001
1000
0100
,
0010
0001
0100
0010
,
0110
0010
1000
0001
,
0010
0001
0100
0010
,
1000
0001
1000
0000
0001
1000
0001
0000
,
0010
0100
0010
0001
,
1001
0000
0010
0100
0010
0100
0010
0100
,
0010
0100
0010
0100
0000
0110
0000
0000
,
1001
1000
0100
1000
,
0010
0000
0100
0000
0010
0100
0010
0000
,
1000
0100
1000
0001
,
0100
0000
0010
0000
0100
0010
0100
0000
,
0001
0010
0001
0100
,
0010
0000
1000
0000
0001
1000
0001
0000
,
1001
0000
1000
0000
0010
0000
0000
0110
,
0000
0000
0100
0000
0010
0100
0010
0000
,
1000
1000
0000
0000
0001
0001
0000
0000
,
1000
1000
0000
0000
0001
0001
0000
0000
,
1000
1000
0000
0000
0001
0001
0000
0000
,
1000
1000
0000
0000
0001
0001
1000
0000
,
1001
0001
0001
0001
,
1000
1000
1000
1000
,
1001
0000
0001
1000
0001
1000
0001
1000
,
0000
0000
0000
0100
,
1100
1100
1100
0010
,
0110
0110
0001
0101
,
0101
0010
1000
0100
,
0010
0000
0001
0000
1000
0001
1000
0000
,
1001
0000
0001
0000
0100
0000
0010
0100
,
0010
0000
1000
0001
1000
0000
0100
0000
,
1000
0000
0010
0000
0100
0001
0100
0000
,
0001
1000
0001
0000
1000
0100
1000
0100
,
1000
1001
1001
0010
,
0110
0110
0100
0101
,
0101
0010
1000
0100
,
0010
0000
0001
0000
1000
0001
1000
0000
,
1001
0001
0100
0010
,
0100
0001
0100
0000
0010
1000
0010
0000
,
1000
0001
0010
0100
,
1000
0001
1000
0000
0100
1000
0100
0000
,
1000
0000
1100
0000
1000
1000
0001
0000
,
0100
0000
0101
0000
0001
0001
1000
0000
,
0010
0000
0110
0000
0100
0001
1000
0100
,
2000
0000
0000
0000
,
0000
0000
0000
0000
,
3000
0000
0000
0000
;

//---------------dance-single - ----------------
#NOTES:
     dance-single:
     :
     Hard:
     10:
     0.500,0.496,0.287,0.232,0.036: // measure 1
1000
0100
1000
0000
0100
1000
0001
0000
,  // measure 2
0010
0100
0010
0000
0001
1000
0100
0000
,  // measure 3
0010
0100
0010
0000
0001
0100
0010
0000
,  // measure 4
1000
0001
1000
0000
0010
0100
0001
0000
,  // measure 5
2000
0000
0010
0000
3010
0000
0100
0001
,  // measure 6
0020
0100
0130
1000
,  // measure 7
1010
0010
0110
0000
,  // measure 8
0010
0001
0011
0010
,  // measure 9
0100
1000
1100
0000
,  // measure 10
0100
0010
0110
0100
,  // measure 11
0101
0001
1001
0000
,  // measure 12
1000
0010
0110
0100
,  // measure 13
1001
0001
1000
0001
,  // measure 14
1001
0000
1001
0000
1000
1000
1000
1000
,  // measure 15
1000
0100
0010
0000
0010
0000
1000
0100
,  // measure 16
0010
0000
0010
0000
1000
0010
0100
0001
,  // measure 17
1000
1200
0320
0230
,  // measure 18
1300
0001
0100
1000
0100
0001
1000
0000
,  // measure 19
1001
0000
0001
0100
0010
0000
0010
0100
,  // measure 20
0001
0010
0001
0010
0100
1000
0100
0000
,  // measure 21
0001
0100
1000
0000
0010
0000
0110
0000
,  // measure 22
1000
0100
0001
0000
0100
1000
1000
1000
,  // measure 23
0001
0100
0010
0000
0010
0000
0001
0100
,  // measure 24
0010
0000
0010
0000
0001
0010
0100
1000
,  // measure 25
0001
1020
0230
0302
,  // measure 26
0203
0000
0301
0010
1000
0010
0001
0000
,  // measure 27
2001
0100
0001
3100
,  // measure 28
1000
0001
0010
0000
0100
0010
0110
0000
,  // measure 29
0100
0001
0010
0000
0010
0100
1000
0100
,  // measure 30
1000
0001
0100
0000
1000
0100
0001
0000
,  // measure 31
1001
0000
1000
1000
0001
0001
0100
0100
,  // measure 32
0001
0001
1000
1000
0000
1001
0000
0000
,  // measure 33
0001
0200
0010
0000
0310
1000
0000
0100
,  // measure 34
0000
0001
0100
1000
0100
0010
0100
2000
,  // measure 35
0001
0000
0001
0000
3001
0100
0000
0010
,  // measure 36
0000
0000
0000
0100
0000
0000
0001
0000
1000
0000
0001
0000
1000
0000
0100
0000
1000
0000
0100
0000
0010
0000
0001
0000
,  // measure 37
0020
0000
0100
0000
0130
1000
0000
0100
,  // measure 38
0000
0001
0100
1000
0001
0010
0001
1000
,  // measure 39
1001
0000
1100
0000
0100
1000
0010
0110
,  // measure 40
0000
0000
0100
0000
0100
0001
0010
0100
,  // measure 41
2000
0010
3010
0000
0200
0010
0310
0000
,  // measure 42
2000
0001
3001
0000
0020
0001
0031
1000
,  // measure 43
0002
1000
1003
0000
0020
1000
1030
0000
,  // measure 44
0002
0010
0013
0000
0200
0010
0310
0000
,  // measure 45
0101
0000
0100
0000
0010
0000
0100
0001
,  // measure 46
0010
0001
1000
0000
0100
0000
1000
0000
,  // measure 47
1001
0000
0001
0001
0001
0001
0001
1001
,  // measure 48
0000
0000
0000
0002
,  // measure 49
1003
0100
0010
0000
0010
0000
1000
0100
,  // measure 50
0010
0000
0010
0000
1000
0010
0100
0001
,  // measure 51
1000
1200
0320
0230
,  // measure 52
1300
0001
0010
1000
0010
0001
1000
0000
,  // measure 53
1001
0000
1000
0001
0010
0000
0010
0001
,  // measure 54
0100
0010
0100
0001
0010
0000
0100
0000
,  // measure 55
1000
0000
0100
0000
0001
0100
1000
0000
,  // measure 56
0001
0000
0000
0001
1000
0000
0000
1000
0001
0000
0010
0000
0100
0000
1000
0000
,  // measure 57
0001
0100
0010
0000
0010
0000
0001
0100
,  // measure 58
0010
0000
0010
0000
0001
0010
0100
1000
,  // measure 59
0001
0000
0100
0000
1000
0100
0001
0000
,  // measure 60
0010
0100
0010
0000
0001
1000
1001
0000
,  // measure 61
0020
0000
1000
0000
1030
0001
0020
0000
,  // measure 62
0100
0000
0130
0000
1000
0001
0101
0000
,  // measure 63
1001
0000
1000
0000
0100
0000
0001
0100
,  // measure 64
1000
0000
0001
0100
0001
1000
1000
0000
,  // measure 65
0100
0000
1100
0000
1000
0001
0101
0000
,  // measure 66
0010
0000
0110
0000
0100
1000
1001
0000
,  // measure 67
0100
0000
0000
0000
0110
0000
0000
0010
1000
0000
0100
0000
0010
0000
0001
0000
,  // measure 68
0202
0000
0000
0000
,  // measure 69
0000
0000
0000
0000
,  // measure 70
0303
0000
0000
0000
;

//---------------dance-single - ----------------
#NOTES:
     dance-single:
     :
     Beginner:
     2:
     0.090,0.134,0.088,0.000,0.000:
1000
0000
0000
0000
,
0100
0000
0000
0000
,
1000
0000
0000
0000
,
0100
0000
0000
0000
,
0010
0000
0000
0000
,
0001
0000
0000
0000
,
1001
0000
0000
0000
,
0001
0000
0000
0000
,
0100
0000
0000
0000
,
0010
0000
0000
0000
,
1000
0000
0000
0000
,
1000
0000
0000
0000
,
1001
0000
0000
0000
,
0001
0000
0000
0000
,
0010
0000
0000
0000
,
0100
0000
0000
0000
,
0010
0000
0000
0000
,
0001
0000
0000
0000
,
1001
0000
0000
0000
,
1000
0000
0000
0000
,
0010
0000
0000
0000
,
0010
0000
0000
0000
,
0110
0000
0000
0000
,
0100
0000
0000
0000
,
0010
0000
0000
0000
,
0100
0000
0000
0000
,
1001
0000
0000
0000
,
0000
0000
0000
0000
,
0001
0000
0000
0000
,
0100
0000
0000
0000
,
0010
0000
0000
0000
,
0000
0000
0000
0000
,
0110
0000
0000
0000
,
0000
0000
0000
0000
,
0001
0000
0000
0000
,
0000
0000
0000
0000
,
1000
0000
0000
0000
,
0000
0000
0000
0000
,
0100
0000
0000
0000
,
0000
0000
0000
0000
,
0010
0000
0010
0000
,
0010
0000
0000
0000
,
0100
0000
0100
0000
,
0100
0000
0000
0000
,
1001
0000
0000
0000
,
0001
0000
0000
0000
,
1001
0000
0000
0000
,
0000
0000
0000
0000
,
1000
0000
0100
0000
,
1000
0000
0000
0000
,
0001
0000
0010
0000
,
0001
0000
0000
0000
,
1000
0000
0001
0000
,
1000
0000
0000
0000
,
0001
0000
1000
0000
,
0001
0000
0000
0000
,
1001
0000
1000
0000
,
0100
0000
0000
0000
,
1000
0000
0001
0000
,
0010
0000
0000
0000
,
1001
0000
0000
0000
,
0000
0000
0000
0000
,
0001
0000
0000
0000
,
0010
0000
0000
0000
,
0100
0000
0000
0000
,
1000
0000
0000
0000
,
0001
0000
0000
0000
,
1001
0000
0000
0000
;
