#TITLE:Funny shuffle;
#SUBTITLE:;
#ARTIST:猫叉Master+;
#TITLETRANSLIT:;
#SUBTITLETRANSLIT:;
#ARTISTTRANSLIT:Nekomata Master+;
#CREDIT:DigiMindAxel;
#BANNER:Funny shuffle.png;
#BACKGROUND:Funny shuffle-bg.png;
#LYRICSPATH:;
#CDTITLE:beatmania IIDX.png;
#MUSIC:Funny shuffle.mp3;
#METERTYPE:DDR X;
#OFFSET:-9.260;
#SAMPLESTART:25.934;
#SAMPLELENGTH:12.000;
#SELECTABLE:YES;
#BPMS:0.000=115.000;
#STOPS:;
#BGCHANGES:;

//---------------dance-single - ----------------
#NOTES:
     dance-single:
     :
     Easy:
     5:
     0.253,0.337,0.227,0.170,0.000: // measure 1
1000
0001
1000
0000
,  // measure 2
0100
1000
0010
0000
,  // measure 3
0100
0001
0010
0000
,  // measure 4
0001
0001
0001
0000
,  // measure 5
1001
1000
0001
0000
,  // measure 6
0010
0001
0100
0000
,  // measure 7
0010
1000
0100
0000
,  // measure 8
1000
1000
1000
0000
,  // measure 9
1001
1001
1001
0010
,  // measure 10
0110
0110
0110
0100
,  // measure 11
0110
0110
0110
0001
,  // measure 12
0010
0100
1000
0000
,  // measure 13
0110
0110
0110
0010
,  // measure 14
1001
1001
1001
0100
,  // measure 15
0110
0110
0110
0001
,  // measure 16
0010
0100
1000
0000
,  // measure 17
0001
0000
1000
1001
,  // measure 18
0000
0000
0000
0000
,  // measure 19
0002
0013
0002
0013
,  // measure 20
0002
0013
0001
1000
,  // measure 21
0200
1300
0200
1300
,  // measure 22
0200
1300
0001
0100
,  // measure 23
0020
0130
0020
0130
,  // measure 24
0020
0130
0001
0010
,  // measure 25
0200
1300
0200
1300
,  // measure 26
0200
1300
0010
0100
,  // measure 27
0001
0010
0100
1000
,  // measure 28
0002
0000
2003
0000
,  // measure 29
3001
1000
0100
0010
,  // measure 30
0002
0000
2003
0000
,  // measure 31
3001
1000
0100
0000
,  // measure 32
1000
0001
1000
0000
,  // measure 33
0100
1000
0001
0000
,  // measure 34
0010
0001
0010
0001
,  // measure 35
0100
0000
0000
0000
,  // measure 36
0100
0000
0000
0000
,  // measure 37
0100
0010
0100
0010
,  // measure 38
1000
0100
0010
0000
,  // measure 39
0001
1000
0001
0010
,  // measure 40
0100
0010
0100
1000
,  // measure 41
0001
1000
0100
1000
,  // measure 42
0001
0010
0100
0110
,  // measure 43
1000
0110
0001
0110
,  // measure 44
1000
0220
0000
0000
,  // measure 45
0000
0000
0330
0000
;

//---------------dance-single - ----------------
#NOTES:
     dance-single:
     :
     Medium:
     7:
     0.348,0.337,0.114,0.076,0.005: // measure 1
0001
0010
0100
0010
,  // measure 2
0001
0010
0100
1000
,  // measure 3
0010
0100
0010
1000
,  // measure 4
0001
1000
0000
1000
0000
2000
0000
0000
,  // measure 5
3001
0010
0100
0010
,  // measure 6
0001
0010
0100
1000
,  // measure 7
0010
0100
0010
1000
,  // measure 8
0001
1000
0000
1000
0000
2000
0000
0000
,  // measure 9
3001
0001
1000
1000
0001
0001
0010
0000
,  // measure 10
0100
0100
1000
1000
0100
0100
1000
0000
,  // measure 11
0010
0010
0100
0100
0010
0010
0100
0000
,  // measure 12
0001
0010
0001
0010
0001
0000
0000
0000
,  // measure 13
1000
1000
0001
0001
1000
1000
0100
0000
,  // measure 14
0010
0010
0001
0001
0010
0010
0001
0000
,  // measure 15
0100
0100
0010
0010
0100
0100
0010
0000
,  // measure 16
1000
0010
1000
0010
0100
0000
0110
0000
,  // measure 17
0001
0110
0001
0110
,  // measure 18
0000
0000
0000
0000
1000
0001
1000
0001
,  // measure 19
1000
0100
1000
0100
1000
0000
0010
0100
,  // measure 20
0010
0000
0100
0001
0010
0000
0010
0000
,  // measure 21
0001
0010
0001
0010
0001
0000
0100
0010
,  // measure 22
0100
0000
0010
1000
0100
0000
0100
0000
,  // measure 23
1000
0001
1000
0001
1000
0000
0100
1000
,  // measure 24
0100
0000
1000
0001
0010
0000
0010
0000
,  // measure 25
0001
1000
0001
1000
0001
0000
0100
0001
,  // measure 26
0100
0000
0010
1000
0010
1000
0001
0000
,  // measure 27
1001
1000
0100
0010
,  // measure 28
0002
0000
2003
3001
,  // measure 29
1000
0001
0010
0100
,  // measure 30
2000
0000
3002
1003
,  // measure 31
0001
0101
0001
0101
,  // measure 32
0010
1000
0100
0000
1000
0000
0100
0000
,  // measure 33
1000
1100
1000
1100
,  // measure 34
1000
0001
0100
0000
0001
0000
0010
0000
,  // measure 35
0100
0100
1000
1000
0100
0100
1000
0000
,  // measure 36
0001
0001
0010
0010
0001
0001
0010
0000
,  // measure 37
0001
0001
1000
1000
0001
0001
0100
0000
,  // measure 38
0010
0010
1000
1000
0010
1000
0100
0010
,  // measure 39
0001
0001
1000
1000
0001
0001
0010
0000
,  // measure 40
0100
0100
1000
1000
0100
0100
1000
0000
,  // measure 41
0010
0010
0100
0100
0010
0010
0100
0000
,  // measure 42
0001
0010
0100
1000
0010
0000
0110
0000
,  // measure 43
0001
0110
1000
0110
,  // measure 44
0001
0000
0000
0000
0000
0220
0000
0000
0000
0000
0000
0000
0000
0000
0000
0000
0000
0000
0000
0000
0000
0000
0000
0000
,  // measure 45
0030
0000
0310
0000
;

//---------------dance-single - ----------------
#NOTES:
     dance-single:
     :
     Hard:
     12:
     0.609,0.611,0.369,0.170,0.421: // measure 1
1001
0100
0010
0010
0100
1000
0001
0001
,  // measure 2
1000
0000
1000
0000
0002
0000
0000
0000
0103
0000
0010
0000
1000
0000
0001
0100
,  // measure 3
0001
0000
0000
0010
0000
0010
0100
0000
0000
1000
0000
1000
0010
0000
0000
0100
0000
0100
0010
0000
0000
1000
0000
0000
,  // measure 4
1000
0001
0001
0010
0020
0030
1001
0000
,  // measure 5
1001
1000
0001
0001
1000
0010
0100
0100
,  // measure 6
0001
0000
0001
0000
0010
0000
0200
0000
1000
0000
0010
0000
1300
0000
0001
1000
,  // measure 7
0001
0000
0000
1000
0000
1000
0100
0000
0000
0010
0000
0010
0100
0000
0000
1000
0000
1000
0010
0000
0000
0100
0000
0000
,  // measure 8
0100
0001
0001
0010
0010
0000
0000
0000
,  // measure 9
1001
0000
0000
1000
0000
0000
0010
0000
0000
0010
0000
0000
0100
0000
0000
0100
0000
0000
0001
0000
1000
0001
0000
1000
,  // measure 10
0001
0000
0000
0001
0000
0000
0010
0000
0000
0010
0000
0000
0100
0000
0000
0100
0000
0000
1000
0000
0001
1000
0000
0001
,  // measure 11
1000
0000
0000
1000
0000
0000
0010
0000
0000
0010
0000
0000
0100
0000
0000
0100
0000
0000
0010
0000
1000
0001
0000
1000
,  // measure 12
0001
0000
0000
0100
0000
0000
0010
0000
1000
0100
0000
1000
0100
0000
0000
1000
0000
0000
1001
0000
0000
0000
0000
0000
,  // measure 13
0101
0000
0000
0001
0000
0000
1000
0000
0000
1000
0000
0000
0100
0000
0000
0100
0000
0000
0010
0000
0100
1000
0000
0100
,  // measure 14
1000
0000
0000
1000
0000
0000
0001
0000
0000
0001
0000
0000
0100
0000
0000
0100
0000
0000
0001
0000
1000
0100
0000
1000
,  // measure 15
0100
0000
0000
0100
0000
0000
0010
0000
0000
0010
0000
0000
0100
0000
0000
0100
0000
0000
1000
0000
0001
0100
0000
0001
,  // measure 16
0100
0000
0000
0001
0000
0000
1000
0000
0010
0100
0000
0000
0010
0000
1000
0100
0000
1000
0000
0000
1000
0000
0000
0000
,  // measure 17
0010
0000
1000
0100
0000
1000
0000
0000
1000
0000
0000
0000
0010
0000
1000
0100
0000
2200
0000
0000
0000
0000
0000
0000
,  // measure 18
0000
0000
0000
0000
0000
0000
3300
0000
0000
0000
0000
1000
0001
0000
0000
0010
0000
0000
0100
0000
0000
1000
0000
0000
,  // measure 19
0001
0000
0000
1000
0000
0010
0100
0000
0000
0010
0000
0000
0110
0000
0000
1000
0000
0010
0100
0000
0000
0010
0000
0000
,  // measure 20
0110
0000
0000
1000
0000
0000
1000
0000
0000
0001
0000
0100
0001
0000
0000
0010
0000
0000
0100
0000
0000
0000
0000
0000
,  // measure 21
1001
0000
0000
0001
0000
0010
0100
0000
0000
0100
0000
0000
0110
0000
0000
0001
0000
0010
0100
0000
0000
0100
0000
0000
,  // measure 22
0110
0001
0100
1000
0010
0001
1000
0000
,  // measure 23
1001
0000
0000
0001
0000
1000
0010
0000
0000
0100
0000
0000
0101
0000
0000
0001
0000
1000
0010
0000
0000
0100
0000
0000
,  // measure 24
0101
1000
1000
0100
0001
0010
1000
0001
,  // measure 25
1001
0000
0000
0001
0000
0010
0100
0000
0000
1000
0000
0000
1100
0000
0000
0001
0000
0010
0100
0000
0000
1000
0000
0000
,  // measure 26
1100
0000
0000
0001
0100
0001
0100
0001
0100
0001
0100
0001
0100
0000
0000
0001
0000
0000
1001
0000
0000
0000
0000
0000
,  // measure 27
1100
0200
0320
0032
,  // measure 28
2003
0000
0000
3001
0200
0000
0301
0000
,  // measure 29
1000
0020
0230
0302
,  // measure 30
2003
0000
0000
0000
0000
0000
0000
0000
0000
3100
0000
0000
0020
0000
0000
0001
0000
0000
0000
0000
0031
0000
0000
0000
,  // measure 31
1001
0000
0000
1000
0000
1000
0010
0000
0000
0010
0000
0010
0100
0000
0000
0100
0000
0100
0001
0000
0000
0001
0000
0001
,  // measure 32
1000
0000
0000
1000
0000
1000
0100
0000
0000
0010
0000
0000
0002
0000
0000
0000
0000
0000
1000
0000
0000
1000
0000
0000
,  // measure 33
1003
0000
0000
0001
0000
0001
0010
0000
0000
0010
0000
0010
0100
0000
0000
0100
0000
0100
1000
0000
0000
1000
0000
1000
,  // measure 34
0001
0000
0000
0100
0000
0000
1000
0000
0000
0010
0000
0000
0001
0000
1000
0001
0000
1000
0001
0000
1000
0001
0000
1000
,  // measure 35
0001
0000
0000
0001
0000
0000
0010
0000
0000
0010
0000
0000
0100
0000
0000
0100
0000
0000
1000
0000
0001
1000
0000
0001
,  // measure 36
1000
0000
0000
1000
0000
0000
0010
0000
0000
0010
0000
0000
0100
0000
0000
0100
0000
0000
0001
0000
1000
0001
0000
1000
,  // measure 37
0001
0000
0000
0001
0000
0000
0100
0000
0000
0100
0000
0000
0010
0000
0000
0010
0000
0000
1000
0000
0100
0010
0000
0100
,  // measure 38
0010
0000
0000
0010
0000
0001
0010
0000
0001
1000
0000
0100
1000
0000
0000
0001
0000
0000
1000
0000
0010
0100
0000
0010
,  // measure 39
0100
0000
0000
0110
0000
0000
0100
0000
0000
0101
0000
0000
0100
0000
0000
0110
0000
0000
0010
0000
1000
0001
0000
1000
,  // measure 40
0001
0000
0000
0011
0000
0000
0001
0000
0000
1001
0000
0000
0001
0000
0000
0011
0000
0000
0001
0000
0010
0100
0000
0010
,  // measure 41
0100
0000
0000
1100
0000
0000
0100
0000
0000
0110
0000
0000
0100
0000
0000
1100
0000
0000
1000
0000
0010
0100
0000
0010
,  // measure 42
0100
0000
0000
0101
0000
0000
0100
0000
0000
0110
0000
0000
0100
0000
0001
1000
0000
1100
0000
0000
1100
0000
0000
0000
,  // measure 43
0100
0000
0001
1000
0000
1100
0000
0000
1100
0000
0000
0000
0100
0000
0001
1000
0000
1100
0000
0000
1100
0000
0000
0000
,  // measure 44
0100
0000
0001
1000
0000
2002
0000
0000
0000
0000
0000
0000
0000
0000
0000
0000
0000
0000
0000
0000
0000
0000
0000
0000
,  // measure 45
0000
0003
3100
0000
;

//---------------dance-single - ----------------
#NOTES:
     dance-single:
     :
     Challenge:
     14:
     0.778,0.695,0.521,0.284,0.824: // measure 1
1001
0000
0000
0002
0000
0000
0103
0000
0000
0100
0000
0000
0001
0000
0000
1000
0000
0010
0100
0000
0000
0100
0000
0000
,  // measure 2
0001
0000
0001
0000
1000
0000
0100
0000
0010
0000
0100
0000
1000
0000
0001
0001
,  // measure 3
0100
0000
0000
0010
0000
1000
0100
0000
0000
0010
0000
0001
1000
0000
0000
0100
0000
1000
0001
0000
0000
0200
0000
0000
,  // measure 4
0310
0000
0000
0200
0000
0000
0310
0000
0000
0200
0000
0000
0310
1000
0100
1000
0100
0010
0001
0000
0000
0000
0000
0000
,  // measure 5
1001
0000
0000
2000
0000
0000
3001
0000
0000
0002
0000
0000
1003
0000
0000
0001
0000
1000
0010
0000
0000
0010
0000
0000
,  // measure 6
1000
0000
1000
0000
0100
0000
0010
0000
0001
0000
0100
0000
0001
0000
1000
1000
,  // measure 7
0001
0000
0000
0100
0000
0010
0100
0000
0000
0001
0000
1000
0100
0000
0000
1000
0000
0001
0100
0000
0000
0020
0000
0000
,  // measure 8
0130
0000
0000
0020
0000
0000
0130
0000
0000
0020
0000
0000
0130
0000
0001
0100
0000
0001
0100
0000
0001
0100
0000
0001
,  // measure 9
1000
0000
0000
1100
0000
0000
1000
0000
0000
1100
0000
0000
1000
0000
0000
1100
0000
0000
1000
0000
1000
0010
0000
0010
,  // measure 10
0100
0000
0000
0101
0000
0000
0100
0000
0000
0101
0000
0100
0001
0000
0000
0101
0000
0000
0001
0000
0001
0010
0000
0010
,  // measure 11
0100
0000
0000
0110
0000
0000
0100
0000
0000
0110
0000
0000
0100
0000
0000
0110
0000
0000
0010
0000
0010
1000
0000
1000
,  // measure 12
0001
0000
0000
0000
0000
0000
0100
0000
0000
0100
0000
0000
0000
0000
0000
0010
0000
0000
0010
0000
0000
0010
0000
0000
0000
0000
0000
0000
0000
0000
0000
0000
0000
0000
0000
0000
0110
0000
0000
0000
0010
0000
0100
0000
0000
0000
0010
0000
,  // measure 13
0100
0000
0000
0101
0000
0000
0100
0000
0000
0101
0000
0000
0100
0000
0000
0101
0000
0000
0001
0000
0001
1000
0000
1000
,  // measure 14
0100
0000
0000
0110
0000
0000
0100
0000
0000
0110
0000
0010
0100
0000
0000
0110
0000
0000
0010
0000
0010
1000
0000
1000
,  // measure 15
0001
0000
0000
0011
0000
0000
0001
0000
0000
0011
0000
0000
0001
0000
0000
0011
0000
0000
0010
0000
0010
0100
0000
0100
,  // measure 16
1000
0000
0001
1000
0000
0001
1000
0000
0100
0010
0000
0000
0001
0000
1000
0010
0000
1010
0000
0000
0110
0000
0000
0000
,  // measure 17
0001
0000
1000
0010
0000
1010
0000
0000
0110
0000
0000
0000
0001
0000
1000
0010
0000
2020
0000
0000
0000
0000
0000
0000
,  // measure 18
0000
0000
0000
0000
0000
0000
3030
0000
0000
0000
0000
1000
0001
0000
0000
0010
0000
0000
0100
0000
0000
1000
0000
0000
,  // measure 19
1001
0000
0000
0001
0100
0001
0100
0000
0001
0100
0000
0000
0110
0000
0000
1000
0100
1000
0100
0000
1000
0100
0000
0000
,  // measure 20
0110
0000
0000
0001
0000
0000
0001
0000
0000
0001
0100
0010
0100
0000
0000
0010
0000
0000
0010
0000
0000
0000
0000
0000
,  // measure 21
1001
0000
0000
1000
0010
1000
0010
0000
1000
0010
0000
0000
0110
0000
0000
0001
0010
0001
0010
0000
0001
0010
0000
0000
,  // measure 22
0110
0000
0000
1000
0010
0100
0010
0000
0000
0100
0000
0000
0001
1000
0001
1000
0001
1000
0002
0000
0000
0003
0000
0000
,  // measure 23
1001
0000
0000
1000
0100
1000
0100
0000
0010
0100
0000
0000
0110
0000
0000
0001
0010
0001
0010
0000
0100
0010
0000
0000
,  // measure 24
0110
0000
0000
1000
0000
0000
1000
0000
0000
1000
0000
0000
0001
0100
0001
0100
0001
0100
0001
0000
0000
1000
0001
1000
,  // measure 25
0001
0000
0000
1000
0010
1000
0010
0000
0100
0010
0000
0000
0110
0000
0000
0001
0100
0001
0100
0000
0010
0100
0000
0000
,  // measure 26
0110
0000
0000
0010
1000
0010
1000
0010
0100
0001
0100
0001
0200
0000
0000
0301
0000
0000
1001
0000
0000
0000
0000
0000
,  // measure 27
1010
1000
0020
0100
0230
0001
0302
1000
,  // measure 28
2003
0010
0000
3010
0200
0001
0302
1000
,  // measure 29
1003
0100
0020
0001
0032
1000
2003
0001
,  // measure 30
3002
0000
0000
0010
0000
0000
0000
0000
0000
0013
0000
0000
0200
0000
0000
1000
0000
0000
0000
0000
1300
0000
0000
0000
,  // measure 31
1001
0000
0000
1000
0100
1000
0010
0000
0000
0100
0010
0100
0001
0000
0000
0010
0001
0010
0100
0000
0000
1000
0010
1000
,  // measure 32
0001
0000
0000
0010
0001
0010
0001
0010
0100
1000
0000
0000
0002
0000
0000
0000
0000
0000
1000
0000
1000
0000
1003
0000
,  // measure 33
0001
0000
0000
0100
0001
0100
0010
0000
0000
1000
0010
1000
0100
0000
0000
0010
0001
0010
0100
0000
0000
1000
0001
1000
,  // measure 34
0010
0000
0010
0000
0010
0000
0100
0000
0100
0000
0100
0000
0001
0000
1000
0100
0000
1000
0100
0000
1000
0100
0000
1000
,  // measure 35
0001
0000
0000
0002
0000
0000
0103
0000
0000
0200
0000
0000
0310
0000
0000
0020
0000
0000
1030
0000
0001
1000
0000
0001
,  // measure 36
1000
0000
0000
1000
0000
0000
0100
0000
0000
0100
0000
0000
0010
0000
0000
0010
0000
0001
0100
0000
0010
1000
0000
0001
,  // measure 37
1000
0000
0000
1000
0100
1000
0010
0000
0000
0010
0100
0001
0010
0000
0000
0010
0001
1000
0010
0000
1000
0001
0000
1000
,  // measure 38
0001
0000
0000
0100
0000
0100
0010
0000
0010
0100
0000
0001
1000
0000
0000
0001
0000
0001
1000
0000
1000
0001
0000
0100
,  // measure 39
0010
0000
0000
0110
0000
0000
0110
0000
0000
1100
0000
0000
1100
0000
0000
0011
0000
0001
0010
0000
0010
0100
0000
0100
,  // measure 40
1000
0000
0000
1100
0000
1000
0001
0000
0000
1001
0000
1000
0001
0000
0000
0101
0000
0000
0001
0000
0001
1000
0000
1000
,  // measure 41
0010
0000
0000
0010
0100
0010
1000
0000
0000
1000
0100
1000
0001
0000
0000
0001
0010
0100
1000
0000
1000
0010
0000
0010
,  // measure 42
0100
0000
0001
0010
0000
0001
0010
0000
0001
1000
0000
0001
1000
0000
0010
0100
0000
0110
0000
0000
0101
0000
0000
0000
,  // measure 43
1000
0000
0010
0100
0000
0110
0000
0000
0101
0000
0000
0000
1000
0000
0010
0100
0000
0110
0000
0000
0101
0000
0000
0000
,  // measure 44
1000
0000
0010
0100
0000
0220
0000
0000
0000
0000
0000
0000
0000
0000
0000
0000
0000
0000
0000
0000
0000
0000
0000
0000
,  // measure 45
0000
0000
0000
0000
0000
0000
0330
0000
0000
0000
0000
0100
0010
0000
0000
0000
0000
0000
0000
0000
0000
0000
0000
0000
;

//---------------dance-single - ----------------
#NOTES:
     dance-single:
     :
     Beginner:
     2:
     0.114,0.126,0.114,0.000,0.000: // measure 1
0001
0000
0010
0000
,  // measure 2
0001
0000
0010
0000
,  // measure 3
0100
0000
0010
0000
,  // measure 4
0100
0000
0000
0000
,  // measure 5
1001
0000
1000
0000
,  // measure 6
0100
0000
0010
0000
,  // measure 7
0100
0000
0100
0000
,  // measure 8
0010
0000
0000
0000
,  // measure 9
1001
0000
0001
0000
,  // measure 10
0100
0000
0010
0000
,  // measure 11
1000
0000
0010
0000
,  // measure 12
1000
0000
0000
0000
,  // measure 13
1001
0000
1000
0000
,  // measure 14
0010
0000
1000
0000
,  // measure 15
0100
0000
0010
0000
,  // measure 16
0001
0000
1000
0000
,  // measure 17
0001
0000
1000
0000
,  // measure 18
0000
0000
0000
0000
,  // measure 19
1001
0000
1000
0000
,  // measure 20
1000
0000
0000
0000
,  // measure 21
1001
0000
0001
0000
,  // measure 22
0001
0000
0000
0000
,  // measure 23
1001
0000
1000
0000
,  // measure 24
1000
0000
0000
0000
,  // measure 25
1001
0000
0001
0000
,  // measure 26
0001
0000
0000
0000
,  // measure 27
0110
0000
0000
0000
,  // measure 28
0100
0000
0000
0000
,  // measure 29
0010
0000
0000
0000
,  // measure 30
0100
0000
0000
0000
,  // measure 31
1001
0000
0001
0000
,  // measure 32
1000
0000
0001
0000
,  // measure 33
1000
0000
0001
0000
,  // measure 34
1000
0000
0000
0000
,  // measure 35
0110
0000
0000
0000
,  // measure 36
0110
0000
0000
0000
,  // measure 37
0110
0000
0100
0000
,  // measure 38
0010
0000
1000
0000
,  // measure 39
0100
0000
0100
0000
,  // measure 40
0010
0000
0010
0000
,  // measure 41
0100
0000
0100
0000
,  // measure 42
1000
0000
0010
0000
,  // measure 43
0100
0000
0001
0000
,  // measure 44
1000
0000
0000
0000
,  // measure 45
0000
0000
0001
0000
;
