#TITLE:Free Style;
#SUBTITLE:;
#ARTIST:Shapes;
#TITLETRANSLIT:;
#SUBTITLETRANSLIT:;
#ARTISTTRANSLIT:;
#CREDIT:DigiMindAxel;
#BANNER:Free Style.png;
#BACKGROUND:Free Style-bg.png;
#LYRICSPATH:Free Style.lrc;
#CDTITLE:beatmania IIDX.png;
#MUSIC:Free Style.mp3;
#METERTYPE:DDR X;
#OFFSET:-4.115;
#SAMPLESTART:65.435;
#SAMPLELENGTH:12.000;
#SELECTABLE:YES;
#BPMS:0.000=132.000;
#STOPS:;
#BGCHANGES:;

//---------------dance-single - ----------------
#NOTES:
     dance-single:
     :
     Hard:
     11:
     0.554,0.687,0.559,0.319,0.215:
2002
3003
0220
0330
,
0000
0001
1000
0001
1000
0001
0002
0000
,
1003
1000
0100
0100
0001
0001
1000
0000
,
1001
1001
1100
0011
,
0001
0001
0100
0100
1000
1000
0001
0000
,
1001
1001
0101
1010
,
1000
1000
0100
0100
0001
0001
1000
0000
,
1001
1001
1100
0011
,
0001
0001
0100
0100
1000
1000
0001
0000
,
1001
0110
1001
0110
,
0200
0000
0000
0001
0000
0301
0000
0000
2000
0000
0000
0100
0000
3100
0000
0000
,
0000
0010
0000
0000
0020
0000
0000
0100
0000
0130
0000
0000
1000
0000
0000
0000
,
0200
0000
0000
1000
0000
1300
0000
0000
0020
0000
0000
0100
0000
0130
0000
0000
,
0000
0001
0000
0000
0002
0000
0000
1000
0000
1003
0000
0000
0010
0000
0000
0000
,
1001
0000
0001
0001
1000
0000
0100
0010
,
0001
0000
1000
0000
0002
0000
0000
1000
0000
1003
0000
0010
0100
0000
0000
0000
,
0001
0001
1000
0000
0100
0010
0001
0001
,
0000
1000
0001
1000
0001
2000
0001
3001
,
1000
0010
0100
0000
0001
0000
0100
0000
,
0000
1000
1000
0100
0001
0001
0010
0100
,
0000
1000
0010
0001
0010
1000
0001
0000
,
1000
0000
1000
0000
0001
0000
0001
0000
0100
0000
0000
0000
0110
0000
0000
0110
,
0000
0000
1000
0010
0100
0001
0100
1000
,
0000
0100
0100
0001
0001
1000
1000
0001
,
0000
1000
0100
0001
0100
1000
0100
0010
,
0001
0001
1000
1000
0010
0000
0110
0000
,
1002
0000
0000
0000
0203
0000
0000
0010
,
0320
0000
0000
0000
0000
0000
0000
1000
,
2030
0000
0000
0000
0000
0000
0000
0001
,
3002
0000
0000
0000
0000
0000
1000
0000
1003
0000
0000
0001
1000
0000
1000
0000
,
0001
0000
0010
0000
0100
0000
1000
0000
0010
0000
0000
0010
0000
0000
0010
0000
,
0100
0001
0010
0100
0000
0010
0001
1000
,
0010
0000
0000
0200
0000
0301
0010
0100
,
1100
0000
0110
0000
0100
0010
1000
0100
,
0001
0100
1000
0001
1000
0020
0100
0130
,
0110
0011
1100
1001
,
1000
0100
0001
0100
1000
0020
0100
0130
,
0110
0101
1010
1001
,
0001
0010
1000
0010
0001
2000
0001
3001
,
1001
1100
0011
1001
,
1000
0010
0001
0010
1000
0002
0100
0103
,
0101
1010
0101
1001
,
0101
0000
0101
0000
1000
0000
0100
0000
2000
0000
0000
0000
3002
0000
0000
1003
,
0000
0001
0001
0100
0100
1000
1000
0001
,
0000
1001
0000
0000
0100
0000
0010
0000
0001
0000
0010
0000
0100
0000
1000
0000
,
0010
0000
0100
0000
0010
0000
0100
0010
0100
0010
0100
0010
0000
0000
0000
0000
,
2010
0000
0000
3001
0000
1001
0000
0000
0012
0000
0000
0103
0000
0101
0000
0000
,
0210
0000
0000
0301
0000
0101
0000
0000
0120
0000
0000
1030
0000
1010
0000
0000
,
2001
0000
0000
3100
0000
1100
0000
0000
0120
0000
0000
1030
0000
1010
0000
0000
,
0001
0010
0001
0000
1000
0100
1000
0000
0001
1000
0001
1000
0001
1000
0001
1000
,
0002
0000
0000
0000
,
0003
0000
0000
0000
;

//---------------dance-single - ----------------
#NOTES:
     dance-single:
     :
     Easy:
     4:
     0.231,0.254,0.210,0.090,0.000:
1001
0000
1001
0000
,
0000
0000
0000
0000
,
0010
0100
0010
0010
,
0110
0000
1001
0000
,
0100
0010
0100
0100
,
0110
0000
1001
0000
,
0001
1000
0001
0001
,
1001
0000
0110
0000
,
1000
0001
1000
1000
,
1001
0000
0110
0000
,
0002
0000
0000
0000
,
0023
0000
0000
0000
,
0230
0000
0000
0000
,
2300
0000
0000
0000
,
3001
1000
0001
0000
,
1000
0001
1000
0000
,
0001
1000
0001
0000
,
0100
0100
0100
0100
,
0110
0000
0000
0000
,
0010
0100
0010
0100
,
0010
0000
0000
0000
,
1000
0001
1000
0001
,
1000
0100
1000
0000
,
0010
0100
0001
0010
,
0100
1000
0001
0000
,
0010
0010
0010
0000
,
1001
0000
0000
0000
,
0100
0000
0000
0000
,
0010
0000
0000
0000
,
0100
0000
1000
0000
,
0001
0000
0010
0000
,
0001
0000
0100
0000
,
0010
0000
1000
0000
,
0001
1000
0001
0000
,
1001
0100
0010
0001
,
1000
1000
1000
1000
,
0010
0100
0010
1000
,
0010
0010
0010
0010
,
0100
0001
0010
0100
,
1000
1000
1000
1000
,
0010
0100
0001
1000
,
0001
0001
0001
0001
,
2002
0000
0000
3003
,
0010
1000
0001
1000
,
0000
0001
1000
0001
,
0200
0000
0000
0300
,
0110
0000
1001
0000
,
0110
0000
1001
0000
,
0110
0000
1001
0000
,
0010
0100
1000
0001
,
2002
0000
0000
0000
,
3003
0000
0000
0000
;

//---------------dance-single - ----------------
#NOTES:
     dance-single:
     :
     Medium:
     6:
     0.359,0.458,0.459,0.140,0.025:
1001
0000
1001
0000
,
0010
0010
0010
0010
,
0100
0010
0100
0000
0010
0100
0001
0000
,
1001
0000
1001
0000
,
0010
0100
0010
0000
0100
0010
1000
0000
,
1001
0000
1001
0000
,
0010
0001
0010
0000
0001
0010
0100
0000
,
1001
0000
1001
0000
,
0100
1000
0100
0000
1000
0100
0010
0000
,
1001
1000
1001
0001
,
2000
0000
3200
0000
,
0320
0000
0000
0000
,
0032
0000
2003
0000
,
3002
0000
0000
0000
,
1003
0100
1000
0100
,
0010
0001
0010
0001
,
0100
0010
0100
0010
,
1000
1000
1000
1000
,
1001
0010
0001
0010
,
0100
0010
0100
0010
0100
0000
1000
0000
,
0001
1000
0100
0010
,
0100
0010
0100
0010
0100
0000
0110
0000
,
1000
0000
0001
0000
1000
0100
1000
0000
,
0010
0100
0010
0100
0010
0000
0100
0000
,
0001
0010
0100
1000
,
0001
1000
0001
1000
0001
0000
1001
0000
,
0201
0000
0000
0000
,
0320
0000
0000
0000
,
0230
0000
0000
0000
,
0302
0000
2003
0000
,
3001
1000
0001
0000
,
0010
0001
0010
0000
,
0100
1000
0100
0000
,
1001
0001
1001
1000
,
1001
0000
0001
1000
0010
1000
0001
0000
,
1001
0100
1001
0100
,
1000
0000
0001
0000
0010
0100
0010
0000
,
1001
0100
1001
0100
,
1001
0000
1000
0001
0100
0001
1000
0000
,
1001
0100
1001
0100
,
0001
1000
0001
1000
0100
0010
0001
0000
,
1001
1001
1001
1001
,
0010
0000
0010
0000
0000
0000
0000
0000
0000
0000
0100
0000
0000
0100
0000
0000
,
0100
0000
0010
0000
0000
0000
0000
0000
0000
0000
0001
0000
0000
0001
0000
0000
,
0000
1001
0000
0000
0000
0000
0000
0000
0000
0000
1000
0000
0000
1000
0000
0000
,
1000
0000
0002
0000
0000
0000
0000
0000
0000
0000
0000
1003
0000
0000
0000
0000
,
1100
1100
1001
1001
,
0101
0101
1001
1001
,
0110
0110
1001
1001
,
0011
0110
1100
0110
,
2002
0000
0000
0000
,
3003
0000
0000
0000
;

//---------------dance-single - ----------------
#NOTES:
     dance-single:
     :
     Beginner:
     2:
     0.094,0.150,0.060,0.000,0.000:
0000
0000
0000
0000
,
0000
0000
0000
0000
,
0001
0000
1000
0000
,
0001
0000
0000
0000
,
1000
0000
0001
0000
,
1000
0000
0000
0000
,
0010
0000
0100
0000
,
0010
0000
0000
0000
,
1000
0000
0001
0000
,
1000
0000
1000
0000
,
1000
0000
0000
0000
,
0100
0000
0000
0000
,
0010
0000
0000
0000
,
0001
0000
0000
0000
,
1000
0000
0001
0000
,
1000
0000
0000
0000
,
0001
0000
1000
0000
,
0001
0000
0000
0000
,
1001
0000
0000
0000
,
0010
0000
0000
0000
,
0100
0000
0000
0000
,
0010
0000
0000
0000
,
0110
0000
0000
0000
,
0001
0000
0000
0000
,
1000
0000
0000
0000
,
0001
0000
0001
0000
,
1001
0000
0000
0000
,
0000
0000
0000
0000
,
1000
0000
0000
0000
,
0000
0000
0000
0000
,
0001
0000
0000
0000
,
0000
0000
0000
0000
,
0010
0000
0000
0000
,
0100
0000
0100
0000
,
0010
0000
0000
0000
,
0001
0000
1000
0000
,
0001
0000
0000
0000
,
1000
0000
0001
0000
,
1000
0000
0000
0000
,
0010
0000
0100
0000
,
0010
0000
0000
0000
,
1000
0000
0001
0000
,
1001
0000
0000
0000
,
0000
0000
0000
0000
,
0000
0000
0000
0000
,
0000
0000
0000
0000
,
1001
0000
0001
0000
,
1000
0000
0001
0000
,
0100
0000
0010
0000
,
1000
0000
0001
0000
,
1001
0000
0000
0000
;

//---------------dance-single - ----------------
#NOTES:
     dance-single:
     :
     Challenge:
     13:
     0.667,0.738,0.549,0.200,0.534: // measure 1
1100
0000
0100
0000
0110
0000
0010
0100
,  // measure 2
0000
0001
1000
0001
1000
0001
1000
0001
1000
0001
1000
0001
2000
0000
0000
0000
,  // measure 3
3001
0000
1000
0100
0000
0000
1000
0000
0000
0001
0000
0000
0100
0000
0000
0020
0000
0000
0130
0000
0000
0000
0000
0000
,  // measure 4
0110
0101
1100
0011
,  // measure 5
0010
0000
0001
0010
0000
0000
0001
0000
0000
1000
0000
0000
0010
0000
0000
0200
0000
0000
0310
0000
0000
0000
0000
0000
,  // measure 6
0110
1010
0101
0110
,  // measure 7
0100
0000
0001
0100
0000
0000
0001
0000
0000
0010
0000
0000
0100
0000
0000
0020
0000
0000
0031
0000
0000
0000
0000
0000
,  // measure 8
0101
1001
0101
0110
,  // measure 9
0010
0000
1000
0010
0000
0000
1000
0000
0000
0100
0000
0000
0010
0000
0000
0002
0000
0000
0103
0000
0000
0000
0000
0000
,  // measure 10
0101
0000
0000
0000
0110
0000
0000
0010
1000
0010
1000
0010
1000
0001
1000
0001
,  // measure 11
1000
0000
0000
0010
0000
0100
0000
0001
1000
0000
0000
0010
0000
0100
0000
0000
,  // measure 12
0000
0001
0000
0000
0001
0000
0000
0100
0000
0010
0000
0100
0001
0000
0000
0000
,  // measure 13
1000
0000
0000
0100
0000
0010
0000
0001
1000
0000
0000
0100
0000
0010
0000
0000
,  // measure 14
0000
0001
0000
0000
0001
0000
0000
0010
0000
0100
0000
0010
0001
0000
0000
0000
,  // measure 15
1001
0000
0000
0001
0100
0000
0010
0000
1000
0000
0000
1000
0100
0000
0010
0000
,  // measure 16
0001
1000
0000
1000
0010
0000
0000
0100
0000
0100
0000
0001
1000
0000
0000
0000
,  // measure 17
0001
0000
0000
0001
1000
0000
0100
0000
0010
0000
0000
0010
0001
0000
0100
0000
,  // measure 18
0000
0000
0100
0000
0001
1000
0001
1000
0001
1000
0001
1000
0001
1000
0001
1000
,  // measure 19
0001
0010
0100
1000
0001
0010
0100
2000
,  // measure 20
0000
0000
0000
0001
0000
0000
3001
0000
0000
0100
0000
0000
0010
0000
0100
0010
0000
0000
0100
0000
0000
0000
0000
0000
,  // measure 21
0001
1000
0010
0100
0001
0100
0010
1000
,  // measure 22
0001
0000
0001
0000
0001
0000
0001
0000
1001
0000
0000
0000
1100
0000
0000
1100
,  // measure 23
0000
0000
0000
0000
0000
0000
1000
0000
0000
0010
0000
0000
0100
0000
0001
0100
0000
0000
0002
0000
0000
1000
0000
0000
,  // measure 24
1003
0000
0000
0001
0000
0000
0010
0000
0000
0100
0000
0000
1000
0000
0010
1000
0000
0000
0100
0000
0000
0000
0000
0000
,  // measure 25
1000
0001
0100
0010
0100
0001
1000
0010
,  // measure 26
0100
0100
0100
0100
0110
0000
0101
0000
,  // measure 27
1001
0000
0000
0000
0010
0000
0100
0000
1000
0000
0000
1000
0000
0000
1000
0000
,  // measure 28
0001
0000
0000
1000
0000
0001
0100
0000
0000
0001
0000
0100
0001
0000
0000
1000
0000
0000
0001
0000
0000
0010
0000
0000
,  // measure 29
0100
0000
0000
0000
1000
0000
0010
0000
0100
0000
0000
0100
0000
0000
0100
0000
,  // measure 30
0001
0000
0000
0100
0000
0001
1000
0000
0000
0001
0000
1000
0001
0000
0000
0010
0000
0000
0100
0000
0000
1000
0000
0000
,  // measure 31
1001
0000
0001
0000
0100
0000
0010
0000
2000
0000
0000
0010
0000
0000
3010
0000
,  // measure 32
0100
0000
0000
0001
0000
1000
0100
0000
0000
1000
0000
0100
1000
0000
0000
0001
0000
0000
0001
0000
0000
0100
0000
0000
,  // measure 33
0101
0000
0000
1010
1000
0001
0010
0100
,  // measure 34
1100
0000
0000
0000
1001
0000
0000
0000
0001
1000
0001
1000
0001
1000
0001
1000
,  // measure 35
0001
0000
0010
0000
0001
0000
0100
0010
0000
0000
0200
0000
0001
0000
0301
0000
,  // measure 36
0101
0100
0110
0000
1100
0100
1100
0000
,  // measure 37
1000
0001
0100
1000
0100
0002
1000
1003
,  // measure 38
1001
0000
0000
0000
1001
0000
0000
0100
0010
0100
0010
0100
0010
0100
0010
0100
,  // measure 39
0010
0000
1000
0000
0100
0000
1000
0001
0000
0000
0020
0000
0100
0000
0130
0000
,  // measure 40
0110
0100
0101
0000
1010
1000
1001
0000
,  // measure 41
0001
1000
0100
0001
0100
2000
0001
3001
,  // measure 42
1001
0000
0000
0000
1001
0000
0000
0010
0100
0010
0100
0010
0100
0010
0100
0010
,  // measure 43
1000
0000
1010
0000
0010
0000
0100
0000
0002
0000
0000
0000
1003
0000
0000
1001
,  // measure 44
0000
0000
0001
0000
0100
0000
1000
0000
0100
0000
0001
0000
1000
0010
0000
0100
,  // measure 45
0000
0110
0000
0000
0010
0000
1000
0000
0100
0000
0001
0000
0100
0000
1000
0000
,  // measure 46
0000
0100
0010
0100
0010
0100
0010
0100
0010
0100
0010
0100
0000
0000
0000
0000
,  // measure 47
1200
0000
0000
1300
0000
1001
0000
0000
0120
0000
0000
0130
0000
1001
0000
0000
,  // measure 48
0102
0000
0000
0103
0000
1001
0000
0000
0021
0000
0000
0031
0000
1001
0000
0000
,  // measure 49
0210
0000
0000
0310
0000
1001
0000
0000
2010
0000
0000
3010
0000
1001
0000
0000
,  // measure 50
0001
0010
0001
0010
0100
1000
0100
1000
0001
1000
0001
1000
0001
1000
0001
1000
,  // measure 51
0002
0000
0000
0000
,  // measure 52
0003
0000
0000
0000
;
