#TITLE:Fourth Dimension;
#SUBTITLE:;
#ARTIST:LIGHTS;
#TITLETRANSLIT:;
#SUBTITLETRANSLIT:;
#ARTISTTRANSLIT:;
#CREDIT:DigiMindAxel;
#BANNER:Fourth Dimension.png;
#BACKGROUND:Fourth Dimension-bg.png;
#LYRICSPATH:Fourth Dimension.lrc;
#CDTITLE:DigiMindAxel original simfile.png;
#MUSIC:Fourth Dimension.mp3;
#METERTYPE:DDR X;
#OFFSET:-7.480;
#SAMPLESTART:41.734;
#SAMPLELENGTH:12.000;
#SELECTABLE:YES;
#BPMS:0.000=70.000;
#STOPS:;
#BGCHANGES:;

//---------------dance-single - ----------------
#NOTES:
     dance-single:
     :
     Easy:
     4:
     0.136,0.146,0.048,0.113,0.000: // measure 1
1000
0001
1000
0000
,  // measure 2
0100
0100
0100
0000
,  // measure 3
1000
0001
0100
0000
,  // measure 4
0001
1000
0100
0000
,  // measure 5
0010
0010
0010
0000
,  // measure 6
0100
1000
0010
0000
,  // measure 7
0110
0100
0001
0000
,  // measure 8
0110
0010
1000
0000
,  // measure 9
0100
0010
1001
0000
,  // measure 10
0010
0100
1001
0000
,  // measure 11
0020
0000
0230
0000
,  // measure 12
0302
0000
2003
3000
,  // measure 13
0002
0000
2003
0000
,  // measure 14
3200
0000
0320
0030
,  // measure 15
0001
1001
1000
1000
,  // measure 16
1001
0001
0001
0000
,  // measure 17
0010
0100
1000
1000
,  // measure 18
0100
0010
0001
0001
,  // measure 19
1000
0002
1000
1003
,  // measure 20
0010
0200
0010
0310
,  // measure 21
1000
0002
1000
1003
,  // measure 22
0010
0200
0010
0310
,  // measure 23
1000
0000
0100
0010
,  // measure 24
0001
0000
0010
0100
,  // measure 25
1000
0000
0001
0100
,  // measure 26
0001
0010
0100
1000
,  // measure 27
0001
0000
0010
0001
,  // measure 28
0100
0010
0100
0100
,  // measure 29
0001
0000
0010
0100
,  // measure 30
1000
0001
0001
0100
,  // measure 31
0020
0000
0000
0000
,  // measure 32
0030
0000
0000
0000
,  // measure 33
0020
0000
0000
0000
,  // measure 34
0030
0000
0000
0000
;

//---------------dance-single - ----------------
#NOTES:
     dance-single:
     :
     Medium:
     6:
     0.281,0.287,0.202,0.145,0.117:
1001
0000
1000
0000
0100
0000
1000
0001
,
0101
0000
0001
0000
0010
0000
0100
1000
,
0110
0000
0010
0000
0100
0001
0010
0010
,
0001
1000
0100
0000
1000
0000
0001
0100
,
0010
0000
0110
0000
0100
0001
1000
1000
,
0001
0000
0011
0000
1000
1000
1001
0000
,
0110
0000
0101
0000
0010
0100
1000
1000
,
0010
0000
0110
0000
0101
0000
0010
0010
,
0001
1000
1100
0000
0010
0000
0100
0100
,
0001
0000
0010
0000
1100
0000
0000
0000
0010
0000
0100
0000
0001
0000
0001
1000
,
0002
0000
0103
0010
1000
0100
0010
0010
,
0100
0000
1000
0000
0020
0000
0130
0100
,
0002
0000
1003
0000
0001
0100
0010
0010
,
1000
0100
0010
0000
0100
1000
0010
0010
,
0200
0000
0301
0000
1000
0100
0010
0010
,
0100
1000
0001
0000
0200
0000
0301
0001
,
2000
0000
3100
0000
1000
0001
0100
0100
,
0001
0010
0100
0000
0010
0001
0100
0100
,
0010
0000
0000
0000
0200
0000
0000
0000
0301
1000
0001
1000
0100
0000
0020
0000
,
0130
0000
0000
0000
2000
0000
0000
0000
3001
0000
0100
0100
0001
1000
0001
1000
,
0001
0000
0000
0000
0020
0000
0000
0000
0031
1000
0001
1000
0001
0000
2000
0000
,
3100
0000
0000
0000
0020
0000
0000
0000
0130
0000
0000
1000
0000
0000
0010
0000
,
0110
0000
0000
0000
0101
0000
0000
0001
0000
0000
0000
0000
1100
0000
1000
0000
,
0010
0000
0000
0100
0001
0000
0000
0010
0000
0000
0000
0000
0110
0000
0100
0000
,
0101
0000
0000
0001
1000
0000
0000
0100
0000
0010
1000
0000
1001
0000
0001
0000
,
0011
0000
0000
0010
0100
0000
0000
1100
0000
0000
1000
0000
1010
0000
0010
0000
,
1000
0001
0000
0000
0102
0000
0000
0103
0000
0010
1000
0000
0001
0000
0000
0000
,
0010
0100
0000
0000
2100
0000
0000
3100
0000
0010
0100
0000
1000
0000
1000
0000
,
1001
0000
0000
0001
1000
0000
0000
0000
0010
1000
0100
1000
0010
0000
0010
0000
,
0110
0000
0000
1000
0001
0000
0000
0000
0010
0001
0100
0001
0010
0000
0010
0000
,
0200
0000
0000
0000
0000
0000
0000
2300
,
0000
0000
0000
3000
,
0020
0000
0000
0000
0000
0000
0000
0230
,
0000
0000
0000
0000
0000
0000
0000
0300
;

//---------------dance-single - ----------------
#NOTES:
     dance-single:
     :
     Hard:
     10:
     0.428,0.423,0.258,0.113,0.496:
1001
0000
1000
0100
1000
0000
0010
0100
0000
0010
0100
0000
0001
0000
0001
0000
,
1001
0000
1000
0100
1000
0000
0001
0100
0000
0001
0100
0000
1001
0000
1000
0000
,
0001
0010
0001
0000
0110
0000
0100
1000
0000
1000
0000
0010
0100
0000
0100
0000
,
0001
0010
0001
0000
0110
0000
0010
1000
0000
1000
0000
0100
0010
0000
0010
0000
,
0100
1000
0100
0000
0110
0000
0100
0001
0000
0000
0000
0000
1001
0000
0001
0000
,
0100
0000
0000
0001
0000
0000
0100
0000
0000
0000
0000
0000
0110
0000
0000
0000
0000
0000
0100
0000
0000
1000
0000
0000
0001
0000
0100
0000
0010
0000
1000
0000
0000
0000
1000
0000
0002
0000
0000
0000
0000
0000
0000
0000
0000
0000
0000
0000
,
1003
0010
1000
0000
1001
0000
0001
0010
0000
0010
0000
0100
0010
0000
0010
0000
,
0001
0100
0001
0000
1001
0000
1000
0010
0000
0010
0000
0100
0010
0000
0010
0000
,
1000
0001
1000
0000
1100
0000
0010
0100
0000
0100
0000
0000
1100
0000
1000
0000
,
0001
1000
0001
0000
0011
0000
0100
0010
0000
0010
0000
0000
0011
0000
0001
1000
,
0010
0100
0000
0100
0010
0000
0100
0001
0000
0001
0010
0000
1001
0000
1000
0000
,
0100
0010
0000
0010
0100
0000
1000
0001
0000
0001
0100
0000
0110
0000
0010
0000
,
1000
0100
0000
0100
1000
0000
0001
0100
0000
0100
0010
0000
0110
0000
0100
0000
,
0001
1000
0000
1000
0100
0000
0010
0001
0000
0001
0100
0000
0110
0000
0010
0000
,
1000
0001
0000
0001
0010
0000
0100
1000
0000
1000
0010
0000
0110
0000
0100
0000
,
0001
1000
0000
1000
0010
0000
0100
0001
0000
0001
0010
0000
0110
0000
0100
0000
,
1000
0010
0000
0010
0100
0000
0010
0100
0000
0100
0001
0000
1001
0000
1000
0000
,
0001
0010
0000
0010
0100
0000
0010
0100
0000
0100
1000
0000
1001
0000
0001
0000
,
0100
0000
0000
0000
0000
0000
0100
0000
0000
0001
0000
0000
2000
0000
0000
0000
0000
0000
0001
0000
0000
0000
0000
0000
3001
0000
0000
0100
0000
0000
1000
0000
0000
0100
0000
0000
0002
0000
0000
0000
0000
0000
0013
0000
0100
0000
1000
0000
,
0100
0000
0000
0000
0000
0000
0100
0000
0000
1000
0000
0000
0020
0000
0000
0000
0000
0000
0100
0000
0000
0000
0000
0000
0130
0000
0001
0000
0100
0000
0001
0000
0000
0001
0000
0000
1000
0000
0000
1000
0000
0000
0100
0000
0000
0100
0000
0000
,
0010
0000
0000
0000
0000
0000
0010
0000
0000
0001
0000
0000
0200
0000
0000
0000
0000
0000
0001
0000
0000
0000
0000
0000
0301
0000
0000
0010
0000
0000
1000
0000
0000
0010
0000
0000
0002
0000
0000
0000
0000
0000
0103
0000
0010
0000
1000
0000
,
0100
0000
0100
1000
0001
0001
1000
1000
0001
0010
0001
0001
0100
0010
0010
0000
,
1000
0001
0000
0001
1000
0000
0100
0010
0001
0010
0001
0000
1001
0000
1000
0000
,
0001
1000
0000
1000
0001
0000
0100
0010
1000
0100
1000
0000
1001
0000
0101
0000
,
0100
0010
0000
0010
1000
0000
0001
0010
0100
0010
0001
0000
1001
0000
1000
0000
,
0100
0010
0000
0010
0001
0000
1000
0010
0100
0010
1000
0000
1001
0000
0011
0000
,
0010
0001
0000
0001
2000
0000
0001
0000
3001
0010
0100
1000
0002
0000
1003
0000
,
0010
1000
0000
1000
0001
0000
1000
0001
1000
0100
0010
0000
0101
0000
1001
0000
,
0001
1000
0000
1000
0200
0000
1000
0000
1300
0001
0100
0010
2000
0000
3001
0000
,
0010
0001
0000
0001
1000
0000
0010
1000
0010
1000
0001
0010
0011
0000
1001
0000
,
2000
0000
0000
0000
0000
0000
3000
0200
,
0000
0000
0000
0000
0000
0000
0000
0300
,
0020
0000
0000
0000
0000
0000
0030
0002
,
0000
0000
0000
0000
0000
0000
0000
0003
;

//---------------dance-single - ----------------
#NOTES:
     dance-single:
     :
     Beginner:
     2:
     0.089,0.109,0.129,0.000,0.000: // measure 1
1001
1000
1000
0000
,  // measure 2
1001
0001
0001
0000
,  // measure 3
1000
0000
0010
0000
,  // measure 4
0100
0000
0001
0000
,  // measure 5
0100
0000
0010
0000
,  // measure 6
1000
0000
1000
0000
,  // measure 7
0100
0100
0100
0000
,  // measure 8
0010
0010
0010
0000
,  // measure 9
0001
0001
0001
0000
,  // measure 10
1000
1000
1000
0000
,  // measure 11
1001
0000
0000
0000
,  // measure 12
0110
0000
0000
0000
,  // measure 13
1001
0000
0000
0000
,  // measure 14
0110
0000
0000
0000
,  // measure 15
1001
0000
0000
0000
,  // measure 16
0110
0000
0000
0000
,  // measure 17
1001
0000
0000
0000
,  // measure 18
0110
0000
0000
0000
,  // measure 19
0010
0010
0010
0000
,  // measure 20
0100
0100
0100
0000
,  // measure 21
0010
0100
0010
0000
,  // measure 22
0100
0010
0100
0000
,  // measure 23
1001
0000
0010
0000
,  // measure 24
0110
0000
1000
0000
,  // measure 25
1001
0000
0100
0000
,  // measure 26
0110
0000
0001
0000
,  // measure 27
1001
0000
1000
0000
,  // measure 28
1000
0000
0000
0000
,  // measure 29
1001
0000
0001
0000
,  // measure 30
0001
0000
0000
0000
,  // measure 31
0100
0000
0000
0000
;
