#TITLE:Foolish Hero;
#SUBTITLE:;
#ARTIST:lapix;
#TITLETRANSLIT:;
#SUBTITLETRANSLIT:;
#ARTISTTRANSLIT:;
#CREDIT:DigiMindAxel;
#BANNER:Foolish Hero.png;
#BACKGROUND:Foolish Hero-bg.png;
#LYRICSPATH:;
#CDTITLE:SOUND VOLTEX.png;
#MUSIC:Foolish Hero.mp3;
#METERTYPE:DDR X;
#OFFSET:-10.035;
#SAMPLESTART:84.499;
#SAMPLELENGTH:12.000;
#SELECTABLE:YES;
#BPMS:0.000=145.000;
#STOPS:;
#BGCHANGES:;

//---------------dance-single - ----------------
#NOTES:
     dance-single:
     :
     Easy:
     5:
     0.253,0.241,0.041,0.182,0.000:
2002
0000
0000
3003
,
0000
0000
0000
0000
,
0220
0000
0000
0330
,
0000
0000
0000
0000
,
0010
0000
0100
0000
,
0010
0000
0100
0000
,
0001
0000
1000
0000
,
0001
0000
1000
0000
,
0100
0000
0010
0000
,
0001
1000
0001
0000
,
1000
0001
1000
0001
,
2000
0000
0000
0000
,
3100
0000
1000
0100
,
1000
0000
0010
0100
,
0010
0000
1000
0001
,
2000
0000
3200
0000
,
0310
0001
0010
0000
,
0001
1000
0001
0000
,
0100
0001
0100
0000
,
0010
0010
0010
0010
,
0110
0000
0100
0001
,
1000
0000
0100
1000
,
0100
0000
0010
0001
,
0100
0100
0100
0100
,
0010
0100
0001
0000
,
0010
0001
1000
0000
,
0100
1000
0100
1000
,
0002
0000
0000
1003
,
0001
0010
0100
1000
,
0001
0010
0100
1000
,
0001
0100
0010
1000
,
0001
0100
0020
0030
,
1000
0100
0010
0001
,
1000
0100
0010
0001
,
1000
0010
0100
0001
,
1000
0001
1000
0001
,
2000
0000
0100
0000
,
3200
0000
0010
0000
,
0320
0000
0001
0000
,
0032
0000
1000
0000
,
2003
0000
3002
0000
,
2003
0000
3002
0000
,
1003
0100
0010
0001
,
2000
0000
0000
0000
,
3001
0000
0000
0000
,
1001
1000
0001
1000
,
0100
1000
0010
0100
,
0001
1000
0001
0100
,
0001
0010
0100
1000
,
0010
0100
0001
0010
,
0001
0100
0010
1000
,
0100
1000
0010
0100
,
0010
1000
0001
1000
,
0001
0010
0001
0010
,
0001
0100
0010
1000
,
0100
1000
0010
0100
,
0010
1000
0100
0010
,
0001
0100
0001
1000
,
0100
0010
0001
0010
,
0100
1000
0010
0100
,
0010
0010
1000
1000
,
1002
0000
0000
0000
,
0203
0000
0000
0000
,
0320
0000
0000
0000
,
2030
0000
0000
0000
0000
0000
0000
3001
;

//---------------dance-single - ----------------
#NOTES:
     dance-single:
     :
     Medium:
     8:
     0.412,0.402,0.298,0.223,0.000:
1001
0000
0000
1001
0000
0000
2002
0000
,
0000
0000
3003
0000
,
0110
0000
0000
0110
0000
0000
0220
0000
,
0000
0000
0330
0000
,
0010
0100
0010
0100
,
0010
0100
0010
0100
,
0001
1000
0001
1000
,
0001
1000
0001
1000
,
0100
0010
0001
1000
,
0100
0010
0001
1000
,
0010
0010
0010
0110
,
0001
0002
0000
0000
1003
0000
0000
0000
,
1001
0000
0001
0100
0001
0000
1000
0100
,
2000
3001
0200
0310
,
0100
0001
1000
0000
0100
1000
0100
0000
,
2000
3002
0203
0320
,
0130
0001
0100
0000
0001
1000
0100
0000
,
1000
0100
1000
0000
0001
1000
0001
1000
,
0001
0000
0010
0000
0100
1000
0100
0000
,
1001
1001
1001
1001
,
0110
0000
1000
0100
1000
0000
0100
0000
,
0010
0001
0100
0000
0010
0000
0010
0000
,
0100
0001
0010
0000
0002
0000
1003
0000
,
0002
2003
3200
0320
,
0031
1000
0001
0000
0010
0100
0010
0000
,
0001
0100
0010
0000
0100
0000
0100
0000
,
0010
1000
0100
0000
2002
0000
3003
0000
,
0220
0300
0130
0110
,
1000
0001
0100
0000
0100
0000
0101
0000
,
0001
1000
0010
0000
0010
0000
1010
0000
,
1000
0001
0010
0000
0010
0000
0011
0000
,
0001
1000
0100
0000
0100
0000
1100
0000
,
1000
0100
0010
0000
0010
0000
0110
0000
,
0001
0010
0100
0000
0100
0000
0110
0000
,
1000
0010
0100
0000
0100
0000
0110
0000
,
0001
0100
0010
0000
0010
0000
0110
0000
,
1001
0000
1001
0000
,
1100
0000
1100
0000
,
0011
0000
0011
0000
,
1001
0000
1001
0000
,
1001
0010
0100
1000
,
0010
0100
0001
1000
,
0100
0010
0100
0010
0100
0010
0100
0010
,
0200
0000
0000
0300
,
2002
0000
0000
3003
,
0001
0100
0010
0000
0100
0010
0100
0000
,
0001
0010
0100
0000
0010
0100
0010
0000
,
0001
1000
0001
0000
1000
0100
1000
0000
,
0010
1000
0100
0000
1000
0100
1000
0000
,
0001
1000
0010
0000
1000
0010
1000
0000
,
0001
1000
0001
0000
1000
0100
1000
0000
,
0100
1000
0001
0000
0010
0100
1000
0000
,
0001
1000
0001
1000
0001
0000
0000
0000
,
1000
0100
1000
0000
0100
1000
0001
0000
,
0010
0100
0010
0000
0001
1000
0010
0000
,
1000
0010
1000
0000
0100
0010
0100
0000
,
1000
0001
1000
0000
0001
0010
0100
0000
,
0010
0001
0010
0000
0100
0010
0100
0000
,
1000
0010
0100
0000
0010
0100
0010
0000
,
0100
0001
0010
0000
0001
1000
0001
0000
,
1000
0100
0010
0000
0100
0010
0001
0000
,
2001
0001
0000
0001
,
3020
0100
0000
0100
,
2030
0000
0000
0000
,
3002
0000
0000
0000
0003
0000
0000
1001
;

//---------------dance-single - ----------------
#NOTES:
     dance-single:
     :
     Hard:
     11:
     0.564,0.563,0.331,0.314,0.083:
0011
0000
0000
0010
0000
0000
0110
0000
0000
0100
0000
0000
2200
0000
0000
0000
,
0000
0300
0001
3001
,
1010
0000
0000
0010
0000
0000
0110
0000
0000
0100
0000
0000
0202
0000
0000
0000
,
0000
0000
0300
1003
,
0001
0100
0010
1000
,
0001
0100
0010
1000
,
0100
0010
0001
1000
,
0100
0010
0001
1000
,
0001
1000
0001
1000
0001
1000
0001
1000
,
0100
1000
0100
1000
0100
1000
0100
1000
,
0010
0100
0001
1000
0001
0000
1001
0000
,
1000
1000
0001
0010
0110
0000
0110
0000
,
1001
0000
1000
0010
0100
0010
1000
0100
,
0020
0000
0130
0010
0001
0100
0010
0000
,
1000
0100
0001
0100
1000
1000
0001
0000
,
0201
0320
2030
3002
,
1003
0010
0001
0010
1000
0100
0010
0001
,
0010
0100
1000
0000
0001
0001
1000
1000
,
0001
0010
0100
0010
0001
1000
0010
0000
,
1010
1010
0110
0110
,
1001
0000
1000
0001
0100
0001
1000
0100
,
0010
0010
0100
0000
1100
0000
0011
0000
,
0001
0010
1000
0010
0001
1000
0100
0000
,
2100
3002
0023
0230
,
0310
0001
1000
0100
0001
0100
1000
0000
,
0001
0010
0100
0010
0001
0001
1000
1000
,
0001
1000
0001
0000
1000
0000
0100
0000
1100
0000
0000
0100
0000
0000
0100
0000
,
2002
0000
0003
0000
3001
0001
1001
0000
,
1000
0100
0010
0001
0010
0100
1100
0000
,
0001
0100
0010
1000
0010
0100
0101
0000
,
1000
0100
0010
0001
0010
0100
1100
0000
,
0001
0100
0010
1000
0020
0100
0130
0000
,
0001
1000
0100
1000
0001
1000
1100
0000
,
1000
0001
0100
0001
1000
0001
0101
0000
,
0001
0001
1000
1000
0100
0010
0001
1000
,
0001
0000
0100
0010
0000
0100
0010
0000
1000
0000
1000
0000
0001
0000
0001
0000
,
2002
3003
2200
3300
,
0022
0033
2200
3300
,
2002
3003
2020
3030
,
0202
0303
2002
3003
,
1001
1000
0100
0001
,
0100
1000
0010
0100
,
0001
0100
0010
1000
0100
0010
0001
1000
,
0002
1000
1000
1003
,
0110
0000
0010
0000
0010
0100
0010
0000
,
1000
0100
0010
0100
1000
0001
0100
0001
,
1000
0010
0001
0010
1000
0010
0001
0010
,
1000
0001
0100
0001
1000
0100
0010
0100
,
1000
0100
0001
0100
1000
0100
0001
0100
,
1000
0010
0100
0001
0010
0100
1000
0001
,
1000
0010
0001
0010
1000
0010
0001
0010
,
1000
0001
0010
0100
0010
0001
1000
0001
,
1000
0010
0001
0010
1000
1000
1001
0000
,
0001
0000
0100
0010
0100
0000
0001
0000
1000
0100
1000
0000
0100
0010
0100
0000
,
1000
0100
0001
0100
1000
0010
0001
0010
,
1000
0000
0001
0100
0001
0000
1000
0000
0001
0010
0001
0000
0010
0100
0010
0000
,
0001
0100
1000
0100
0001
2000
0001
3001
,
1000
0000
0100
1000
0100
0000
0010
0000
0001
0100
0001
0000
1000
0010
1000
0000
,
0100
0001
0100
1000
0010
0001
0010
1000
,
0001
0000
1000
0010
1000
0000
0001
0000
0010
0001
0010
0000
0001
1000
0001
0000
,
0100
1000
0100
0001
0020
0100
0100
0130
,
1100
0010
0001
0010
,
1000
0100
0001
0100
,
2000
0000
3002
0000
,
2003
0000
0000
0000
3000
0000
0000
0101
;

//---------------dance-single - ----------------
#NOTES:
     dance-single:
     :
     Challenge:
     14:
     0.714,0.751,0.355,0.157,0.665: // measure 1
1001
0000
0000
1100
0000
0000
0011
0000
0000
1100
0000
0000
1001
0000
0000
0000
,  // measure 2
0001
0000
0001
0000
0001
0010
0100
0000
,  // measure 3
1001
0000
0000
0101
0000
0000
1010
0000
0000
0101
0000
0000
1001
0000
0000
0000
,  // measure 4
1000
0000
0000
0000
1000
0000
0000
0000
1000
0000
0000
0000
0001
1000
0000
0000
,  // measure 5
1001
1000
0100
0001
,  // measure 6
0100
0000
0000
0000
1000
0000
0000
0000
0020
0000
0000
0100
0000
0000
0130
0000
,  // measure 7
0001
0010
1000
0010
,  // measure 8
0001
0100
0010
1000
,  // measure 9
0001
0010
0100
0010
0001
1000
0100
1000
,  // measure 10
0001
0100
0010
0100
0001
0010
0100
1000
,  // measure 11
1100
0110
0011
1001
,  // measure 12
1000
0000
1000
0000
0001
0100
0010
0100
0001
0000
0000
0000
0101
0000
0000
0000
,  // measure 13
1000
0000
0000
0000
1001
0000
0001
0000
0100
0000
0010
1000
0000
1000
0010
0000
,  // measure 14
0100
0001
0000
0010
0200
0000
1000
0000
1300
0001
1000
0000
0001
0100
0000
0000
,  // measure 15
0001
0010
0001
0010
0001
0000
1000
0001
2000
0000
0010
0000
3010
0000
0000
0000
,  // measure 16
1001
0000
0000
0001
0100
0000
0000
0100
0010
0000
0000
0010
1000
0000
0000
0000
,  // measure 17
0001
0000
1000
0100
1000
0100
1000
0000
0001
0100
0001
0100
0001
0010
0100
1000
,  // measure 18
0001
0100
0000
0100
0001
0000
0000
0000
1000
0000
1000
0000
0001
0000
0001
0000
,  // measure 19
1000
0100
1000
0100
0010
0000
0001
1000
0000
1000
0001
0000
0100
0000
0000
0000
,  // measure 20
1001
0000
0001
1000
0001
0000
1000
0001
1000
0000
0001
1000
0001
0000
0000
0000
,  // measure 21
1000
0000
0000
0000
1001
0000
1000
0000
0001
0000
1000
0100
0000
0100
1000
0000
,  // measure 22
0001
0100
0000
0010
0100
0000
0000
0000
0001
0100
0001
0000
1000
0010
1000
0000
,  // measure 23
0001
0010
0001
0010
0001
0000
0010
0200
0000
0000
1000
0000
1300
0000
0000
0000
,  // measure 24
1001
0000
0000
1000
0100
0000
0000
0100
0010
0000
0000
0010
0001
0000
0000
0000
,  // measure 25
1000
0000
0001
0000
1000
0010
0100
0010
1000
0100
0010
0000
0001
0010
0100
1000
,  // measure 26
0001
0100
0000
0100
0001
0000
0000
0000
1000
0000
1000
0000
0001
0000
0001
0000
,  // measure 27
1000
0100
1000
0001
0100
0000
0001
0000
1001
0000
0000
1001
0000
0000
1001
0000
,  // measure 28
0220
0000
0300
0000
0100
0130
1001
0000
,  // measure 29
0001
0000
0100
0000
0101
0000
1000
0100
0000
0100
1000
0000
1001
0000
0000
0000
,  // measure 30
1000
0000
0010
0000
0110
0000
0001
1000
0000
1000
0001
0000
0101
0000
0000
0000
,  // measure 31
0100
0000
0010
0000
0011
0000
1000
0010
0000
0010
1000
0000
1001
0000
0000
0000
,  // measure 32
0001
0000
1000
0000
1100
0000
0010
0100
0020
0000
0001
0000
0031
0000
0000
0000
,  // measure 33
1000
0000
0001
0000
1001
0000
1000
0010
0000
0010
0100
0000
0110
0000
0000
0000
,  // measure 34
0001
0000
1000
0000
1001
0000
0001
0010
0000
0010
0100
0000
0110
0000
0000
0000
,  // measure 35
1000
0100
1000
0000
0100
0010
0100
0000
1000
0000
0010
0000
0100
0000
0001
0000
,  // measure 36
1000
0000
0100
0010
0000
0100
0010
0000
0002
0000
1000
0000
1003
0000
0010
0000
,  // measure 37
0220
0030
0002
0003
,  // measure 38
0020
0000
0000
0000
0030
0000
0000
0000
0301
0000
0000
0000
1000
0100
1000
0100
,  // measure 39
2000
0000
0002
0003
,  // measure 40
0200
0300
0002
3003
,  // measure 41
1001
0000
0000
0000
1000
0000
0000
0010
0000
0000
0100
0000
0001
0000
0000
0010
,  // measure 42
0000
0000
0100
0000
1000
0000
0000
0001
0000
0000
0100
0000
0010
0000
0000
1000
,  // measure 43
0001
0000
0000
0001
0100
0000
0000
0100
0010
0000
0000
0010
0100
0000
0000
0100
,  // measure 44
0001
1000
0001
1000
0001
1000
0001
1000
0001
1000
0001
1000
0001
0000
0000
0000
,  // measure 45
1001
0000
0000
0000
1000
0000
0000
0000
0001
0100
0010
0100
0001
0000
0000
0000
,  // measure 46
1000
0010
1000
0010
1000
0000
0001
0000
0010
0001
0010
0000
0001
1000
0001
0000
,  // measure 47
1000
0100
0010
0000
0100
0010
0001
0000
1000
0100
0010
0000
0100
0010
0001
0000
,  // measure 48
1000
0100
1000
0100
1000
0000
0001
0000
0100
0010
0100
0000
0001
1000
0001
0000
,  // measure 49
1000
0010
0100
0000
0010
0100
0001
0000
1000
0010
0200
0000
0001
0000
0301
0000
,  // measure 50
1000
0001
1000
0001
1000
0000
0100
0000
0010
0100
0010
0000
0001
0100
0001
0000
,  // measure 51
1000
0001
0010
0000
0001
1000
0010
0000
1000
0100
0010
0000
0001
0010
0100
0000
,  // measure 52
1000
0001
1000
0001
1000
0000
0001
0000
0100
0001
0100
0000
0010
0100
0010
0000
,  // measure 53
1000
0010
0100
0000
0010
0100
0001
0000
1000
0000
1000
0000
1001
0000
0000
0000
,  // measure 54
0001
0100
0010
0100
0001
0000
0100
0000
0001
0010
0100
1000
0010
0100
0001
0000
,  // measure 55
1000
0100
0010
0000
0010
0001
0100
0000
0100
0010
1000
0000
1000
0100
0010
0001
,  // measure 56
1000
0010
0100
0010
1000
0000
0010
0000
1000
0100
0010
0001
0100
0010
0100
0000
,  // measure 57
0001
1000
0010
0000
0010
1000
0100
0000
0100
1000
0002
0000
1000
0000
1003
0000
,  // measure 58
0001
0010
0100
0010
0001
0000
1000
0000
0100
1000
0010
0100
0001
0010
0001
0000
,  // measure 59
0010
0100
1000
0000
1000
0001
0100
0000
0100
0001
0010
0100
1000
0001
0100
0001
,  // measure 60
1000
0100
0010
0100
1000
0000
0001
0000
1000
0010
0100
0001
0100
0010
1000
0000
,  // measure 61
0010
1000
0100
0000
0100
0010
0001
0000
0001
1000
0010
0000
0100
0000
0100
0000
,  // measure 62
0110
0000
0000
0100
0001
0000
0000
0001
1000
0000
0100
0000
0010
0000
0001
0000
,  // measure 63
1000
0000
0000
1000
0010
0000
0000
0010
0100
0000
0000
0100
0001
0000
0000
0000
,  // measure 64
0010
0100
1000
0100
,  // measure 65
0020
0000
0000
0000
0030
0000
0000
1001
;

//---------------dance-single - ----------------
#NOTES:
     dance-single:
     :
     Beginner:
     2:
     0.115,0.161,0.107,0.000,0.000:
1001
0000
0000
0000
,
0000
0000
0000
0000
,
1001
0000
0000
0000
,
0000
0000
0000
0000
,
1000
0000
0000
0000
,
0000
0000
0000
0000
,
0100
0000
0000
0000
,
0000
0000
0000
0000
,
0010
0000
0000
0000
,
0001
0000
0000
0000
,
0010
0000
0000
0000
,
0001
0000
0000
0000
,
1000
0000
0001
0000
,
1000
0000
0000
0000
,
0100
0000
0010
0000
,
0100
0000
0000
0000
,
1000
0000
0010
0000
,
1000
0000
0000
0000
,
0001
0000
0100
0000
,
0001
0000
0000
0000
,
1001
0000
0000
0000
,
1000
0000
0100
0000
,
0010
0000
0000
0000
,
0001
0000
1000
0000
,
0001
0000
0010
0000
,
0100
0000
0000
0000
,
1000
0000
0001
0000
,
0100
0000
0000
0000
,
1001
0000
0000
0000
,
0110
0000
0000
0000
,
1001
0000
0000
0000
,
1000
0000
0000
0000
,
1001
0000
0000
0000
,
0110
0000
0000
0000
,
1001
0000
0000
0000
,
1001
0000
0000
0000
,
0001
0000
0010
0000
,
0001
0000
0010
0000
,
0001
0000
1000
0000
,
0001
0000
0000
0000
,
1001
0000
1000
0000
,
0001
0000
1000
0000
,
0001
0000
0000
0000
,
1000
0000
0000
0000
,
1001
0000
0000
0000
,
0100
0000
0010
0000
,
0100
0000
0000
0000
,
1000
0000
0010
0000
,
1000
0000
0000
0000
,
0001
0000
0100
0000
,
0001
0000
0000
0000
,
0010
0000
0100
0000
,
0010
0000
0000
0000
,
0001
0000
1000
0000
,
0001
0000
0100
0000
,
0001
0000
1000
0000
,
0001
0000
0100
0000
,
0001
0000
1000
0000
,
0001
0000
0010
0000
,
0001
0000
1000
0000
,
0001
0000
0010
0000
,
0001
0000
0000
0000
,
0000
0000
0000
0000
,
0000
0000
0000
0000
,
0000
0000
0000
0000
0000
0000
0000
1001
;
