#TITLE:Flip Flap;
#SUBTITLE:;
#ARTIST:kors k;
#TITLETRANSLIT:;
#SUBTITLETRANSLIT:;
#ARTISTTRANSLIT:;
#CREDIT:DigiMindAxel;
#BANNER:Flip Flap.png;
#BACKGROUND:Flip Flap-bg.png;
#LYRICSPATH:;
#CDTITLE:REFLEC BEAT.png;
#MUSIC:Flip Flap.mp3;
#METERTYPE:DDR X;
#OFFSET:-11.420;
#SAMPLESTART:22.346;
#SAMPLELENGTH:12.000;
#SELECTABLE:YES;
#BPMS:0.000=175.000;
#STOPS:;
#BGCHANGES:;

//---------------dance-single - ----------------
#NOTES:
     dance-single:
     :
     Easy:
     4:
     0.223,0.287,0.122,0.026,0.000:
0001
0000
0001
0000
,
1000
0000
1000
0000
,
0001
0000
0001
0000
,
1000
0000
1000
0000
,
0001
1000
0001
0000
,
1000
0001
1000
0000
,
0001
0001
1000
1000
,
0002
0000
0000
0000
,
0103
0000
0010
0000
,
0100
0010
0100
0000
,
0001
0000
1000
0000
,
0100
1000
0100
0000
,
1000
0000
0001
0000
,
0100
0001
0100
0000
,
0001
0000
1000
0000
,
0100
1000
0100
0000
,
0000
1000
1000
0000
,
0000
0001
0001
0000
,
1000
0000
0001
0000
,
0100
0000
0001
0000
,
0000
1000
1000
0000
,
0000
0001
0001
0000
,
0010
0000
0100
0000
,
0010
0000
0100
0000
,
1000
0000
1000
0000
,
0001
0000
0001
0000
,
0100
0000
0100
0000
,
0010
0000
0010
0000
,
1000
0000
1000
0000
,
0001
0000
0001
0000
,
1000
0000
1000
0000
,
0001
1000
0001
1000
,
0001
0000
0001
0000
,
1000
0000
1000
0000
,
0010
0000
0010
0000
,
0100
0000
0100
0000
,
0001
0000
0001
0000
,
0010
0000
0010
0000
,
0100
0000
0100
0000
,
1000
0001
1000
0000
,
1001
0000
0001
0000
,
1000
0000
0000
0000
,
0001
0000
1000
0000
,
0001
0000
0000
0000
,
1001
0000
0001
0000
,
0001
0000
0001
0000
,
1000
0000
1000
0000
,
1000
0000
1000
0000
,
1001
0000
0001
0100
,
0001
0000
0000
0000
,
1000
0000
0010
1000
,
0010
0000
0000
0000
,
1001
0000
1000
0000
,
1001
0000
0001
0000
,
0100
0100
0100
0100
,
0100
0000
0000
0000
,
0110
0000
0010
0000
,
0100
0010
0100
0000
,
0110
0000
0010
0000
,
0100
0010
0100
0000
,
1001
0000
0001
0000
,
0010
0001
0010
0000
,
1001
0000
0001
0000
,
0010
0001
0010
0000
,
1001
0000
1000
0000
,
0100
0000
1000
0000
,
0010
0100
0010
0000
,
1000
0001
1000
0000
,
1001
0000
0001
0000
,
1001
0000
0001
0000
,
0100
0010
0100
0000
,
1001
0001
0001
0000
,
2002
0000
0000
0000
,
3003
0000
0000
0000
;

//---------------dance-single - ----------------
#NOTES:
     dance-single:
     :
     Medium:
     9:
     0.462,0.542,0.559,0.096,0.166:
1001
0000
0001
0000
,
0010
0000
0001
0000
,
0100
0000
0010
0000
,
0100
0000
0001
0000
,
1000
0100
1000
0100
,
1000
0001
1000
0001
,
1000
0100
1000
0100
,
2000
0000
0000
0000
,
3001
1001
1000
0010
,
0100
0001
0101
0101
,
0001
1000
0100
1000
,
0010
0100
0110
0110
,
0010
1000
0100
0010
,
0001
1000
1100
1100
,
1000
0001
0010
0100
,
1000
0010
0010
0110
,
0000
0110
0100
0001
,
0000
0110
0100
1000
,
0010
0010
0100
0001
,
1000
0100
0010
0001
,
1000
0110
0010
0001
,
0000
0110
0010
1000
,
0001
0001
1000
0100
,
0010
0001
1000
0000
,
1001
0000
0000
0001
0000
0010
0000
0000
0001
0000
0000
0000
,
1001
1000
0100
1000
,
1001
0000
0000
0001
0000
0100
0000
0000
0001
0000
0000
0000
,
1001
1000
0010
1000
,
1001
0000
0000
0001
0000
0010
0000
0000
0001
0000
0000
0000
,
0100
0000
0000
0010
0000
0000
0100
0000
0001
0100
0000
0000
,
0001
0000
0000
1000
0000
0100
0000
0000
1000
0000
0000
0000
,
0010
0000
0000
0010
0000
0000
0010
0000
0100
0010
0000
0000
,
0100
1001
1000
1100
,
0001
0000
1000
0001
0000
1000
0001
0000
0000
0010
0000
0000
,
0100
0110
0010
0011
,
0001
0000
1000
0001
0000
1000
0001
0000
0000
1000
0000
0000
,
0010
0110
0100
0101
,
0001
0000
1000
0001
0000
1000
0001
0000
0000
1000
0000
0000
,
1100
1100
0011
0011
,
1001
1001
0100
0000
,
0101
0000
0000
0100
0000
0000
0001
0000
0001
0000
0000
0000
,
1000
0000
0000
0100
0000
1000
0100
0000
0000
1000
0000
0000
,
0001
0000
0000
0010
0000
0000
0001
0000
0001
0000
0000
0000
,
0100
0000
0010
0100
0000
0010
0100
0000
0000
0010
0000
0000
,
0101
0010
0100
1000
,
0100
0010
0001
1000
,
0010
0100
0001
0100
,
0010
1000
0001
1000
,
1001
1001
0001
0010
,
0100
0000
0000
1000
0000
0010
0100
0000
0000
0100
0000
0000
,
0001
1000
0010
0100
,
0001
0000
0000
1000
0000
0100
0010
0000
0000
0010
0000
0000
,
0101
0101
0002
0003
,
1010
1010
2000
3000
,
0110
0110
0110
0110
,
0220
0000
0000
0330
,
1001
0000
0000
1001
0000
0000
0001
0000
1000
0001
0000
0000
,
0010
0000
0000
0100
0000
0000
0010
0000
0000
0001
0000
1000
,
0010
0000
0000
1010
0000
0000
1000
0000
0001
1000
0000
0000
,
0010
0000
0100
0010
0000
0100
0010
0000
0000
0010
0000
0000
,
1001
0000
0000
1001
0000
0000
1000
0000
0001
1000
0000
0000
,
0010
0000
0000
0100
0000
0000
0010
0000
0000
1000
0000
0001
,
0010
0000
0000
0011
0000
0000
0001
0000
1000
0001
0000
0000
,
0100
0000
0010
0100
0000
0010
0100
0000
0000
0100
0000
0000
,
1001
0011
0011
0100
,
1001
1100
1100
0010
,
1001
0000
0000
0001
0000
1000
0100
0000
1000
0100
0000
0000
,
1000
0001
0100
0001
,
1001
0000
0000
1000
0000
0010
0200
0000
0000
0310
0000
0000
,
1001
0000
0000
0001
0000
0010
0200
0000
0000
0310
0000
0000
,
0101
0000
0000
0101
0000
0000
0001
0000
1000
0001
0000
0000
,
1001
1100
2002
3003
,
2002
0000
0000
0000
,
3003
0000
0000
0000
;

//---------------dance-single - ----------------
#NOTES:
     dance-single:
     :
     Hard:
     13:
     0.687,0.733,0.594,0.192,0.821: // measure 1
0101
0000
0000
0010
0000
0000
0100
0000
1000
0000
0000
0000
,  // measure 2
0100
0000
1000
0100
0000
1000
0002
0000
0000
1003
0000
0000
,  // measure 3
0001
0000
0000
0100
0000
0000
0010
0000
1000
0000
0000
0000
,  // measure 4
0001
0000
0100
0001
0000
1000
0002
0000
0000
0103
0000
0000
,  // measure 5
1001
1001
1001
1001
,  // measure 6
0110
0110
0110
0110
,  // measure 7
0010
0000
1000
0010
0000
0100
0001
0000
0010
0100
0000
1000
,  // measure 8
0001
0000
0000
0001
0000
0000
0001
1000
0001
1000
0000
0000
,  // measure 9
1100
0000
0000
1100
0000
0000
1000
0001
0010
0100
0000
1000
,  // measure 10
0002
0000
0000
0103
0000
0000
0110
0000
0000
0110
0000
0010
,  // measure 11
1000
0000
0000
1001
0000
0000
0001
1000
0100
0010
0000
0001
,  // measure 12
1000
0000
1000
0010
0000
0010
0100
0000
0000
0110
0000
0000
,  // measure 13
0101
0000
0000
0101
0000
0000
0001
1000
0100
0010
0000
0001
,  // measure 14
2000
0000
0000
3100
0000
0000
1100
0000
0000
1100
0000
1000
,  // measure 15
0001
0000
0000
0101
0000
0100
0001
1000
0100
0010
0000
0001
,  // measure 16
0100
0000
0100
0010
0000
0010
0100
0000
0000
0110
0000
0000
,  // measure 17
1001
0000
0000
1000
0100
0010
0002
0000
0000
1003
0000
0000
,  // measure 18
1001
0000
0000
0001
0010
0100
2000
0000
0000
3001
0000
0000
,  // measure 19
1000
0000
0000
1001
0000
0001
0010
0001
1000
0001
0000
0010
,  // measure 20
0001
0000
0001
0100
0000
0100
0010
0000
0000
1010
0000
0000
,  // measure 21
1001
0000
0000
0001
0100
0010
2000
0000
0000
3001
0000
0000
,  // measure 22
1001
0000
0000
1000
0010
0100
0002
0000
0000
1003
0000
0000
,  // measure 23
0001
0000
0000
0011
0000
0001
1000
0010
1000
0001
0000
0010
,  // measure 24
0100
0000
0100
1000
0000
1000
0001
0000
0000
0000
0000
0000
,  // measure 25
1000
0000
0001
0100
0000
0100
0000
0000
1001
0000
0000
0000
,  // measure 26
0001
0000
1000
0100
0000
0000
1001
0000
0000
0110
0000
0000
,  // measure 27
0001
0000
1000
0100
0000
0100
0000
0000
1001
0000
0000
0000
,  // measure 28
1000
0000
0001
0100
0000
0000
0110
0000
0000
1001
0000
0000
,  // measure 29
1000
0000
0001
0010
0000
0010
0000
0000
1001
0000
0000
0000
,  // measure 30
0001
0000
1000
0100
0000
0000
1100
0000
1000
0001
0000
0000
,  // measure 31
1000
0000
0001
0100
0000
0100
0000
0000
1001
0000
0000
1000
,  // measure 32
0001
0000
0001
0100
0000
0100
0010
1000
0100
0010
0000
0000
,  // measure 33
0100
0000
0000
1001
0000
0000
0001
0000
0100
0010
0000
0000
,  // measure 34
1000
0000
0001
0100
0000
0001
1000
0000
1000
0100
0000
0000
,  // measure 35
1000
0000
0001
0010
0000
0010
0000
0000
0001
1000
0000
1000
,  // measure 36
0001
0000
0001
0100
0000
0100
0010
1000
0100
0010
0000
0000
,  // measure 37
0001
0000
1000
0100
0000
0100
0000
0000
1000
0001
0000
0000
,  // measure 38
1000
0000
1000
0010
0000
0010
0100
0000
0100
0001
0000
0000
,  // measure 39
1000
0100
1000
0100
1000
0100
1000
0001
1000
0001
1000
0001
,  // measure 40
1000
1001
0010
0010
,  // measure 41
2001
0000
0000
3200
0000
0000
0310
0000
0001
0000
0000
0000
,  // measure 42
1000
0000
0001
0010
0000
0001
1000
0000
0000
1001
0000
0000
,  // measure 43
0102
0000
0000
0203
0000
0000
0310
0000
1000
0000
0000
0000
,  // measure 44
0001
0000
1000
0010
0000
1000
0001
0000
0000
1000
0000
0000
,  // measure 45
1010
0000
0000
0010
0000
0010
1000
0000
0010
0100
0000
0000
,  // measure 46
0101
0000
0000
0100
0000
0100
0001
0000
0100
0010
0000
0000
,  // measure 47
0110
0000
0000
0100
0000
0100
0010
0000
0100
0001
0000
0000
,  // measure 48
1001
0000
0000
0001
0000
0001
1000
0000
0001
0010
0000
0000
,  // measure 49
1001
0000
0000
1001
0000
0000
1000
0001
0100
0010
0000
0100
,  // measure 50
0001
0000
0010
0200
0000
0000
0310
0000
0000
0101
0000
0001
,  // measure 51
1000
0000
0000
1001
0000
0001
1000
0100
0010
0001
0000
1000
,  // measure 52
0010
0000
1000
0001
0000
1000
0020
0000
0000
0130
0000
0000
,  // measure 53
1100
0000
0000
1100
0000
0000
1000
0010
0100
0010
0000
0000
,  // measure 54
0101
0000
0000
0101
0000
0000
0001
1000
0100
0010
0000
0000
,  // measure 55
1001
0000
0001
1000
0000
1000
0001
0000
0001
1000
0000
1000
,  // measure 56
0001
0010
0100
1000
,  // measure 57
1001
0000
0000
1001
0000
0000
1000
0001
0100
0010
0000
1000
,  // measure 58
0100
0000
0100
0001
0000
0001
0200
0000
0000
1300
0000
0001
,  // measure 59
1000
0000
0000
1001
0000
0001
1000
0100
0010
0001
0000
1000
,  // measure 60
0010
0000
0010
0001
0000
0001
0020
0000
0000
1030
0000
0000
,  // measure 61
1001
0000
0000
1001
0000
0000
1000
0001
0100
0010
0000
1000
,  // measure 62
0100
0000
0100
0001
0000
0001
0200
0000
0000
1300
0000
0001
,  // measure 63
1000
0000
0000
1001
0000
0001
1000
0010
0100
0001
0000
1000
,  // measure 64
0010
0100
0010
0100
0000
0001
1000
0000
0000
1100
0000
0000
,  // measure 65
1001
0000
0000
0001
1000
0100
0020
0000
0000
0130
0000
0000
,  // measure 66
1001
0000
0001
1000
0010
0100
0020
0000
0000
1030
0000
0000
,  // measure 67
1001
0000
0001
0100
0000
0001
1000
0100
0010
0100
0000
1000
,  // measure 68
0010
0000
0010
0001
0000
0001
0010
0000
0010
1000
0000
0000
,  // measure 69
1001
0000
0000
0001
0100
0010
0100
0001
0100
0001
0100
0001
,  // measure 70
1000
0000
0001
1000
0100
0010
0100
1000
0100
1000
0100
1000
,  // measure 71
0100
0000
0000
1100
0000
1000
0001
0100
0010
1000
0000
0001
,  // measure 72
1000
0000
1000
0010
0000
0010
0200
0000
0000
0000
0300
0000
,  // measure 73
2002
0000
0000
0000
,  // measure 74
3003
0000
0000
0000
;

//---------------dance-single - ----------------
#NOTES:
     dance-single:
     :
     Beginner:
     2:
     0.095,0.157,0.105,0.000,0.000:
0001
0000
0000
0000
,
0010
0000
0000
0000
,
0001
0000
0000
0000
,
0010
0000
0000
0000
,
0001
0000
0000
0000
,
1000
0000
0000
0000
,
0001
0000
0000
0000
,
1000
0000
0000
0000
,
1001
0000
0000
0000
,
0000
0000
0000
0000
,
0100
0000
0000
0000
,
0000
0000
0000
0000
,
0010
0000
0000
0000
,
0000
0000
0000
0000
,
0100
0000
0000
0000
,
1000
0000
0001
0000
,
0000
1001
0000
0000
,
0000
1001
0000
0000
,
1000
0000
0100
0000
,
1000
0000
0000
0000
,
0000
1001
0000
0000
,
0000
1001
0000
0000
,
0001
0000
0100
0000
,
0001
0000
0000
0000
,
1000
0000
0000
0000
,
0000
0000
0000
0000
,
0100
0000
0000
0000
,
0000
0000
0000
0000
,
0010
0000
0000
0000
,
0000
0000
0000
0000
,
0001
0000
0000
0000
,
0000
0000
0000
0000
,
1000
0000
0000
0000
,
0000
0000
0000
0000
,
0010
0000
0000
0000
,
0000
0000
0000
0000
,
0100
0000
0000
0000
,
0000
0000
0000
0000
,
0001
0000
0000
0000
,
1000
0000
0000
0000
,
1001
0000
0000
0000
,
0000
0000
0000
0000
,
0000
0000
0000
0000
,
0000
0000
0000
0000
,
0010
0000
0000
0000
,
0010
0000
0000
0000
,
0010
0000
0000
0000
,
0010
0000
0000
0000
,
0110
0000
0000
0000
,
0000
0000
0000
0000
,
0100
0000
0000
0000
,
0000
0000
0000
0000
,
0001
0000
0000
0000
,
1000
0000
0000
0000
,
0001
0000
0001
0000
,
0001
0000
0000
0000
,
1000
0000
0000
0000
,
0100
0000
0000
0000
,
1000
0000
0000
0000
,
0100
0000
0000
0000
,
1000
0000
0000
0000
,
0001
0000
0000
0000
,
1000
0000
0000
0000
,
0001
0000
0000
0000
,
0000
1001
0000
0000
,
0000
1001
0000
0000
,
1000
0000
0100
0000
,
1000
0000
0000
0000
,
0000
1001
0000
0000
,
0000
1001
0000
0000
,
0001
0000
0100
0000
,
0001
0000
0000
0000
,
1001
0000
0000
0000
;
