#TITLE:FLASH;
#SUBTITLE:;
#ARTIST:TOMOKO;
#TITLETRANSLIT:;
#SUBTITLETRANSLIT:;
#ARTISTTRANSLIT:;
#CREDIT:DigiMindAxel;
#BANNER:FLASH.png;
#BACKGROUND:FLASH-bg.png;
#LYRICSPATH:FLASH.lrc;
#CDTITLE:DigiMindAxel original simfile.png;
#MUSIC:FLASH.mp3;
#METERTYPE:DDR X;
#OFFSET:-7.850;
#SAMPLESTART:66.234;
#SAMPLELENGTH:12.000;
#SELECTABLE:YES;
#BPMS:0.000=152.000;
#STOPS:;
#BGCHANGES:;

//---------------dance-single - ----------------
#NOTES:
     dance-single:
     :
     Easy:
     5:
     0.208,0.258,0.158,0.025,0.000: // measure 1
1000
0000
0100
0000
,  // measure 2
1000
0000
0100
0000
,  // measure 3
1000
0000
0001
2000
,  // measure 4
0000
0000
3000
0000
,  // measure 5
1001
0000
0110
0000
,  // measure 6
0010
0100
0010
0000
,  // measure 7
0110
0000
1001
0000
,  // measure 8
1000
0001
1000
0000
,  // measure 9
1001
0000
0110
0000
,  // measure 10
0100
0001
0100
0000
,  // measure 11
0110
0000
1001
0000
,  // measure 12
0001
0010
0001
0000
,  // measure 13
1000
0000
1000
0000
,  // measure 14
1000
0000
0000
0000
,  // measure 15
0001
0000
0001
0000
,  // measure 16
0001
0000
0000
0000
,  // measure 17
1000
0000
1000
0000
,  // measure 18
1000
0000
0000
0000
,  // measure 19
0001
0000
0001
0000
,  // measure 20
0001
0000
0000
0000
,  // measure 21
1000
0000
0100
0000
,  // measure 22
1000
0000
0000
0000
,  // measure 23
0001
0000
0010
0000
,  // measure 24
0001
0000
0000
0000
,  // measure 25
1000
0000
0010
0000
,  // measure 26
1000
0000
0000
0000
,  // measure 27
0001
0000
0100
0000
,  // measure 28
0001
0000
1000
1000
,  // measure 29
1001
0000
0000
0000
,  // measure 30
0001
0000
0000
0000
,  // measure 31
0100
0000
0000
0000
,  // measure 32
0010
0000
0000
0000
,  // measure 33
1000
0000
0001
0000
,  // measure 34
1000
0000
0001
0000
,  // measure 35
1000
0000
0100
0000
,  // measure 36
1000
0001
1000
0000
,  // measure 37
0001
0001
0001
0000
,  // measure 38
1001
0000
1000
0000
,  // measure 39
0010
0100
0010
0000
,  // measure 40
1000
0000
0001
0000
,  // measure 41
0010
0001
0010
0000
,  // measure 42
1001
0000
0001
0000
,  // measure 43
0100
0010
0100
0000
,  // measure 44
1001
0000
0001
0000
,  // measure 45
1000
0100
1000
0000
,  // measure 46
1001
0000
0010
0000
,  // measure 47
0100
0010
0100
0000
,  // measure 48
1000
0010
1000
0000
,  // measure 49
0001
0100
0001
0000
,  // measure 50
1001
0000
0001
0000
,  // measure 51
1000
0000
0001
0000
,  // measure 52
0100
0001
0100
0000
,  // measure 53
0010
0100
0010
0000
,  // measure 54
1000
0100
1000
0000
,  // measure 55
0001
0100
0010
0100
,  // measure 56
0001
0000
1000
0000
,  // measure 57
0100
1000
0010
0100
,  // measure 58
0010
0000
1000
0000
,  // measure 59
0100
0010
0001
0010
,  // measure 60
0100
0000
1000
0000
,  // measure 61
0001
0000
0000
0000
,  // measure 62
1001
0000
0010
0000
,  // measure 63
0100
0010
0100
0000
,  // measure 64
0110
0000
0100
0000
,  // measure 65
0001
1000
0001
1000
,  // measure 66
1001
0000
0010
0000
,  // measure 67
0100
0010
0100
0000
,  // measure 68
0110
0000
0010
0000
,  // measure 69
1000
0000
0001
0000
2002
0000
0000
3003
;

//---------------dance-single - ----------------
#NOTES:
     dance-single:
     :
     Medium:
     8:
     0.436,0.429,0.208,0.008,0.004:
1000
0001
1000
0001
,
1000
0100
1000
0100
,
0010
0000
0001
0000
0010
0000
0001
1000
,
0000
1000
0000
1000
1000
0000
1001
0000
,
0101
0100
0101
0100
,
1001
0001
1001
0001
,
1100
1000
1100
1000
,
0001
1000
0000
0100
0000
0010
0000
0001
,
1000
1000
1100
1000
,
1001
0001
0101
0100
,
0110
0010
1010
1000
,
0001
1000
0000
1000
0200
0000
0000
0000
,
1300
0000
0001
1000
0001
0000
1000
0000
,
0100
0000
1000
0001
1000
0000
0001
0000
,
0100
0000
0010
0100
0010
0000
0100
0000
,
0001
0000
1000
0100
1000
0000
0001
0000
,
1000
0000
0001
0010
0001
0000
1000
0000
,
0010
0100
0010
0000
0100
0000
0001
0000
,
1000
0100
1000
0000
0001
0000
1000
0000
,
0110
0000
1001
0000
,
0001
0000
0100
0001
0100
0000
0001
0000
,
1000
0000
0100
1000
0100
0000
1000
0000
,
0001
0000
0100
0001
0100
0000
0001
0000
,
1000
0000
0010
1000
0010
0000
1000
0000
,
0001
0000
0010
0001
0010
0000
0100
0000
,
1000
0000
0010
0100
0010
0000
1000
0000
,
0001
1000
0001
0000
1000
0100
1000
0000
,
0001
0001
0001
0000
1001
0000
1001
0000
,
0110
0100
0010
0100
,
0001
0100
0001
0100
,
0001
1000
0001
1000
,
0100
1000
0100
1000
,
1001
0001
0100
0010
,
0110
0100
0001
0100
,
0010
1000
0100
0010
,
0001
1000
0001
1000
,
1001
1001
1001
0000
,
0010
0100
0001
0000
0001
0000
0001
0000
,
1000
0100
0010
0000
0100
1000
0100
1000
,
0001
1000
0100
1000
,
0001
1000
0000
0100
0000
0010
0000
0001
,
1000
0000
0100
0000
1000
0100
1000
0000
,
0010
0100
0010
0000
1000
0100
0010
0001
,
1000
0000
0001
0000
0100
0000
0001
1000
,
0000
0100
1000
0000
0100
0000
0100
0000
,
1001
0000
0001
0010
0001
0010
0001
0100
,
0001
0000
1000
0000
0100
1000
0100
0000
,
1000
0001
0100
0000
0010
1000
0001
0000
,
1000
0001
0000
0010
0000
0100
0000
1000
,
0001
0010
0001
0000
1000
0100
1000
0000
,
0001
0100
0001
0000
1000
0010
1000
0000
,
0001
1000
0001
1000
0001
1000
0001
0000
,
1000
0001
0000
0001
0000
1000
0001
0000
,
1000
0010
0100
0000
0100
0000
0001
0000
,
1000
0100
1000
0000
0010
0100
0010
0100
,
0001
0010
0100
1000
,
0001
1000
0000
0010
0000
0100
0000
0001
,
1000
0000
0100
1000
0100
0000
1000
0000
,
0001
0100
0001
0000
0100
0010
0100
0001
,
1000
0000
0100
0000
0010
0000
0001
1000
,
0000
1000
0010
0000
0100
0000
0100
0000
,
1001
0000
0001
0000
0100
0010
0100
0000
,
0001
1000
0001
0000
1000
0100
1000
0000
,
0001
0100
0001
0000
0100
0010
0100
0000
,
0001
1000
0000
0100
0000
0010
0000
0001
,
1000
0100
1000
0000
0010
0100
0010
0000
,
1000
0100
1000
0000
0010
0100
0010
0000
,
1000
0001
1000
0000
0001
0100
0001
0100
,
0010
0000
0100
0000
0010
0000
0000
0000
1000
0000
0000
1000
0000
0000
1001
0000
;

//---------------dance-single - ----------------
#NOTES:
     dance-single:
     :
     Hard:
     13:
     0.664,0.601,0.440,0.133,0.299:
1001
0000
1000
0100
0000
0010
0100
0000
,
1000
0000
1010
0000
0010
0100
0010
1000
,
0001
0000
0010
0001
0000
0100
0010
1000
,
0000
0000
1000
0000
0000
0000
1000
0001
1000
0000
0000
0000
1001
0000
0000
0000
,
1000
0000
0000
1000
0000
0000
0100
0000
0010
0000
0000
0010
0000
0000
0001
0000
,
1000
0000
0000
1000
0000
0000
0010
0000
0100
0000
0000
0100
0000
0000
0001
0000
,
0100
0000
0000
0100
0000
0000
0010
0000
1000
0000
0000
1000
0000
0000
0001
0000
,
1000
0100
0010
0001
0010
0100
1000
0001
,
1001
0000
0000
1000
0000
0000
0010
0000
0100
0001
0000
0100
0000
0000
0001
0000
,
1000
0100
0000
1000
0000
0000
0010
0000
0100
0001
0000
0100
0000
0000
0001
0000
,
1000
0100
0010
0001
0010
0100
1000
0001
,
0100
0000
0001
0000
0000
0000
0001
0000
1001
0000
0000
1001
0000
0000
1001
0000
,
1000
0100
1000
0001
1000
0100
0000
0010
,
0100
1000
0100
1000
0100
0010
0000
0001
,
1000
0001
0010
0001
1000
0002
0000
0000
,
1003
0001
1000
0000
0010
0000
0100
0000
0001
0000
1000
0000
0010
0000
0100
0000
,
0001
1000
0001
0010
0001
1000
0000
0100
,
1000
0010
0100
0010
1000
0100
0000
1000
,
0001
0010
0001
1000
0001
0010
0001
0000
,
1002
0000
1003
0000
0210
0000
0310
0010
,
1000
0100
1000
0010
0100
0010
0000
1000
,
0100
1000
0001
0100
0010
0100
0000
0001
,
1000
0001
0010
0100
0010
0001
0000
2000
,
0000
0001
3001
1000
0010
0100
0000
0001
,
1000
0100
1000
0001
0100
0001
0000
1000
,
0001
1000
0100
0010
0100
1000
0000
0001
,
0010
0001
1000
0010
1000
0001
0000
1000
,
0100
0100
1100
0000
1001
0000
1001
0000
,
0210
0000
0001
0000
0301
1000
0100
1000
,
0002
1000
1000
1003
,
0001
1000
0100
0001
0000
0100
0000
0001
,
0100
1000
0001
1000
0001
0000
0010
0000
,
0120
0000
1000
1000
0000
0100
0130
0000
,
0002
0000
1000
1000
0000
0100
0103
0000
,
0001
1000
0100
0020
0000
0100
0130
0000
,
1001
0100
1001
0100
,
1001
0000
1000
0000
0001
0000
0100
0000
0010
0100
0010
0100
0010
0000
0000
0000
,
1000
0000
0100
0000
0010
0000
0100
0000
1000
0000
0000
1000
0000
0000
0020
0000
,
0000
0000
1030
0000
0001
0000
0010
0000
0100
1000
0100
1000
0001
0100
0001
0100
,
0001
0010
0100
1000
0001
0100
1000
0100
,
0001
1000
0000
1100
0000
0011
0000
1100
,
1001
0000
0001
0000
0100
0000
0010
0000
0100
0000
0000
0100
0000
0000
0002
0000
,
0000
0000
1003
0000
0100
0000
0010
0000
0100
1000
0100
1000
0001
0100
0001
0100
,
0001
1000
0100
0010
0001
0010
0100
1100
,
0000
1000
1001
0000
0110
0000
0110
0000
,
1001
0001
1000
1000
0100
0010
0100
2000
,
0000
0001
3001
1000
0010
0200
0000
0000
,
0301
0000
1000
0000
0100
1000
0100
0000
1000
0001
0010
0001
0010
0000
0001
0000
,
1000
1010
0000
0101
0000
1010
0000
1001
,
0001
0010
0001
0000
1000
0000
0010
0100
0010
0000
1000
0000
0100
1000
0100
0000
,
0010
0000
0001
0000
1000
0000
0010
0000
0100
0010
0100
0010
0200
0000
0000
0000
,
0301
1000
0010
0001
0010
1000
0001
1000
,
0010
0110
0000
0110
0000
0110
0101
0000
,
0001
0000
0010
0000
0100
0000
0010
0000
0001
0000
0000
0001
0000
0000
0200
0000
,
0000
0000
0310
0000
1000
0000
0001
0000
0010
0001
0010
0001
1000
0010
1000
0010
,
1000
0100
0010
0001
0001
0100
0100
0001
,
1000
1100
0000
0011
0000
1100
0000
0011
,
1001
0000
1000
0000
0010
0000
0100
0000
0010
0000
0000
0010
0000
0000
2000
0000
,
0000
0000
3001
0000
0010
0000
0100
0000
0010
0001
0010
0001
1000
0010
1000
0010
,
1000
0100
0010
0001
0010
0100
1000
1010
,
0000
0100
0110
0000
0101
0000
0101
0000
,
1001
0000
0000
1010
0000
0000
0010
0000
0100
0001
0000
0100
0001
0000
0010
0000
,
0100
0000
0000
1100
0000
0000
1000
0000
0001
0100
0000
0001
0100
0000
0001
0000
,
1000
0000
0000
1001
0000
0000
0001
0000
1000
0100
0000
1000
0100
0000
1000
0000
,
0001
0101
0000
0110
0000
1010
0000
1001
,
0001
0100
0000
0001
0100
0000
0001
0000
1000
0100
0000
1000
0001
0000
0010
0000
,
0100
1000
0000
0100
1000
0000
0001
0000
0100
0001
0000
1000
0100
0000
1000
0000
,
0010
0100
0000
0010
0100
0000
0001
0000
1000
0100
0000
1000
0001
0000
0010
0000
,
0100
1000
0100
1000
0010
0100
0010
0100
0001
0000
0000
0101
0000
0000
1001
0000
;

//---------------dance-single - ----------------
#NOTES:
     dance-single:
     :
     Beginner:
     3:
     0.144,0.199,0.125,0.000,0.000: // measure 1
0001
0000
0000
0000
,  // measure 2
0010
0000
0000
0000
,  // measure 3
0001
0000
0000
1000
,  // measure 4
0000
0000
0000
0000
,  // measure 5
1001
0000
1000
0000
,  // measure 6
1000
0000
0000
0000
,  // measure 7
0001
0000
0001
0000
,  // measure 8
0001
0000
0000
0000
,  // measure 9
1000
0000
1000
0000
,  // measure 10
1000
0000
0000
0000
,  // measure 11
0001
0000
0001
0000
,  // measure 12
0001
0000
0000
0000
,  // measure 13
0100
0000
0000
0000
,  // measure 14
0010
0000
0000
0000
,  // measure 15
0100
0000
0000
0000
,  // measure 16
0010
0000
0000
0000
,  // measure 17
1000
0000
0000
0000
,  // measure 18
0100
0000
0000
0000
,  // measure 19
1000
0000
0000
0000
,  // measure 20
1001
0000
0000
0000
,  // measure 21
0001
0000
0000
0000
,  // measure 22
0100
0000
0000
0000
,  // measure 23
0001
0000
0000
0000
,  // measure 24
0100
0000
0000
0000
,  // measure 25
0010
0000
0000
0000
,  // measure 26
0100
0000
0000
0000
,  // measure 27
0001
0000
0000
0000
,  // measure 28
1001
0000
0000
0000
,  // measure 29
1000
0000
0000
0000
,  // measure 30
0100
0000
0000
0000
,  // measure 31
1000
0000
0000
0000
,  // measure 32
0100
0000
0000
0000
,  // measure 33
1001
0000
0000
0000
,  // measure 34
0110
0000
0000
0000
,  // measure 35
0100
0000
0000
0000
,  // measure 36
0010
0000
0100
0000
,  // measure 37
0010
0010
0010
0000
,  // measure 38
1001
0000
0000
0000
,  // measure 39
0001
0000
1000
0000
,  // measure 40
0001
0000
0010
0000
,  // measure 41
0001
0000
0000
0000
,  // measure 42
1001
0000
0000
0000
,  // measure 43
1000
0000
0001
0000
,  // measure 44
1000
0000
0100
0000
,  // measure 45
1000
0000
0000
0000
,  // measure 46
0110
0000
0010
0000
,  // measure 47
0010
0000
0010
0000
,  // measure 48
0100
0010
0100
0000
,  // measure 49
0001
0000
1000
0000
,  // measure 50
0001
1000
0001
0000
,  // measure 51
1000
0000
0001
0000
,  // measure 52
0100
0000
0001
0000
,  // measure 53
1000
0000
0010
0000
,  // measure 54
1001
0000
1000
0000
,  // measure 55
0001
1000
0001
0000
,  // measure 56
1001
0000
1000
0000
,  // measure 57
0100
1000
0100
0000
,  // measure 58
1001
0000
0001
0000
,  // measure 59
0010
0001
0010
0000
,  // measure 60
1001
0000
0000
0110
,  // measure 61
0000
0000
0000
0000
,  // measure 62
0110
0000
0100
0000
,  // measure 63
0010
0000
0100
0000
,  // measure 64
0001
0000
1000
0000
,  // measure 65
0001
0000
0000
0000
,  // measure 66
1000
0000
0001
0000
,  // measure 67
1000
0000
0001
0000
,  // measure 68
0010
0000
0100
0000
,  // measure 69
0010
0000
0110
0000
;
