#TITLE:FIRE;
#SUBTITLE:;
#ARTIST:PINK PONG;
#TITLETRANSLIT:;
#SUBTITLETRANSLIT:;
#ARTISTTRANSLIT:;
#CREDIT:DigiMindAxel;
#BANNER:FIRE.png;
#BACKGROUND:FIRE-bg.png;
#LYRICSPATH:;
#CDTITLE:beatmania.png;
#MUSIC:FIRE.mp3;
#METERTYPE:DDR X;
#OFFSET:-7.450;
#SAMPLESTART:43.918;
#SAMPLELENGTH:12.000;
#SELECTABLE:YES;
#BPMS:0.000=138.000;
#STOPS:79.500=1.739
;
#BGCHANGES:;

//---------------dance-single - ----------------
#NOTES:
     dance-single:
     :
     Easy:
     3:
     0.174,0.193,0.089,0.000,0.000: // measure 1
0001
0000
0100
0000
,  // measure 2
0001
0000
0100
0000
,  // measure 3
0001
0000
1000
0000
,  // measure 4
0001
0000
1000
0100
,  // measure 5
1000
0000
0001
0000
,  // measure 6
1000
0000
0001
0000
,  // measure 7
1000
0000
0100
0000
,  // measure 8
1000
0000
0100
0010
,  // measure 9
0100
0000
0010
0000
,  // measure 10
0100
0000
0010
0000
,  // measure 11
0001
0000
0100
0000
,  // measure 12
0010
0000
1000
0001
,  // measure 13
1001
0000
0000
0010
,  // measure 14
0000
0000
0000
0000
,  // measure 15
0110
0000
0000
0100
,  // measure 16
0000
0000
0000
0000
,  // measure 17
1001
0000
0000
0001
,  // measure 18
0000
0000
0000
0000
,  // measure 19
1001
0000
1000
0000
,  // measure 20
0001
0000
0001
0000
,  // measure 21
1001
0000
0001
0000
,  // measure 22
0100
0010
0100
0010
,  // measure 23
0100
0000
0001
0000
,  // measure 24
1000
0100
1000
0100
,  // measure 25
1000
0000
0001
0000
,  // measure 26
0010
0100
0010
0100
,  // measure 27
0010
0000
0100
0000
,  // measure 28
1000
0001
1000
0000
,  // measure 29
1001
0000
0001
0000
,  // measure 30
0010
0001
0010
0001
,  // measure 31
0010
0000
0100
0000
,  // measure 32
0010
0100
0010
0100
,  // measure 33
1000
0000
0001
0000
,  // measure 34
1000
0001
1000
0001
,  // measure 35
0100
0000
0001
0000
,  // measure 36
0010
0100
0010
0100
,  // measure 37
1000
0000
0001
0000
,  // measure 38
1000
0000
0001
0000
,  // measure 39
0110
0000
0000
0000
;

//---------------dance-single - ----------------
#NOTES:
     dance-single:
     :
     Medium:
     6:
     0.263,0.338,0.127,0.000,0.000: // measure 1
0001
0000
0000
1000
0000
1000
0000
1000
,  // measure 2
0000
0001
0000
0100
,  // measure 3
0010
0000
0000
0100
0000
0100
0000
0100
,  // measure 4
0000
0001
0000
0010
,  // measure 5
0100
0000
0000
1000
0000
1000
0000
1000
,  // measure 6
0000
0100
0000
0010
,  // measure 7
0100
0000
0000
1000
0000
1000
0000
1000
,  // measure 8
0000
0001
0000
0010
,  // measure 9
0001
0000
0000
1000
0000
1000
0000
1000
,  // measure 10
0000
0100
0000
0010
,  // measure 11
0001
0000
0000
0100
0000
0100
0000
0100
,  // measure 12
0000
0000
0110
0000
,  // measure 13
1001
0000
0000
0001
,  // measure 14
0000
0000
0000
0000
,  // measure 15
0110
0000
0000
0100
,  // measure 16
0000
0000
0000
0000
,  // measure 17
1001
0000
0000
1000
,  // measure 18
0000
0000
0000
0000
,  // measure 19
0110
0110
0110
0110
,  // measure 20
0010
0100
0000
0000
0100
0000
0000
0100
,  // measure 21
1001
0000
0000
0001
0000
0001
0000
0001
,  // measure 22
0000
0100
0010
0000
1000
0000
0100
0000
,  // measure 23
0010
0100
0000
1000
0000
1000
0000
1000
,  // measure 24
0000
0010
0100
0000
0001
0000
0010
0000
,  // measure 25
0100
0010
0000
0001
0000
0001
0000
0001
,  // measure 26
0000
1000
0100
0000
0010
0000
0001
0000
,  // measure 27
0100
0010
0000
0010
0000
0010
0000
0010
,  // measure 28
1000
0000
0001
0000
1000
1000
1000
0000
,  // measure 29
0010
0100
0000
0100
0000
0100
0000
0100
,  // measure 30
0000
0001
1000
0000
0100
0000
0010
0000
,  // measure 31
0001
0100
0000
0100
0000
0100
0000
0100
,  // measure 32
0000
0010
1000
0000
0100
0000
0010
0000
,  // measure 33
0001
1000
0000
1000
0000
1000
0000
1000
,  // measure 34
0000
0010
0100
0000
0001
0000
0010
0000
,  // measure 35
0001
0010
0000
0010
0000
0010
0000
0010
,  // measure 36
0100
0000
1000
0000
0001
0001
0001
0000
,  // measure 37
1000
0001
1000
0000
0001
0100
0001
0000
,  // measure 38
0010
0100
0010
0000
0001
0100
0001
0000
,  // measure 39
1001
0000
0000
0000
;

//---------------dance-single - ----------------
#NOTES:
     dance-single:
     :
     Hard:
     9:
     0.399,0.459,0.254,0.089,0.051: // measure 1
0001
1000
0000
1100
0000
0100
0000
1100
,  // measure 2
0000
1000
0001
0010
,  // measure 3
0001
1000
0000
1100
0000
0100
0000
1100
,  // measure 4
0000
0000
1000
0000
0100
1000
0001
0000
,  // measure 5
0200
0001
0000
0010
0000
0010
0000
0310
,  // measure 6
0000
1000
0001
0010
,  // measure 7
0002
0010
0000
1000
0000
1000
0000
1003
,  // measure 8
0000
0000
0001
0000
1000
0001
0000
0001
,  // measure 9
1000
0100
0000
1100
0000
0100
0000
1100
,  // measure 10
0000
0000
1000
0000
0001
0100
0001
0000
,  // measure 11
1000
0001
0000
0101
0000
0001
0000
0001
,  // measure 12
1000
0100
0010
0100
1000
0001
0100
0000
,  // measure 13
1001
0000
0000
1100
,  // measure 14
0000
0000
0000
0000
,  // measure 15
1001
0000
0000
0011
,  // measure 16
0000
0000
0000
0000
,  // measure 17
0110
0000
0000
0101
,  // measure 18
0000
0000
0000
0000
,  // measure 19
0110
0110
0110
0110
,  // measure 20
0010
0000
0100
0000
0000
0100
0000
0000
0100
0000
0000
0100
0000
0000
0100
0000
,  // measure 21
0002
1000
0000
1000
0000
1000
0000
1003
,  // measure 22
0000
0001
0010
0100
1000
0100
0010
0001
,  // measure 23
2000
0010
0000
0010
0000
0010
0000
3010
,  // measure 24
0000
1000
0010
0100
0001
0100
0010
1000
,  // measure 25
0002
0010
0000
0010
0000
0010
0000
0013
,  // measure 26
0000
0001
0100
0010
1000
0010
0100
0001
,  // measure 27
2000
0100
0000
0100
0000
0100
0000
3100
,  // measure 28
1001
0000
1001
0000
0010
0010
0010
0000
,  // measure 29
0100
0010
0100
0001
0100
0010
0100
0001
,  // measure 30
0000
1000
0100
0001
0100
1000
0010
0100
,  // measure 31
0001
0010
0100
0010
0001
0010
0100
0010
,  // measure 32
0000
0001
0100
1000
0100
0001
1000
0010
,  // measure 33
0100
0001
1000
0001
0100
0001
1000
0001
,  // measure 34
0000
1000
0010
0001
0010
1000
0100
0010
,  // measure 35
0001
1000
0100
1000
0001
1000
0100
1000
,  // measure 36
0002
0000
1000
0000
1000
1000
1003
0000
,  // measure 37
0001
0000
1000
0000
1000
0000
1000
0100
0000
0100
0000
0100
0010
0000
0010
0000
,  // measure 38
0001
0000
0001
0000
1000
0000
1000
0010
0000
0010
0000
0010
0100
0000
0000
0000
,  // measure 39
0110
0000
0000
0000
;

//---------------dance-single - ----------------
#NOTES:
     dance-single:
     :
     Challenge:
     11:
     0.514,0.628,0.381,0.178,0.222: // measure 1
0001
1000
0000
0100
0000
0001
0000
0100
,  // measure 2
1000
0000
0010
0100
0010
0000
1000
0100
,  // measure 3
1000
0001
0000
0100
0000
1000
0000
0100
,  // measure 4
0001
0000
0000
0000
1000
0000
0000
0000
0110
0000
0100
0000
0001
0100
0001
0100
,  // measure 5
0002
1000
0000
1000
0000
1000
0000
1003
,  // measure 6
0010
0000
0100
0001
0010
0000
0100
1000
,  // measure 7
0002
1000
0000
1000
0000
1000
0000
1003
,  // measure 8
0100
0000
1000
0000
0100
0010
0100
0010
,  // measure 9
0001
0100
0000
0010
0000
0001
0000
0010
,  // measure 10
1000
0001
0010
0000
0100
1000
0001
1000
,  // measure 11
0001
0010
0000
0100
0000
0001
0000
0100
,  // measure 12
1000
0001
0100
0010
1000
1000
1001
0000
,  // measure 13
2200
3300
0000
0220
,  // measure 14
0330
0000
0000
0000
0000
0000
0000
0001
,  // measure 15
0202
0303
0000
0220
,  // measure 16
0330
0000
0000
0000
,  // measure 17
2002
3003
0000
2020
,  // measure 18
3030
0000
0000
0000
,  // measure 19
1001
1001
1100
1100
,  // measure 20
1000
0000
0001
0000
0000
0100
0000
0000
1000
0000
0000
0100
0000
0000
0101
0000
,  // measure 21
0001
0100
0000
0101
0000
0101
0000
0101
,  // measure 22
0000
0000
0001
1000
0001
0000
1000
0010
1000
0000
0100
0000
0010
0000
0100
0000
,  // measure 23
1000
0001
0000
0011
0000
0011
0000
0011
,  // measure 24
0000
0000
0001
1000
0001
0000
0100
0001
0100
0000
0010
0000
0100
0000
0001
0000
,  // measure 25
1000
0010
0000
1010
0000
1010
0000
1010
,  // measure 26
0000
0000
1000
0001
1000
0000
0100
1000
0100
0000
0010
0000
0100
0000
1000
0000
,  // measure 27
0001
0010
0000
0011
0000
0011
0000
0011
,  // measure 28
1001
0000
1001
0000
1010
0010
0110
0000
,  // measure 29
0010
1000
0100
0010
0100
1000
0010
0001
,  // measure 30
0010
0000
1000
0001
1000
0001
1000
0001
1000
0000
0001
1000
0100
0000
0100
0000
,  // measure 31
1000
0001
0100
0001
1000
0001
0100
0001
,  // measure 32
1000
0000
0100
0010
0100
0010
0100
0010
0100
0000
1000
0001
0100
0000
0100
0000
,  // measure 33
0001
0010
0100
0010
0001
1000
0010
1000
,  // measure 34
0001
0000
0100
0001
0100
0001
0100
0001
0100
0000
0001
1000
0100
0000
0100
0000
,  // measure 35
1000
0010
0100
0010
1000
0001
0010
0001
,  // measure 36
1001
0000
1000
0000
1000
0001
0010
0100
,  // measure 37
1000
0000
0001
0100
0001
0100
0001
0100
0000
0001
0000
0001
1000
0100
1000
0100
,  // measure 38
1000
0000
1000
0000
0010
0100
0001
0010
0000
0010
0000
0010
0001
1000
0001
1000
,  // measure 39
0100
0000
0000
0000
;

//---------------dance-single - ----------------
#NOTES:
     dance-single:
     :
     Beginner:
     1:
     0.089,0.145,0.114,0.000,0.000: // measure 1
1001
0000
0000
0000
,  // measure 2
0001
0000
0000
0000
,  // measure 3
1000
0000
0000
0000
,  // measure 4
0001
0000
0000
0000
,  // measure 5
0110
0000
0000
0000
,  // measure 6
0000
0000
0000
0000
,  // measure 7
0110
0000
0000
0000
,  // measure 8
0000
0000
0000
0000
,  // measure 9
1001
0000
0000
0000
,  // measure 10
0001
0000
0000
0000
,  // measure 11
1000
0000
0001
0000
,  // measure 12
1000
0000
0001
0000
,  // measure 13
1001
0000
0000
0001
,  // measure 14
0000
0000
0000
0000
,  // measure 15
1000
0000
0000
1000
,  // measure 16
0000
0000
0000
0000
,  // measure 17
0001
0000
0000
0001
,  // measure 18
0000
0000
0000
0000
,  // measure 19
1001
0000
1000
0000
,  // measure 20
1001
0000
0000
0000
,  // measure 21
0010
0000
0000
0000
,  // measure 22
0100
0000
0000
0000
,  // measure 23
0010
0000
0000
0000
,  // measure 24
0100
0000
0000
0000
,  // measure 25
0001
0000
0000
0000
,  // measure 26
0010
0000
0000
0000
,  // measure 27
0001
0000
0000
0000
,  // measure 28
0010
0000
0000
0000
,  // measure 29
0001
0000
0000
0000
,  // measure 30
1000
0000
0000
0000
,  // measure 31
0010
0000
0000
0000
,  // measure 32
1000
0000
0000
0000
,  // measure 33
0001
0000
0000
0000
,  // measure 34
1000
0000
0000
0000
,  // measure 35
0100
0000
0000
0000
,  // measure 36
1000
0000
0000
0000
,  // measure 37
1001
0000
0000
0000
,  // measure 38
0001
0000
0000
0000
,  // measure 39
0110
0000
0000
0000
;
