#TITLE:Evans;
#SUBTITLE:VolteX Pf arrange;
#ARTIST:cosMo@暴走P;
#TITLETRANSLIT:;
#SUBTITLETRANSLIT:;
#ARTISTTRANSLIT:cosMo@BousouP;
#GENRE:;
#CREDIT:DigiMindAxel;
#BANNER:Evans VolteX Pf arrange.png;
#BACKGROUND:Evans VolteX Pf arrange-bg.png;
#LYRICSPATH:;
#CDTITLE:SOUND VOLTEX.png;
#MUSIC:Evans VolteX Pf arrange.mp3;
#METERTYPE:DDR X;
#OFFSET:-8.055;
#SAMPLESTART:24.053;
#SAMPLELENGTH:12.000;
#SELECTABLE:YES;
#BPMS:0.000=180.000
;
#STOPS:
;
#BGCHANGES:;
#KEYSOUNDS:;
#ATTACKS:;

//---------------dance-single - ----------------
#NOTES:
     dance-single:
     :
     Easy:
     5:
     0.256,0.275,0.009,0.152,0.000,183.000,1.000,17.000,0.000,0.000,0.000,0.256,0.275,0.009,0.152,0.000,183.000,1.000,17.000,0.000,0.000,0.000: // measure 0
2000
0000
3000
0000
,  // measure 1
0002
0000
0003
0000
,  // measure 2
2000
0000
3000
0000
,  // measure 3
0002
0000
0000
0000
,  // measure 4
0103
0000
0001
0000
,  // measure 5
1000
0000
0100
0000
,  // measure 6
0010
0000
0100
0000
,  // measure 7
1000
0000
0001
0000
,  // measure 8
1000
0000
0010
0000
,  // measure 9
0100
0000
0001
0000
,  // measure 10
0010
0000
0100
0000
,  // measure 11
0010
0001
0010
0000
,  // measure 12
0001
0000
1000
0001
,  // measure 13
1000
0000
0001
1000
,  // measure 14
0002
0000
1003
0000
,  // measure 15
0010
0100
0010
0000
,  // measure 16
1000
0001
1000
0000
,  // measure 17
0001
0100
0001
0000
,  // measure 18
1000
0010
1000
0000
,  // measure 19
0100
0010
0100
0010
,  // measure 20
0200
0000
0000
0000
,  // measure 21
0310
0000
0002
0000
,  // measure 22
2003
0000
0000
0000
,  // measure 23
3100
0000
0020
0000
,  // measure 24
0031
0000
1000
0000
,  // measure 25
0100
0000
1000
0001
,  // measure 26
1000
0000
0010
0000
,  // measure 27
0100
0000
0001
0000
,  // measure 28
0010
0100
0010
0000
,  // measure 29
0001
0010
0001
0000
,  // measure 30
1000
0100
1000
0000
,  // measure 31
0100
0010
0100
1000
,  // measure 32
0001
0100
0001
0000
,  // measure 33
1000
0010
1000
0000
,  // measure 34
0100
0000
0010
0000
,  // measure 35
0001
1000
0001
1000
,  // measure 36
0020
0000
0000
0000
,  // measure 37
0030
0000
0000
0000
,  // measure 38
0200
0000
0000
0000
,  // measure 39
0300
0000
0000
0000
,  // measure 40
0001
1000
0001
0000
,  // measure 41
1000
0100
1000
0000
,  // measure 42
0001
1000
0001
0000
,  // measure 43
1000
0100
1000
0000
,  // measure 44
0100
0010
0100
0000
,  // measure 45
1000
0010
1000
0000
,  // measure 46
0100
0010
0100
0000
,  // measure 47
2000
0000
0000
0000
,  // measure 48
3001
1000
0001
0000
,  // measure 49
0010
0001
0100
0000
,  // measure 50
0010
0100
0010
0000
,  // measure 51
0100
0001
0010
0000
,  // measure 52
0100
1000
0010
0000
,  // measure 53
0100
0010
0100
0000
,  // measure 54
0010
1000
0100
0000
,  // measure 55
1000
0001
1000
0001
,  // measure 56
2000
0000
0000
0000
,  // measure 57
3001
0100
0001
0000
,  // measure 58
1000
0100
0010
0001
,  // measure 59
1000
0000
0010
0000
,  // measure 60
0100
0010
0100
0001
,  // measure 61
1000
0000
0010
0000
,  // measure 62
0100
0001
1000
0100
,  // measure 63
0020
0000
0000
0000
,  // measure 64
0032
0000
0000
0000
,  // measure 65
1003
0001
1000
0000
,  // measure 66
0100
1000
0100
0000
,  // measure 67
0010
0001
0010
0000
,  // measure 68
0001
1000
0001
0000
,  // measure 69
0100
0001
0100
0000
,  // measure 70
0010
1000
0010
0000
,  // measure 71
1000
0100
0010
0001
,  // measure 72
1000
0010
0100
0001
,  // measure 73
2002
0000
0000
0000
,  // measure 74
0003
0000
0000
0000
,  // measure 75
0000
0000
0000
0000
,  // measure 76
0000
0000
0000
0000
,  // measure 77
3000
0000
0000
0000
;

//---------------dance-single - ----------------
#NOTES:
     dance-single:
     :
     Medium:
     9:
     0.446,0.481,0.143,0.089,0.000,324.000,16.000,10.000,0.000,0.000,0.000,0.446,0.481,0.143,0.089,0.000,324.000,16.000,10.000,0.000,0.000,0.000: // measure 0
0100
0000
0000
0110
0000
0000
0000
0000
,  // measure 1
0001
0000
0000
1001
0000
0000
0000
0000
,  // measure 2
0100
0000
0000
0110
0000
0000
0000
0000
,  // measure 3
0002
0000
0000
0000
,  // measure 4
1003
0100
1000
0100
,  // measure 5
1000
0001
1000
0001
,  // measure 6
0100
0001
0100
0001
,  // measure 7
0010
0100
1000
0010
,  // measure 8
0100
0001
1000
0100
,  // measure 9
1000
0010
1000
0010
,  // measure 10
0100
0001
0010
0100
,  // measure 11
1001
0000
0000
0001
0000
0000
1000
0000
,  // measure 12
0001
0000
0100
0000
0001
0000
1000
0100
,  // measure 13
1000
0000
0100
0000
0010
0000
0001
0100
,  // measure 14
0001
0010
0100
1000
0000
0010
0100
0000
,  // measure 15
0001
0100
0001
0000
0010
0000
0100
0000
,  // measure 16
1001
0000
1000
0001
1000
0000
0010
0000
,  // measure 17
1000
0100
1000
0000
0010
0000
0100
0010
,  // measure 18
0100
0001
0010
0100
1000
0000
0010
0000
,  // measure 19
0100
0010
0100
0010
0100
0010
0100
0000
,  // measure 20
0002
0000
0000
0010
0000
0000
0000
0000
,  // measure 21
0013
0000
0100
1000
,  // measure 22
0020
0000
0000
0100
0000
0000
0000
0000
,  // measure 23
0130
0001
1000
0010
,  // measure 24
0110
1000
0100
0001
,  // measure 25
0100
1000
0001
1000
,  // measure 26
0001
0010
0100
0000
0010
0100
0010
0000
,  // measure 27
1001
0001
0100
1000
,  // measure 28
0100
0000
0001
0000
1000
0000
0010
0100
,  // measure 29
0010
1000
0001
0000
0010
0000
0100
1000
,  // measure 30
0010
0100
0010
0000
1000
0000
0001
0100
,  // measure 31
0001
0010
0100
0000
1000
0000
0100
0010
,  // measure 32
0100
1000
0001
0000
0100
0000
0010
1000
,  // measure 33
0100
0010
0001
0100
,  // measure 34
0010
1000
0100
0010
0001
0000
1000
0000
,  // measure 35
0100
0010
0001
1000
,  // measure 36
0200
0000
0000
0000
,  // measure 37
0320
0000
0000
0000
,  // measure 38
0032
0000
0000
0000
,  // measure 39
1003
1000
1000
1000
,  // measure 40
1001
0010
0000
0000
,  // measure 41
1000
0100
0000
0000
,  // measure 42
0001
0100
0000
0000
,  // measure 43
1000
0100
0000
0000
,  // measure 44
1001
0100
1000
0100
,  // measure 45
1000
0001
0100
0001
,  // measure 46
0110
1000
0110
0001
,  // measure 47
1000
0001
1000
0001
1000
0001
1000
0001
,  // measure 48
1000
0000
0100
0000
0010
0000
0001
0100
,  // measure 49
0010
0100
0001
0000
0010
0000
0100
1000
,  // measure 50
0001
1000
0100
0000
0010
0000
0100
1000
,  // measure 51
0010
0100
0010
0000
1000
0000
0001
0010
,  // measure 52
0001
0010
0100
0000
0010
0000
0001
1000
,  // measure 53
0001
0100
0010
0000
1000
0000
0100
0010
,  // measure 54
0001
0010
0100
0000
1001
0000
0001
0000
,  // measure 55
1000
0100
0010
0001
0010
0100
1000
0001
,  // measure 56
1000
0100
0001
0100
,  // measure 57
1000
0010
0001
0010
,  // measure 58
1000
1000
0001
0001
,  // measure 59
0010
0100
1000
0010
,  // measure 60
0100
0001
0010
0000
0001
0010
0100
0000
,  // measure 61
0010
0001
0100
0000
0001
0010
0100
1000
,  // measure 62
0001
0010
1000
0010
,  // measure 63
0001
0100
0010
0100
,  // measure 64
2002
0000
0000
3003
,  // measure 65
0001
0000
0010
0000
0100
0000
1000
0010
,  // measure 66
0100
0001
1000
0000
0100
0000
0010
0001
,  // measure 67
0100
0010
1000
0000
0001
0000
0010
0100
,  // measure 68
1000
0010
0100
0000
0001
0000
0100
0010
,  // measure 69
1000
0100
0010
0000
0001
0000
1000
0001
,  // measure 70
0100
0010
0100
0000
0001
0000
1000
0000
,  // measure 71
0110
0001
0110
1000
,  // measure 72
0001
0010
0100
1000
0010
0100
0001
1000
,  // measure 73
2002
0000
0000
0000
,  // measure 74
3000
0000
0000
0000
,  // measure 75
0000
0000
0000
0000
,  // measure 76
0000
0000
0000
0000
,  // measure 77
1003
0000
0000
0000
;

//---------------dance-single - ----------------
#NOTES:
     dance-single:
     :
     Hard:
     15:
     0.754,0.927,0.437,0.169,0.638,524.000,49.000,19.000,0.000,0.000,0.000,0.754,0.927,0.437,0.169,0.638,524.000,49.000,19.000,0.000,0.000,0.000: // measure 0
1100
0000
0000
0100
0000
0000
2200
0000
0000
0000
0000
0000
3300
0000
0000
0000
,  // measure 1
0110
0000
0000
0100
0000
0000
0220
0000
0000
0000
0000
0000
0330
0000
0000
0000
,  // measure 2
0011
0000
0000
0010
0000
0000
0022
0000
0000
0000
0000
0000
0033
0000
0000
0000
,  // measure 3
0010
0000
0000
0010
0000
0000
0010
0000
0000
0000
1000
0001
1000
0001
0000
0000
,  // measure 4
1001
0000
0001
0010
0100
0010
0001
0000
,  // measure 5
1000
0000
0100
1000
0010
0100
0010
0000
,  // measure 6
1000
0000
0100
1000
0001
0010
0100
0000
,  // measure 7
0010
0000
0000
0001
0000
0000
1000
0000
0000
0000
0010
0000
0100
0000
0001
0000
,  // measure 8
1001
0000
1000
0001
0010
0100
1000
0000
,  // measure 9
0010
0000
1000
0010
0100
0010
1000
0000
,  // measure 10
0100
0000
0010
0100
1000
0001
0100
0000
,  // measure 11
1001
0000
0000
0100
0000
0000
1001
0000
0000
0000
1000
0000
0010
0000
0100
0000
,  // measure 12
0001
0000
0000
0001
0000
0000
0010
0000
0000
0000
0100
0000
0100
0000
0010
0000
,  // measure 13
0001
0000
0000
0001
0000
0000
0010
0000
0000
0000
0100
0000
0100
0000
0010
0000
,  // measure 14
0001
1000
0001
1000
0001
0000
0200
0000
0000
0000
0310
0000
0100
0000
0001
0000
,  // measure 15
1000
0000
0000
0100
0000
0000
0001
0000
0000
0000
0100
0000
1000
0000
0001
0000
,  // measure 16
1001
0000
0000
1000
0000
0000
0100
0000
0000
0000
0010
0000
0010
0000
0100
0000
,  // measure 17
1000
0000
0000
1000
0000
0000
0100
0000
0000
0000
0010
0000
0010
0000
0100
0000
,  // measure 18
1000
0001
0000
0100
0000
0010
0000
1000
0000
0000
0001
0000
0001
0000
1000
0000
,  // measure 19
0010
0100
0010
0100
0010
0100
0010
0000
1000
0001
1000
0001
1000
0001
1000
0000
,  // measure 20
0002
0000
0000
0100
0000
0000
0103
0000
0000
0000
0001
0000
1000
0000
0010
0000
,  // measure 21
0200
0000
0000
0000
0000
0000
0000
0000
0301
1000
0000
0100
0000
0000
1000
0000
,  // measure 22
0200
0000
0000
0010
0000
0000
0310
0000
0000
0000
0001
0000
1000
0000
0010
0000
,  // measure 23
0200
0000
0000
0001
0000
0000
0301
0000
0000
0000
0100
0010
0100
0010
0000
0000
,  // measure 24
1000
0000
0100
0000
1000
0001
0000
0000
1000
0000
0000
0100
0000
0000
0001
0000
,  // measure 25
1000
0000
0000
0010
0000
0000
0001
0000
0000
0000
1000
0000
0001
0000
0010
0000
,  // measure 26
0100
1000
0100
1000
0100
0000
0010
0100
0010
0100
0010
0000
0001
0010
0001
0010
,  // measure 27
0001
0000
1000
0000
1000
0000
0010
0000
0100
0000
0000
0110
0000
0000
0100
0000
,  // measure 28
1001
0000
0000
1000
0000
0000
0010
0000
0000
0000
1000
0000
1000
0000
0100
0000
,  // measure 29
0010
0000
0000
0010
0000
0000
0100
0000
0000
0000
0010
0000
0010
0000
0001
0000
,  // measure 30
0100
0000
0000
0100
0000
0000
0010
0000
0000
0000
1000
0000
1000
0000
0001
0000
,  // measure 31
0010
0000
0000
0010
0000
0000
0100
0000
0000
0000
1000
0000
0010
0000
0100
0000
,  // measure 32
0110
0000
0000
0010
0000
0000
0100
0000
0000
0000
0001
0000
0001
0000
0100
0000
,  // measure 33
0010
0000
0000
0100
0000
0000
0010
0000
0000
0000
1000
0000
1000
0000
0100
0000
,  // measure 34
0000
0000
1000
0001
1000
0001
0000
1000
0000
0000
0100
0000
0010
0000
0001
0000
,  // measure 35
1000
0100
1000
0100
1000
0100
1000
0000
0001
0010
0001
0010
0001
0010
0001
0000
,  // measure 36
1002
0100
0000
1003
,  // measure 37
0020
0000
0000
0100
0000
0000
0031
0000
,  // measure 38
2002
0000
0000
3003
,  // measure 39
0100
0100
0100
0100
,  // measure 40
1001
0000
1100
0000
0000
0100
0010
0100
,  // measure 41
0001
0000
0101
0000
0000
0010
0100
0010
,  // measure 42
1000
0000
1010
0000
0000
0100
0010
0001
,  // measure 43
0010
0000
0011
0000
0000
0001
0010
0100
,  // measure 44
2000
0000
0000
0010
0000
0000
3010
0000
0000
0000
1000
0000
0100
0000
0010
0000
,  // measure 45
0002
0000
0000
0100
0000
0000
0103
0000
0000
0000
0001
0000
1000
0000
0010
0000
,  // measure 46
0110
0000
0000
0100
0000
0000
0100
0000
1001
0000
0000
0001
0000
0000
0001
0000
,  // measure 47
1001
0000
0000
1100
0000
0000
0110
0000
0000
0011
0000
0000
1001
0000
0001
0000
,  // measure 48
1000
0000
0000
0100
0000
0000
0010
0000
0000
0000
1000
0000
0010
0000
0001
0000
,  // measure 49
1000
0000
0000
0010
0000
0000
0100
0000
0000
0000
1000
0000
0100
0000
0001
0000
,  // measure 50
1000
0000
0000
0110
0000
0000
0001
0000
0000
0001
0000
0000
0010
0000
0100
0000
,  // measure 51
1000
0000
0000
0001
0000
0000
0100
0000
0000
0010
0000
0000
1000
0001
1000
0001
,  // measure 52
1000
0000
0000
0010
0000
0000
0100
0000
0000
1000
0000
0000
0100
0000
0001
0000
,  // measure 53
1001
0000
0000
0100
0000
0000
0010
0000
0000
1000
0000
0000
0010
0000
0001
0000
,  // measure 54
1001
0000
0000
0001
0000
0000
0001
0000
0110
0000
0000
1000
0000
0000
1000
0000
,  // measure 55
0001
0000
0100
0001
0100
0000
0010
0100
0010
0000
1000
0000
1000
0000
0001
0000
,  // measure 56
0001
0000
1000
0010
1000
0010
1000
0000
0001
0010
0001
0010
0001
0010
0001
0000
,  // measure 57
1000
0001
1000
0000
0001
1000
0001
0000
1000
0100
1000
0100
0010
0001
0010
0001
,  // measure 58
1000
0000
1000
0000
0010
1000
0010
0000
1000
0001
1000
0001
1000
0001
1000
0000
,  // measure 59
0001
0000
0001
0000
0100
0001
0100
0000
0010
0100
0010
0100
0010
0100
0010
0000
,  // measure 60
1000
0000
0001
0000
0100
0001
0100
0000
0001
0010
0100
1000
0001
0100
0001
0000
,  // measure 61
0100
0000
0100
0000
0100
0000
0001
0010
0100
1000
0001
1000
0001
1000
0001
0000
,  // measure 62
1000
0010
0100
0010
1000
0001
0010
0001
0010
0100
1000
0001
,  // measure 63
1000
0010
1000
0010
0100
0000
0001
0010
0001
0010
0100
1000
0010
0100
0010
0000
,  // measure 64
1010
0000
0000
0110
0000
0000
0101
0000
0000
0110
0000
0000
1001
0000
0100
0000
,  // measure 65
1100
0000
0000
0100
0000
0000
0110
0000
0000
0000
0001
0000
0100
0000
1000
0000
,  // measure 66
0100
0000
0000
0001
0000
0000
1001
0000
0000
0000
1000
0000
0100
0000
0001
0000
,  // measure 67
0100
0000
0000
1100
0000
0000
1001
0000
0000
1001
0000
0000
0001
0000
0010
0000
,  // measure 68
0100
0000
0000
0010
0000
0000
0110
0000
0000
0100
0000
0000
1000
0001
1000
0001
,  // measure 69
1000
0000
0000
0010
0000
0000
0101
0000
0000
0010
0000
0000
1000
0000
0001
0000
,  // measure 70
1001
0000
0000
0100
0000
0000
1010
0000
0000
0100
0000
0000
1000
0000
0001
0000
,  // measure 71
1001
0100
0010
0001
1001
0010
0100
1000
,  // measure 72
0001
0100
0001
0100
0001
0100
0001
1000
0100
1000
0100
1000
0100
0010
0001
1000
,  // measure 73
0002
0000
0000
0000
,  // measure 74
0020
0000
0000
0000
,  // measure 75
0000
0000
0000
0000
,  // measure 76
0000
0000
0000
0000
0000
0000
0000
0000
0000
0000
0033
0000
0000
0000
0001
1000
,  // measure 77
0001
0000
0000
0000
;

//---------------dance-single - ----------------
#NOTES:
     dance-single:
     :
     Beginner:
     1:
     0.078,0.098,0.027,0.000,0.000,58.000,3.000,0.000,0.000,0.000,0.000,0.078,0.098,0.027,0.000,0.000,58.000,3.000,0.000,0.000,0.000,0.000: // measure 0
0001
0000
0000
0000
,  // measure 1
1000
0000
0000
0000
,  // measure 2
0001
0000
0000
0000
,  // measure 3
1000
0000
0000
0000
,  // measure 4
0010
0000
0000
0000
,  // measure 5
0010
0000
0000
0000
,  // measure 6
0010
0000
0000
0000
,  // measure 7
0010
0000
0000
0000
,  // measure 8
0100
0000
0000
0000
,  // measure 9
0100
0000
0000
0000
,  // measure 10
0100
0000
0000
0000
,  // measure 11
0100
0000
0000
0000
,  // measure 12
0010
0000
0000
0000
,  // measure 13
0000
0000
0000
0000
,  // measure 14
1000
0000
0000
0000
,  // measure 15
0000
0000
0000
0000
,  // measure 16
0001
0000
0000
0000
,  // measure 17
1000
0000
0000
0000
,  // measure 18
0001
0000
0000
0000
,  // measure 19
0000
0000
0000
0000
,  // measure 20
1000
0000
0000
0000
,  // measure 21
0000
0000
0000
0000
,  // measure 22
1000
0000
0000
0000
,  // measure 23
0000
0000
0000
0000
,  // measure 24
0100
0000
0000
0000
,  // measure 25
0000
0000
0000
0000
,  // measure 26
0100
0000
0000
0000
,  // measure 27
0000
0000
0000
0000
,  // measure 28
0010
0000
0000
0000
,  // measure 29
0010
0000
0000
0000
,  // measure 30
0010
0000
0000
0000
,  // measure 31
0001
0000
0000
0000
,  // measure 32
0001
0000
0000
0000
,  // measure 33
0001
0000
0000
0000
,  // measure 34
0001
0000
0000
0000
,  // measure 35
1000
0000
0000
0000
,  // measure 36
0000
0000
0000
0000
,  // measure 37
0000
0000
0000
0000
,  // measure 38
0001
0000
0000
0000
,  // measure 39
0000
0000
0000
0000
,  // measure 40
0010
0000
0000
0000
,  // measure 41
0000
0000
0000
0000
,  // measure 42
0100
0000
0000
0000
,  // measure 43
0000
0000
0000
0000
,  // measure 44
1000
0000
0000
0000
,  // measure 45
0001
0000
0000
0000
,  // measure 46
1000
0000
0000
0000
,  // measure 47
0001
0000
0000
0000
,  // measure 48
1001
0000
0000
0000
,  // measure 49
1000
0000
0000
0000
,  // measure 50
1000
0000
0000
0000
,  // measure 51
1000
0000
0000
0000
,  // measure 52
0001
0000
0000
0000
,  // measure 53
0001
0000
0000
0000
,  // measure 54
0001
0000
0000
0000
,  // measure 55
0001
0000
0000
0000
,  // measure 56
1001
0000
0000
0000
,  // measure 57
0000
0000
0000
0000
,  // measure 58
0100
0000
0000
0000
,  // measure 59
0000
0000
0000
0000
,  // measure 60
0010
0000
0000
0000
,  // measure 61
0000
0000
0000
0000
,  // measure 62
0100
0000
0000
0000
,  // measure 63
0000
0000
0000
0000
,  // measure 64
1000
0000
0000
0000
,  // measure 65
0001
0000
0000
0000
,  // measure 66
0001
0000
0000
0000
,  // measure 67
0010
0000
0000
0000
,  // measure 68
0010
0000
0000
0000
,  // measure 69
0100
0000
0000
0000
,  // measure 70
0100
0000
0000
0000
,  // measure 71
1000
0000
0000
0000
,  // measure 72
1000
0000
0000
0000
,  // measure 73
1001
0000
0000
0000
;
