#TITLE:Estella;
#SUBTITLE:;
#ARTIST:Osamu Kubota;
#TITLETRANSLIT:;
#SUBTITLETRANSLIT:;
#ARTISTTRANSLIT:;
#CREDIT:DigiMindAxel;
#BANNER:Estella.png;
#BACKGROUND:Estella-bg.png;
#LYRICSPATH:;
#CDTITLE:beatmania IIDX.png;
#MUSIC:Estella.mp3;
#METERTYPE:DDR X;
#OFFSET:-6.770;
#SAMPLESTART:28.859;
#SAMPLELENGTH:12.000;
#SELECTABLE:YES;
#BPMS:0.000=114.000;
#STOPS:;
#BGCHANGES:-22.000=Estella.avi=1.000=1=1=0,
99999=-nosongbg-=1.000=0=0=0 // don't automatically add -songbackground-
;

//---------------dance-single - ----------------
#NOTES:
     dance-single:
     :
     Easy:
     2:
     0.106,0.149,0.068,0.098,0.000:
0002
0000
0003
0200
,
0000
0300
0020
0000
,
0030
0200
0000
0300
,
2002
0000
0000
0000
,
0000
3003
0001
0000
,
0000
1000
0000
0000
,
0100
0000
0000
0100
,
0000
0000
1000
0000
,
0000
0001
0000
0000
,
0100
0000
0000
0010
,
0000
0000
0110
0000
,
0100
0000
0000
0001
0000
0000
0000
0000
,
0110
0000
0000
0000
0010
0000
0000
1000
,
0000
0000
0000
0000
1001
0000
0000
0001
,
0000
0000
1000
0000
0000
0001
0000
0000
,
1000
0000
0000
0001
0000
0000
0110
0000
,
0000
0000
0010
0000
,
0000
0100
0000
0000
,
0010
0000
0000
1000
,
0000
0000
0100
0000
,
0000
0020
0000
0000
,
0000
0000
0000
0130
,
0000
0000
0100
0000
,
0000
0100
0000
0000
,
0000
0000
0000
1000
,
0000
0000
0000
0000
,
0000
1000
0000
0000
,
0000
0000
0000
0001
,
0000
0000
0000
0000
,
0000
0001
0000
0000
,
0000
0000
0000
0001
,
0000
0001
0000
0000
0100
0000
0000
0000
,
0000
0000
0010
0000
0000
0010
0000
0000
,
1000
0000
0000
0100
,
0000
0100
0000
0000
0010
0000
0000
0000
,
0000
0000
0001
0000
0000
0001
0000
0000
,
1001
0000
0000
1000
,
0000
0000
0100
0000
,
0000
0010
0000
0000
,
0200
0000
0000
0000
,
0000
0000
0000
0000
0000
1300
0000
0000
,
1000
0000
0000
1000
0000
2002
0000
0000
,
0000
0000
0000
0000
,
0000
0000
3003
0000
;

//---------------dance-single - ----------------
#NOTES:
     dance-single:
     :
     Medium:
     5:
     0.180,0.255,0.039,0.098,0.005:
1000
0000
0000
0001
0000
0000
1000
0000
,
0000
0001
0000
0000
0100
0000
0000
0010
,
0000
0000
0100
0000
0000
0010
0000
0000
,
1001
0000
0000
0000
,
0000
0000
2100
0000
,
0000
3200
0000
0000
,
2300
0000
0000
3200
,
0000
0000
0000
0000
1300
0000
0000
0001
,
0000
0000
0100
0000
0000
0001
0000
0000
,
0010
0000
0000
0100
0000
0000
1000
0000
,
0000
0001
0000
0000
0000
0100
0100
0000
,
0001
0001
0000
0000
0000
0000
0000
0000
,
0000
1000
1000
0000
0100
0100
0000
0000
,
0000
0000
0000
0000
0000
1000
1000
0000
,
0001
0001
0000
0100
0100
0000
0001
0001
,
0000
0000
1000
0000
1000
0000
0000
0000
0100
0000
0100
0000
0000
0000
0000
1001
,
0000
0000
0000
0000
0000
1000
0001
0000
,
0010
0000
0100
0000
1000
0000
0001
0100
,
0000
0000
0000
0001
0000
0000
1000
0000
,
0000
0100
0000
0000
1000
0001
1000
0000
,
0100
0000
0020
0000
0000
0230
0000
0000
,
2300
0000
0000
3002
0000
0000
1003
0000
,
0000
0000
1000
0000
,
0000
0000
1000
0000
0000
0001
0000
0000
,
0100
0000
0000
0100
0000
0000
0010
0000
,
0000
0000
0010
0000
,
0000
1000
0000
0000
,
0100
0000
0000
0010
,
0000
0001
0000
0000
0010
0000
0000
0001
,
0000
0000
0100
0000
0000
0010
0000
0000
,
0100
0000
0000
0000
0000
0000
0000
0001
,
0001
0000
1000
1000
0000
0000
0000
0000
,
0000
0000
0000
0100
0100
0000
1000
1000
,
0000
0000
0000
0000
0000
0000
0000
0010
,
0010
0000
0100
0100
0000
0001
0001
0000
,
1000
1000
0000
0100
0100
0000
0010
0010
,
0000
0001
0000
0001
,
0000
0000
0010
0000
,
0000
0100
0000
0000
,
1000
0000
0001
1000
0001
0000
1000
0100
,
1000
0000
0010
0100
0010
1000
0000
0000
,
1000
0000
0000
1000
0000
2002
0000
0000
,
0000
0000
0000
0000
,
0000
0000
3003
0000
;

//---------------dance-single - ----------------
#NOTES:
     dance-single:
     :
     Hard:
     11:
     0.479,0.575,0.029,0.186,0.611:
0001
0000
0000
0001
0000
0000
0100
0000
0000
0100
0000
0000
0001
0000
0000
0001
,
0000
0000
1000
0000
0100
0000
0010
0000
0001
0000
0000
0001
0000
0000
1000
0000
,
0000
1000
0000
0000
0010
0000
0000
0010
0000
0000
0100
0000
0001
0000
0010
0000
,
0200
2300
3020
0230
,
0302
0000
0000
0000
2003
0000
0000
0000
3001
0000
0000
0000
1000
0100
1000
0200
,
0000
0000
0000
0000
0300
0000
0000
0000
1000
0001
1000
0002
0000
0000
0000
0000
,
0003
0000
0000
0000
0100
0001
0100
0002
0000
0000
0000
0000
0013
0000
0000
0010
,
0000
0000
0100
0000
0000
0100
0000
0000
1000
0000
0000
0000
0001
0100
0001
0200
,
0000
0000
0000
0000
0300
0000
0000
0000
0001
1000
0001
2000
0000
0000
0000
0000
,
3000
0000
0000
0000
0100
1000
0100
2000
0000
0000
0000
0000
3001
0000
0000
0001
,
0000
0000
0100
0000
0000
0100
0000
0000
0010
0100
0010
0100
0010
0100
0000
0001
,
1000
0001
1000
0001
0000
0000
0010
0000
0100
0000
1000
0000
0001
0000
0001
0000
,
0000
0010
0001
0010
0001
0010
0000
0001
1000
0001
1000
0001
0000
0000
1000
0000
,
0010
0000
0100
0000
0001
0000
0001
0000
0000
1000
0100
1000
0100
1000
0000
0001
,
1000
0001
1000
0001
0000
1000
0100
1000
0100
1000
0000
0001
1000
0001
1000
0001
,
0000
0100
0010
0100
0010
0100
0000
0001
1000
0001
1000
0001
0000
0000
0000
2002
,
0000
0000
0000
0000
0000
0000
0000
3003
0000
0000
0001
1000
0001
0000
0010
0000
,
0100
0000
0010
0000
0001
0000
1000
0000
0010
0000
1000
0000
0001
0010
0000
0000
,
0001
0000
0000
0001
0000
0000
0010
0000
0100
0000
1000
0000
0001
0000
0000
0001
,
0000
0000
0100
0000
0000
0100
0000
0000
0001
0000
1000
0001
1000
0000
0100
0000
,
0010
0000
0001
0000
0100
0000
0000
0110
0000
0000
0100
0000
0000
0101
0000
0000
,
0001
0010
0100
1000
0100
0010
0002
0000
,
0000
0000
2003
0000
,
0000
0000
0000
0000
3001
0000
0000
0000
1000
0000
0100
0000
0000
1000
0000
0000
,
0001
0000
0000
0010
0000
0000
0001
0000
0000
0100
0000
0000
0010
1000
0001
1000
,
0000
0000
0100
0000
0000
0100
0000
1000
0000
0001
0000
1000
0000
0010
0100
0000
,
0010
0100
0000
0000
0001
0000
0010
0000
0100
0000
1000
0000
0100
0000
0001
0000
,
0100
1000
0010
0100
0001
0010
0100
0100
,
0010
0000
0010
0000
0001
1000
0000
0001
1000
0000
0100
0000
0010
0000
0100
0000
,
1000
0001
0000
1000
0001
0000
0100
0000
0010
0000
0100
0000
0001
0000
0010
0000
,
0200
0000
0000
0000
0000
0000
0000
0000
0300
0000
0000
0000
0000
1000
0001
1000
,
0001
1000
0000
0001
0100
0001
0100
0001
0000
0000
0010
0000
0100
0000
1000
0000
,
0001
0000
0010
0000
0000
0001
0010
0001
0010
0001
0000
1000
0001
1000
0001
1000
,
0000
0000
0010
0000
0100
0000
0001
0000
0100
0000
0010
0000
0000
1000
0001
1000
,
0001
1000
0000
0001
0100
0001
0100
0001
0000
1000
0001
1000
0001
1000
0000
0001
,
0100
0001
0100
0001
0000
0010
0100
0010
0100
0010
0000
0001
1000
0001
1000
0001
,
0000
0000
0000
0000
1000
0001
1000
0001
0000
0100
0000
0010
1000
0000
0000
0000
,
0001
1000
0001
1000
0000
0100
0000
0010
0001
0000
0000
0000
1000
0001
1000
0001
,
0000
0100
0000
0010
1000
0000
0000
0000
0001
1000
0001
1000
0000
0100
0000
0010
,
0001
1000
0100
0001
0100
1000
0001
0010
,
1000
0000
0010
0000
0001
0000
1000
0000
0100
0000
0010
0000
0000
0010
0000
0000
,
0100
0000
0000
0100
0000
0000
0010
0000
0000
0200
0020
0000
0000
0000
0000
0000
,
0000
0000
0000
0000
,
0000
0000
0330
0000
;

//---------------dance-single - ----------------
#NOTES:
     dance-single:
     :
     Challenge:
     13:
     0.671,0.617,0.010,0.020,1.000: // measure 1
1000
0001
0000
0001
0000
0000
0010
0001
0000
0001
0000
0000
0100
0010
0000
0010
,  // measure 2
0000
0000
1000
0000
1000
0000
0010
0000
0100
0001
0000
0001
0000
0000
1000
0100
,  // measure 3
0000
0100
0000
0000
1000
0001
0000
0001
0000
0000
1000
0000
1000
0000
0010
0000
,  // measure 4
0100
0001
0010
1000
0010
0001
0100
1000
,  // measure 5
0100
0000
0001
0000
0010
0000
1000
0000
0010
0000
0000
0000
0001
0100
0010
0100
,  // measure 6
0000
0001
0000
0001
1000
0000
0000
0000
0001
0100
0010
0100
0000
0001
0000
0001
,  // measure 7
1000
0000
0000
0000
0001
0100
0010
0100
0000
0001
0000
0001
1000
0100
0000
1000
,  // measure 8
0000
0010
0100
0010
0000
1000
0000
0100
1000
0000
0000
0001
0100
0001
1000
0100
,  // measure 9
0000
1000
0000
0010
0100
0000
0000
0001
0010
0001
1000
0010
0000
1000
0000
0010
,  // measure 10
0100
0000
0000
0001
0100
0001
1000
0100
0000
1000
0000
0010
0100
0010
0000
0010
,  // measure 11
0000
1000
0001
1000
0000
1000
0000
0001
0010
0100
0010
0100
0010
0001
0000
0010
,  // measure 12
0001
0010
0001
0100
0000
0001
1000
0100
1000
0100
1000
0001
0010
0100
1000
0001
,  // measure 13
0000
1000
0010
1000
0010
0100
0000
0010
1000
0010
1000
0100
0000
1000
0001
0100
,  // measure 14
0001
0100
0001
0010
0100
1000
0100
0010
0000
0001
1000
0001
1000
0100
0000
1000
,  // measure 15
0010
1000
0010
0100
0000
0001
1000
0001
1000
0010
0000
1000
0001
1000
0001
0010
,  // measure 16
0000
0001
0010
0001
0010
0100
0000
1000
0100
1000
0100
0010
0001
1000
0000
1001
,  // measure 17
0000
0000
0010
0100
0000
0010
0000
0000
0010
0000
1000
0100
0010
0100
0010
0001
,  // measure 18
0010
0001
0100
0010
0100
0010
0100
0001
1000
0100
0010
0000
0001
1000
0000
0000
,  // measure 19
0001
0100
0000
0001
0000
0000
0001
0000
1000
0001
0000
0001
1000
0010
0000
1000
,  // measure 20
0000
0000
0100
0010
0000
0100
0000
0000
1000
0000
0001
0100
0010
0100
0001
0000
,  // measure 21
0100
0001
0000
0001
1000
0000
0100
1000
0000
0000
0100
0000
1000
0100
0000
0000
,  // measure 22
1000
0001
1000
0001
0100
0001
0100
0001
0010
0100
0010
0100
1000
0000
0000
0001
,  // measure 23
1000
0100
0010
0001
0000
0001
0000
0001
1000
0000
0000
0001
1000
0100
0010
0001
,  // measure 24
0000
0001
0000
0001
1000
0000
0000
0001
1000
0100
0010
0001
0000
0001
0000
0001
,  // measure 25
1000
0100
0000
1000
0000
1000
0100
0010
0000
0001
0000
0001
1000
0100
1000
0010
,  // measure 26
0000
0000
1000
0000
0000
1000
0000
0001
0010
0100
0000
0100
0000
1000
0001
0000
,  // measure 27
0001
1000
0000
0000
0001
1000
0100
0010
0001
1000
0001
0100
0000
0001
0100
0001
,  // measure 28
0100
0010
0100
0010
1000
0100
1000
0100
0010
0001
0010
0000
0001
1000
0010
0100
,  // measure 29
0010
1000
0001
0000
1000
0001
0000
0001
1000
0000
0100
0000
1000
0010
0100
0000
,  // measure 30
0100
0010
0000
1000
0100
0010
0100
0010
0001
0100
0001
0100
0001
1000
0001
1000
,  // measure 31
0200
0000
0000
0000
0000
0000
0000
0000
0000
0000
1300
0000
0000
0001
0010
0001
,  // measure 32
0010
0100
0000
1000
0010
1000
0010
0100
0000
0001
0010
0001
0010
0100
1000
0100
,  // measure 33
1000
0001
1000
0001
0000
1000
0010
0100
0010
1000
0000
0001
0100
0010
0100
0001
,  // measure 34
0000
1000
0010
1000
0010
0100
0001
0100
0001
0010
0100
1000
0000
0001
0010
0100
,  // measure 35
0010
0001
0000
0010
0100
1000
0100
0010
0000
0001
1000
0010
1000
0001
0000
0100
,  // measure 36
0010
1000
0010
0100
0000
0001
1000
0100
1000
0001
0000
1000
0001
0100
0001
1000
,  // measure 37
0100
0000
0000
1000
0001
1000
0100
0010
0000
0001
0000
0001
1000
0000
0000
0001
,  // measure 38
1000
0001
0100
0010
0000
1000
0000
1000
0001
0000
0000
1000
0001
1000
0010
0100
,  // measure 39
0000
0001
0000
0001
0010
0000
0000
0001
1000
0001
0100
0010
0000
1000
0000
1000
,  // measure 40
0100
0000
1000
0100
1000
0100
0010
0001
0010
0001
1000
0010
1000
0010
0100
0001
,  // measure 41
0100
0001
1000
0100
0010
0100
1000
0001
0100
0000
0001
1000
0100
0010
0000
0000
,  // measure 42
0001
1000
0100
0010
0000
0000
0001
1000
0100
0010
0002
0000
0000
0000
0000
0000
,  // measure 43
0000
0000
0000
0000
,  // measure 44
0000
0000
0003
0000
;

//---------------dance-single - ----------------
#NOTES:
     dance-single:
     :
     Beginner:
     1:
     0.056,0.079,0.039,0.000,0.000:
1000
0000
0000
1000
,
0000
0000
0001
0000
,
0000
0001
0000
0000
,
1001
0000
0000
0000
,
0000
0000
0010
0000
,
0000
0000
0000
0000
,
0000
0000
0000
0000
,
0000
0000
0100
0000
,
0000
0000
0000
0000
,
0010
0000
0000
0000
,
0000
0000
0110
0000
,
0000
0000
0000
0000
,
0100
0000
0000
0000
,
0000
0000
0001
0000
,
0000
0000
0000
0000
,
1000
0000
0000
0000
,
1001
0000
0000
0000
,
0000
0000
0000
0000
,
0000
0000
0000
0001
,
0000
0000
0000
0000
,
0000
0010
0000
0000
,
0100
0000
0000
0010
,
0000
0000
0000
0000
,
0000
0001
0000
0000
,
0000
0000
0000
1000
,
0000
0000
0000
0000
,
0000
0100
0000
0000
,
0000
0000
0000
1000
,
0000
0000
0001
0000
,
0000
1000
0000
0000
,
0000
0000
0000
0001
,
0000
0000
0010
0000
,
0000
0001
0000
0000
,
1000
0000
0000
0100
,
0000
0000
1000
0000
,
0000
0010
0000
0000
,
0110
0000
0000
0100
,
0000
0000
0010
0000
,
0000
0100
0000
0000
,
1000
0000
0000
0000
,
0000
0000
0001
0000
;
