#TITLE:Esperanza;
#SUBTITLE:;
#ARTIST:猫叉劇団;
#TITLETRANSLIT:;
#SUBTITLETRANSLIT:;
#ARTISTTRANSLIT:NEKOMATA GEKIDAN;
#CREDIT:DigiMindAxel;
#BANNER:Esperanza.png;
#BACKGROUND:Esperanza-bg.png;
#LYRICSPATH:;
#CDTITLE:pop'n music.png;
#MUSIC:Esperanza.mp3;
#METERTYPE:DDR X;
#OFFSET:-8.868;
#SAMPLESTART:59.944;
#SAMPLELENGTH:12.000;
#SELECTABLE:YES;
#BPMS:0.000=135.000;
#STOPS:111.500=1.333
,212.500=0.222
;
#BGCHANGES:;

//---------------dance-single - ----------------
#NOTES:
     dance-single:
     :
     Easy:
     5:
     0.247,0.241,0.035,0.166,0.000: // measure 1
0002
0000
0000
1003
,  // measure 2
0020
0000
0000
0130
,  // measure 3
0002
0000
0000
0013
,  // measure 4
0200
0000
1300
0001
,  // measure 5
1000
0010
0010
0010
,  // measure 6
1000
0001
0001
0001
,  // measure 7
1000
0100
0100
0100
,  // measure 8
1000
0001
0010
0100
,  // measure 9
1000
0010
0010
0010
,  // measure 10
0100
0001
0001
0001
,  // measure 11
0010
0100
0100
0100
,  // measure 12
1000
0010
0100
0001
,  // measure 13
2000
0000
0000
3001
,  // measure 14
0200
0000
0310
0100
,  // measure 15
0020
0000
0000
0130
,  // measure 16
0002
0000
1003
0100
,  // measure 17
0020
0032
0000
1003
,  // measure 18
0020
0000
0130
0001
,  // measure 19
0020
0000
0000
0130
,  // measure 20
2000
0000
3001
1000
,  // measure 21
1001
0000
0000
0000
,  // measure 22
0100
0000
0000
0000
,  // measure 23
0110
0000
0000
0000
,  // measure 24
0100
0000
0000
0000
,  // measure 25
0010
0100
0010
0100
,  // measure 26
0010
0100
0010
0100
,  // measure 27
0001
1000
0001
1000
,  // measure 28
0010
0100
0001
1000
,  // measure 29
0000
1001
0001
0001
,  // measure 30
0001
0010
0100
1000
,  // measure 31
0010
0100
0100
0001
,  // measure 32
1000
0100
0000
1000
,  // measure 33
0001
1000
0000
0010
,  // measure 34
0100
0001
1000
0001
,  // measure 35
0010
0100
1000
0100
,  // measure 36
1000
0020
0000
0130
,  // measure 37
0010
0100
0100
0100
,  // measure 38
0100
0001
1000
0010
,  // measure 39
0100
0001
1000
0001
,  // measure 40
0010
0002
0000
0000
,  // measure 41
1003
0200
0000
0320
,  // measure 42
0000
0031
1000
0001
,  // measure 43
0000
1000
0100
0010
,  // measure 44
0001
1000
0001
1000
,  // measure 45
0001
0100
0010
0100
,  // measure 46
0010
1000
0100
1000
,  // measure 47
0001
1000
0100
1000
,  // measure 48
0001
1000
0010
1000
,  // measure 49
0001
1000
0010
1000
,  // measure 50
0001
0010
0001
1000
,  // measure 51
0001
0010
0001
1000
,  // measure 52
0001
0100
0001
1000
,  // measure 53
0001
0100
0001
1000
,  // measure 54
1000
0000
0000
2002
0000
0000
0000
0000
,  // measure 55
0000
0000
0000
0000
,  // measure 56
0000
0000
0000
3003
0000
0000
0000
0000
;

//---------------dance-single - ----------------
#NOTES:
     dance-single:
     :
     Medium:
     7:
     0.397,0.362,0.131,0.166,0.000:
1000
0100
0010
0100
,
1000
0010
0100
0010
,
1000
0001
0010
0100
,
0010
0000
0001
0000
1000
0001
1000
0001
,
1000
0100
0010
0100
1000
0100
0010
0000
,
0001
0010
0100
0010
0001
0010
0100
0000
,
1000
0010
0100
0010
1000
0010
0100
0000
,
0001
1000
0001
0000
0100
0001
0010
0000
,
0100
1000
0010
0100
0010
1000
0100
0000
,
0010
0001
0100
0010
0100
0001
0010
0000
,
0100
0010
0001
0010
0100
0010
0001
0000
,
1000
0010
0100
0000
0010
0100
0010
0000
,
2000
0000
0001
0000
3001
1000
0100
0010
,
0002
0000
0000
0000
0103
0001
0010
0100
,
2000
0000
0000
0000
3001
1000
0010
0100
,
0002
0000
0000
0000
1003
0001
0100
0010
,
1000
0000
1002
0000
0000
0000
1003
0010
,
0200
0000
0000
0000
0301
0010
0100
1000
,
0020
0000
0000
0000
0000
0000
0130
0001
,
0020
0000
0100
0000
0130
1000
0001
0000
,
1001
0020
0000
0130
,
2000
0000
0010
3010
,
0210
0000
0301
1000
,
0020
0000
0100
0000
,
0130
0010
0100
0010
,
0100
0010
0100
0010
,
1000
0001
1000
0001
,
1000
0000
0000
0000
0000
0000
0000
0000
0000
0000
0000
0000
0100
0000
0000
0000
0000
0000
0000
0000
0000
0000
0000
0000
1000
0000
0000
0000
0000
0000
0100
0000
0000
0000
0000
0000
0010
0000
0000
0000
0000
0000
0002
0003
0000
0000
0000
0000
,
0000
0000
0010
0100
1000
0100
0010
0100
,
1000
0100
0010
0000
0101
0000
0110
0000
,
0100
0001
0010
0000
1001
0000
1000
0100
,
0010
0001
1000
0000
0100
0000
1000
0001
,
0100
0001
1000
0000
0100
1000
0001
0100
,
0001
0000
1000
0100
0010
0001
1000
0000
,
0010
1000
0001
0000
1001
0000
0001
0100
,
0010
1000
0001
0000
0100
0000
0110
0000
,
0000
0000
1000
0010
0100
0010
1000
0010
,
0100
0010
1000
0000
1010
0000
0110
0000
,
0010
1000
0001
0000
0010
0100
1000
0001
,
0010
0100
2000
0000
0000
0000
3001
0100
,
0001
1000
0100
0010
0000
0100
0010
0001
,
0000
1000
0010
1000
0001
1000
0010
0000
,
0000
0000
1001
0000
0020
0000
0130
0001
,
0010
0100
2000
0000
0001
0000
0001
0000
,
3001
0200
0010
0010
,
0310
0000
0110
0000
0010
0001
0010
0000
,
0100
0010
0100
0000
0010
0001
0010
0000
,
0100
1000
0001
0000
0100
0001
0100
0000
,
0010
0100
0010
0000
1000
0010
1000
0000
,
1001
0000
0110
0000
0100
1000
0100
0000
,
0010
0100
0010
0000
0100
1000
0100
0000
,
1000
0001
1000
0000
0010
1000
0010
0000
,
0100
0010
0100
0000
0001
0010
0001
1000
,
0100
0010
0000
2002
0000
0000
0000
0000
,
0000
0000
0000
0000
,
0000
0000
0000
3003
0000
0000
0000
0000
;

//---------------dance-single - ----------------
#NOTES:
     dance-single:
     :
     Hard:
     11:
     0.520,0.507,0.183,0.209,0.166:
0102
1000
0100
1003
,
0210
0001
0010
0301
,
2001
0100
0001
3100
,
1002
0000
0000
0000
0000
0000
1003
0001
1000
0000
0100
0000
0010
0000
0001
0000
,
1000
0000
0000
0001
0100
0000
0000
0001
0100
0000
0100
0000
0001
0000
0010
0000
,
0100
0000
0000
1000
0010
0000
0000
1000
0010
0000
0010
0000
1000
0000
0100
0000
,
0010
0000
0000
0001
1000
0000
0000
0001
1000
0000
1000
0000
0010
0000
0100
0000
,
0001
0000
0100
0000
1000
0000
0100
0000
0001
0000
1000
0001
1000
0000
0001
0000
,
1001
0000
0000
0001
0010
0000
0000
0001
0010
0000
0010
0000
0100
0000
1000
0000
,
0001
0000
0000
1000
0100
0000
0000
1000
0100
0000
0100
0000
0010
0000
0001
0000
,
1000
0000
0000
0001
1000
0000
0000
0001
1000
0000
1000
0000
0010
0000
0100
0000
,
0001
0100
1000
0100
0001
1000
1001
0000
,
1200
0000
0010
0000
1300
0001
0010
0100
,
0020
0000
0001
0000
0130
1000
0100
0010
,
0200
0000
1000
0000
0310
0000
1000
0010
,
0200
0000
0001
0000
0310
1000
0010
0100
,
0101
0000
2002
0000
3003
0000
0100
1000
,
0002
0000
1000
0000
1003
0001
0010
0100
,
0020
0000
0001
0000
0130
0000
0001
1000
,
0200
0000
1300
0001
0010
0100
1000
0010
,
0100
0000
1200
0000
0000
1300
0100
1000
,
0002
0000
0000
0000
0103
0001
0010
0100
,
2000
0000
0000
0000
0000
3001
0010
0001
,
2000
0000
0000
0010
3010
0000
0000
0000
,
0100
0010
0100
0001
0100
0010
0100
0001
,
0100
0010
0100
0001
0100
0010
1000
0000
,
0010
1000
0100
0010
0100
1000
0100
0010
,
0100
0000
0000
0000
0000
0000
1000
0000
0000
0000
0000
0000
0001
0000
0000
0000
0000
0000
1000
0000
0000
0000
0000
0000
0001
0000
0000
0000
0000
0000
0001
0000
0000
0000
0000
0000
1000
0000
0000
0000
0000
0000
2000
3000
0000
0000
0000
0000
,
0001
1000
0001
1000
0001
0000
0000
0001
0100
0000
0000
0100
1000
0000
0000
1000
,
0100
0000
0000
0100
0001
0000
0010
0000
0100
0000
1000
0010
1000
0000
0001
0100
,
0001
0010
0100
0000
0110
0100
0001
0010
,
0100
0010
0100
0000
1000
0000
0010
0000
0100
0000
0000
0000
0001
0000
1000
0000
,
0100
0001
0100
1000
0001
1000
0010
0001
,
0010
0000
1000
0000
0001
0000
0010
0000
0100
0000
1000
0001
1000
0000
0000
0000
,
0010
1000
0001
0000
1001
0000
1000
0100
,
0010
0100
0010
0000
0001
0000
0100
0000
0010
0000
0100
0000
0101
0000
0000
0000
,
1000
0001
1000
0001
1000
0000
0000
1000
0100
0000
0000
0100
0001
0000
0000
0001
,
0100
0000
0000
0100
1000
0000
0010
0000
0100
0000
0001
0010
0001
0000
1000
0100
,
1000
0010
0100
0000
0110
0010
1000
0100
,
0010
0100
0010
0000
0002
0000
0000
0000
1000
0000
0000
0000
1003
0000
0001
0000
,
0010
1000
0010
0001
1000
1000
0001
0010
,
1000
0010
0001
0001
1000
1000
0110
0000
,
0100
0000
0000
0000
1001
0000
0000
1000
0002
0000
0000
0000
0103
0000
0001
0000
,
0010
0100
0010
0000
0002
0000
0000
0000
1000
0000
0000
0000
0100
0000
0000
0000
,
1003
0120
1000
0100
,
1030
0000
1001
1000
0010
0100
0001
1000
,
0100
0001
0100
1000
0010
0100
0010
1000
,
0100
0001
0100
1000
0001
0010
0100
0010
,
0001
0000
1000
0000
0010
0000
0000
0000
0010
0000
1000
0001
1000
0000
0010
0000
,
0100
0000
0001
1000
0001
0000
0010
0000
0100
0000
0010
0000
0001
0000
1000
0000
,
0010
0001
0010
1000
0100
0010
0100
1000
,
0010
0001
0010
1000
0001
0100
0001
1000
,
0010
0001
0010
1000
0100
0010
0001
0101
,
0100
0110
0000
2002
0000
0000
0000
0000
,
0000
0000
0000
0000
,
0000
0000
0000
3003
0000
0000
0000
0000
;

//---------------dance-single - ----------------
#NOTES:
     dance-single:
     :
     Challenge:
     13:
     0.633,0.603,0.218,0.096,0.397:
0001
1000
0100
0010
0100
1000
0001
0000
,
0001
1000
0010
0100
0010
1000
0001
0000
,
0001
0010
0100
0010
0001
0100
0010
0000
,
0010
0000
1000
0000
0001
0000
1000
0001
1000
0000
0100
0000
0100
0000
1000
0000
,
1000
0000
0001
0010
0100
0000
0100
0010
0001
0000
1000
0000
0010
0000
0100
0000
,
0000
0000
0001
0100
0010
0000
0010
0100
0001
0000
0010
0000
0100
0000
1000
0000
,
0000
0000
0100
0010
0001
0000
0001
0010
0100
0000
1000
0000
0010
0000
0100
0000
,
0001
0000
0100
0000
1000
0000
0100
0000
0001
0000
1000
0010
1000
0000
0001
0000
,
1001
0000
1000
0010
0100
0000
0100
0010
1000
0000
0100
0000
0010
0000
0001
0000
,
1000
0000
0001
0010
0100
0000
0100
0010
0001
0000
0100
0000
0010
0000
1000
0000
,
0100
0000
0010
0100
1000
0000
1000
0100
0010
0000
0001
0000
1000
0000
0100
0000
,
0001
0100
1000
0010
0110
0100
1001
0000
,
0100
1000
0100
1000
0100
1000
0100
1000
0100
0000
0010
0000
0100
0000
1000
0000
,
0001
0100
0001
0100
0001
0100
0001
0100
0001
0000
1000
0000
0100
0000
0010
0000
,
0001
1000
0001
1000
0001
1000
0001
1000
0001
0000
0000
0000
0010
0000
0001
0000
,
0100
0010
0100
0010
0100
0010
0100
0000
0001
1000
0001
0000
1000
0000
0100
0000
,
1000
0100
1000
0000
0001
1000
0001
1000
0001
1000
0001
0000
0010
0000
0100
0000
,
1000
0001
1000
0001
1000
0001
1000
0000
0010
0000
0100
0000
0001
0000
1000
0000
,
0100
0010
0100
0010
0100
0010
0100
0010
0100
0010
0100
0000
1000
0000
0001
0000
,
0100
0001
0100
0001
0100
0001
0100
0000
0001
0000
0010
0000
0100
0000
1000
0000
,
0020
0000
0230
0000
0000
0310
1000
0100
,
0020
0000
0000
0000
0130
1000
0001
0100
,
0102
0000
0000
0000
0000
1003
0100
0010
,
0002
0000
0000
1000
2003
0000
0000
0000
,
3001
1000
0100
1000
0001
1000
0100
1000
,
0001
1000
0100
1000
0001
1000
0100
0010
,
0001
1000
0010
1000
0001
1000
0010
1000
,
0001
0000
0000
0000
0100
0000
0000
0000
0010
0000
0000
0000
1000
0000
0000
0000
1100
0000
0000
0000
1100
0000
0000
0000
0110
0000
0000
0000
0220
0330
0000
0000
,
0001
1000
0001
1000
0001
0000
1000
0100
0010
0000
0010
0100
1000
0000
0100
0010
,
0001
0000
0001
0010
0100
0000
1000
0000
0001
0000
1000
0010
0100
0000
0100
0010
,
1000
0000
0100
0000
0010
0000
0000
0010
0001
0000
1000
0000
0100
0000
0010
0000
,
0100
0010
0100
0000
1000
0000
0010
0000
0100
0000
0010
0000
1000
0000
0001
1000
,
0001
0100
1000
0100
0001
1000
0100
0001
,
0100
0000
1000
0000
0001
0000
0010
0000
0100
0000
1000
0001
2000
0000
0000
0000
,
3001
0000
0010
0000
0100
0000
0000
0100
0010
0000
0001
0000
1000
0000
0010
0000
,
0100
0010
0100
0000
0001
0000
0010
0000
0100
0000
1000
0000
1001
0000
0000
0000
,
1000
0001
1000
0001
1000
0000
0001
0100
0010
0000
0010
0100
0001
0000
0100
0010
,
1000
0000
1000
0010
0100
0000
0001
0000
1000
0000
0001
0010
0100
0000
0100
0010
,
0001
0000
0010
0000
0100
0000
0000
0100
1000
0000
0001
0000
0100
0000
0010
0000
,
1000
0010
1000
0000
0100
0000
0010
0000
0001
0000
1000
0000
0010
0000
1000
0001
,
1000
0010
0001
0010
1000
0001
0010
1000
,
0010
0001
0101
0101
0110
0110
1001
0000
,
1001
0000
0000
0000
0110
0000
0000
0010
0200
0000
0000
0000
0301
0000
1000
0000
,
0100
0000
0000
1000
0000
0000
0010
0000
0000
0000
0000
0000
0100
0000
0000
0000
0001
0000
0000
0000
0100
0000
0000
0000
0001
0000
0000
0000
0000
0000
0000
0000
1000
0000
0000
0000
0100
0000
0000
0000
0010
0000
0000
0000
0001
0000
0000
0000
,
1000
0100
1000
0100
1000
0010
0100
0000
0001
1000
0001
1000
,
0001
0000
0000
1000
0001
0000
0010
0000
0100
0000
0010
0000
0001
0000
1000
0000
,
1100
0000
1000
0010
0100
0010
1000
0001
,
0011
0000
0010
0100
1000
0001
0100
0001
,
1001
0000
0000
0000
0000
0000
0000
0000
0000
0000
0000
0000
1000
0000
0000
0000
0001
0000
0000
0000
0010
0000
0000
0000
0000
0000
0000
0000
0000
0000
0001
0000
0000
1000
0000
0000
0010
0000
0000
0000
0000
0000
0100
0000
0000
0000
0000
0000
,
0100
0000
0010
1000
0001
0000
0010
0000
0100
0000
0010
0000
0001
0000
0100
0000
,
0110
0000
0010
1000
0100
1000
0001
0100
,
0101
0000
0100
0010
0001
1000
0010
0100
,
0110
0000
0000
0000
0010
0000
0100
0000
1000
0000
0001
0100
0010
0000
0110
0000
,
0110
0000
0101
0000
0001
1000
0002
0000
0000
0000
0000
0000
0000
0000
0000
0000
,
0000
0000
0000
0000
,
0000
0000
0000
0003
0000
0000
0000
0000
;

//---------------dance-single - ----------------
#NOTES:
     dance-single:
     :
     Beginner:
     1:
     0.077,0.093,0.026,0.000,0.000:
0001
0000
0000
0000
,
0010
0000
0000
0000
,
0100
0000
0000
0000
,
1000
0000
0000
0000
,
1001
0000
0000
0000
,
1000
0000
0000
0000
,
0001
0000
0000
0000
,
1000
0000
0000
0000
,
0100
0000
0000
0000
,
0010
0000
0000
0000
,
0100
0000
0000
0000
,
0010
0000
0000
0000
,
0001
0000
0000
0000
,
1000
0000
0000
0000
,
0001
0000
0000
0000
,
1000
0000
0000
0000
,
0010
0000
0000
0000
,
0100
0000
0000
0000
,
0010
0000
0000
0000
,
0100
0000
0000
0000
,
0001
0000
0000
0000
,
0000
0000
0000
0000
,
0001
0000
0000
0000
,
0000
0000
0000
0000
,
0001
0000
0000
0000
,
0010
0000
0000
0000
,
0100
0000
0000
0000
,
1000
0000
0000
0000
,
0000
0001
0000
1000
,
0000
0001
0000
0000
,
0000
1000
0000
0001
,
0000
1000
0000
0000
,
0000
0010
0000
0100
,
0000
0010
0000
0000
,
0000
0100
0000
0010
,
0000
0100
0000
0000
,
0000
0001
0000
1000
,
0000
0001
0000
0000
,
0000
1000
0000
0001
,
0000
1000
0000
0000
,
0000
0100
0000
0010
,
0000
0100
0000
0000
,
0000
1000
0000
0000
,
0000
0001
0000
0000
,
0000
1000
0000
0000
,
0000
1001
0000
0000
,
0000
0001
0000
0000
,
0000
1000
0000
0000
,
0000
0010
0000
0000
,
0000
0100
0000
0000
,
0000
0001
0000
0000
,
0000
1000
0000
0000
,
0000
0001
0000
0000
,
0000
0000
0000
1001
0000
0000
0000
0000
;
