#TITLE:Ensamble Forecast 3/28;
#SUBTITLE:;
#ARTIST:LekSak;
#TITLETRANSLIT:;
#SUBTITLETRANSLIT:;
#ARTISTTRANSLIT:;
#CREDIT:DigiMindAxel;
#BANNER:Ensamble Forecast 3 28.png;
#BACKGROUND:Ensamble Forecast 3 28-bg.png;
#LYRICSPATH:Ensamble Forecast 3 28.lrc;
#CDTITLE:pop'n music.png;
#MUSIC:Ensamble Forecast 3 28.mp3;
#METERTYPE:DDR X;
#OFFSET:-4.990;
#SAMPLESTART:60.142;
#SAMPLELENGTH:12.000;
#SELECTABLE:YES;
#BPMS:0.000=212.000;
#STOPS:;
#BGCHANGES:;

//---------------dance-single - ----------------
#NOTES:
     dance-single:
     :
     Easy:
     5:
     0.204,0.359,0.265,0.039,0.000: // measure 1
0001
0000
0010
0000
,  // measure 2
0100
0000
1000
0000
,  // measure 3
1000
0000
0001
0000
,  // measure 4
1001
0000
0000
0000
,  // measure 5
1001
0000
0001
0000
,  // measure 6
1001
0000
1000
0000
,  // measure 7
1001
0000
0001
0000
,  // measure 8
1000
0000
0010
0000
,  // measure 9
0100
0000
0010
0000
,  // measure 10
1000
0000
0100
0000
,  // measure 11
0010
0000
0001
0000
,  // measure 12
1001
0000
1001
0000
,  // measure 13
1001
0000
1001
0000
,  // measure 14
0110
0000
0110
0000
,  // measure 15
0110
0000
0200
0000
,  // measure 16
0302
0000
0000
0000
,  // measure 17
0000
0000
0000
0000
,  // measure 18
0000
0000
0000
0000
,  // measure 19
0000
0000
0000
0000
,  // measure 20
2003
0000
0000
0000
,  // measure 21
0000
0000
0000
0000
,  // measure 22
0000
0000
0000
0000
,  // measure 23
0000
0000
0000
0000
,  // measure 24
3001
0000
0001
0000
,  // measure 25
0010
0000
0010
0000
,  // measure 26
0001
0000
0010
0000
,  // measure 27
0100
0000
1000
0000
,  // measure 28
1000
0000
1000
0000
,  // measure 29
0100
0000
0100
0000
,  // measure 30
1000
0000
0010
0000
,  // measure 31
0100
0000
0001
0000
,  // measure 32
1001
0000
0000
0000
,  // measure 33
0000
0000
0000
0000
,  // measure 34
0001
0000
0000
0000
,  // measure 35
0001
0000
0000
0000
,  // measure 36
1001
0000
0010
0000
,  // measure 37
0010
0000
0010
0000
,  // measure 38
1001
0000
1001
0000
,  // measure 39
1001
0000
0000
0000
,  // measure 40
0100
0000
1000
0000
,  // measure 41
0100
0000
1000
0000
,  // measure 42
0001
0000
1000
0000
,  // measure 43
0001
0000
1000
0000
,  // measure 44
0001
0000
0010
0000
,  // measure 45
0001
0000
0010
0000
,  // measure 46
0001
0000
0010
0000
,  // measure 47
0100
0000
0100
0000
,  // measure 48
1001
0000
0000
0000
,  // measure 49
0000
0000
0000
0000
,  // measure 50
1000
0000
1000
0000
,  // measure 51
0001
0000
0001
0000
,  // measure 52
1000
0000
1000
0000
,  // measure 53
0001
0000
0001
0000
,  // measure 54
0010
0000
0100
0000
,  // measure 55
1000
0000
0001
0000
,  // measure 56
1000
0000
1000
0000
,  // measure 57
0001
0000
0001
0000
,  // measure 58
1000
0000
0100
0000
,  // measure 59
0010
0000
0001
0000
,  // measure 60
1000
0000
0001
0000
,  // measure 61
1000
0000
0001
0000
,  // measure 62
0010
0000
0100
0000
,  // measure 63
1000
0000
0001
0000
,  // measure 64
1000
0000
0001
0000
,  // measure 65
0010
0000
0000
0000
,  // measure 66
1001
0000
0000
0000
,  // measure 67
0110
0000
0000
0000
,  // measure 68
1001
0000
0000
0000
,  // measure 69
0000
0000
0000
0000
,  // measure 70
0001
0000
0000
0000
,  // measure 71
1001
0000
0000
0000
,  // measure 72
0000
0000
0000
0000
,  // measure 73
2000
0000
0000
0000
,  // measure 74
0000
0000
0000
0000
,  // measure 75
3002
0000
0000
0000
,  // measure 76
1003
0000
0000
0000
,  // measure 77
1001
0000
1000
0000
,  // measure 78
1000
0000
1000
0000
,  // measure 79
1001
0000
0001
0000
,  // measure 80
0001
0000
0001
0000
,  // measure 81
1001
0000
1000
0000
,  // measure 82
0110
0000
0001
0000
,  // measure 83
0110
0000
1000
0000
,  // measure 84
1001
0000
0000
0000
,  // measure 85
1001
0000
0001
0000
,  // measure 86
0001
0000
0001
0000
,  // measure 87
1001
0000
1000
0000
,  // measure 88
1000
0000
1000
0000
,  // measure 89
0110
0000
0001
0000
,  // measure 90
0110
0000
1000
0000
,  // measure 91
1001
0000
0110
0000
,  // measure 92
1001
0000
0000
0000
,  // measure 93
0001
0000
0000
0000
;

//---------------dance-single - ----------------
#NOTES:
     dance-single:
     :
     Medium:
     8:
     0.384,0.610,0.382,0.133,0.043: // measure 1
0002
0000
2003
0000
,  // measure 2
3020
0000
0230
0000
,  // measure 3
0302
1000
1000
1003
,  // measure 4
2002
0000
0000
3003
,  // measure 5
1001
1000
0001
0100
,  // measure 6
0010
1000
0100
1000
,  // measure 7
0001
1000
0001
0010
,  // measure 8
0001
0000
1000
0100
,  // measure 9
1000
0000
0010
0100
,  // measure 10
0001
0010
0001
0100
,  // measure 11
0010
1000
0100
1000
,  // measure 12
1001
0000
0011
0000
,  // measure 13
1001
0000
1100
0000
,  // measure 14
1001
0000
0011
0000
,  // measure 15
2002
0000
0000
3003
,  // measure 16
0100
0000
0000
0000
,  // measure 17
0100
0000
0000
0000
,  // measure 18
0100
0000
0000
0000
,  // measure 19
0100
0000
0000
0000
,  // measure 20
0010
0000
0000
0000
,  // measure 21
0010
0000
0000
0000
,  // measure 22
0010
0000
0000
0000
,  // measure 23
0010
0000
0000
0000
,  // measure 24
1000
0100
1000
0001
,  // measure 25
0010
0100
1000
0001
,  // measure 26
1000
0000
0001
1000
,  // measure 27
0001
0000
1000
0001
,  // measure 28
1000
0001
0010
0100
,  // measure 29
1000
0100
0010
0001
,  // measure 30
1000
0001
1000
0000
,  // measure 31
1001
0000
0110
0000
,  // measure 32
2002
0000
0000
0000
,  // measure 33
0000
0000
0000
3003
,  // measure 34
0220
0000
0000
0000
,  // measure 35
0000
0000
0000
0330
,  // measure 36
1001
0001
1000
1000
,  // measure 37
0100
0100
0010
0010
,  // measure 38
0110
0000
0110
0000
,  // measure 39
1001
0000
1001
0000
,  // measure 40
1000
0100
1000
0001
,  // measure 41
0100
0001
1000
1000
,  // measure 42
1001
0000
0001
0010
,  // measure 43
0100
1000
0001
1000
,  // measure 44
0001
0010
0001
1000
,  // measure 45
0010
1000
0010
1000
,  // measure 46
0001
0001
1001
0000
,  // measure 47
1000
0100
0010
0001
,  // measure 48
1002
1000
1000
0000
,  // measure 49
1003
0000
0000
0000
0000
0001
0000
0000
0000
0000
0000
0000
,  // measure 50
1000
0010
0100
0001
,  // measure 51
0100
0010
1000
0100
,  // measure 52
0010
0001
1000
0001
,  // measure 53
0100
0010
1000
1000
,  // measure 54
1000
0110
0000
0001
,  // measure 55
0001
0001
0110
0000
,  // measure 56
1000
0001
1000
0001
,  // measure 57
1000
0000
0001
0100
0000
0001
0000
0000
0000
0000
0000
0000
,  // measure 58
1000
0010
0100
0001
,  // measure 59
0100
0010
1000
0100
,  // measure 60
0010
0001
1000
0001
,  // measure 61
0010
0100
1000
1000
,  // measure 62
1000
0110
0000
0001
,  // measure 63
0001
0001
0110
0000
,  // measure 64
0001
1000
0001
1000
,  // measure 65
0001
0000
1000
0010
0000
1000
0000
0000
0000
0000
0000
0000
,  // measure 66
1001
0000
0000
0110
,  // measure 67
0110
0000
0000
1001
,  // measure 68
1001
0000
0001
0000
,  // measure 69
0001
0000
1000
0010
,  // measure 70
0100
0000
0001
0000
0000
1001
0000
0000
0000
0010
0000
1000
,  // measure 71
0000
0000
0000
0001
0000
1000
0000
0000
0000
0001
0000
0000
,  // measure 72
1000
1000
1000
1000
,  // measure 73
2001
0000
0001
0000
,  // measure 74
0001
0000
0001
0000
,  // measure 75
3002
0000
0000
0000
,  // measure 76
2000
0000
0000
3003
,  // measure 77
0100
0010
1000
0010
,  // measure 78
0100
0001
0010
0100
,  // measure 79
1000
0010
0100
0010
,  // measure 80
1000
0100
0010
0001
,  // measure 81
1100
1000
1000
0001
,  // measure 82
0011
0001
0001
1000
,  // measure 83
0100
0000
1000
0100
0000
0000
0010
0000
0001
0010
0000
0000
,  // measure 84
1001
1001
1001
0000
,  // measure 85
1001
1000
0010
1000
,  // measure 86
0001
0010
0100
1000
,  // measure 87
1001
0001
0100
0001
,  // measure 88
1000
0100
0010
0001
,  // measure 89
1001
1000
0010
1000
,  // measure 90
1001
0001
0100
0001
,  // measure 91
0110
0110
0110
0110
,  // measure 92
1001
1001
1001
1001
,  // measure 93
1000
0000
0000
0000
;

//---------------dance-single - ----------------
#NOTES:
     dance-single:
     :
     Hard:
     13:
     0.647,0.718,0.718,0.312,0.460: // measure 1
1000
1010
1000
1001
,  // measure 2
0001
0101
0001
1001
,  // measure 3
0110
0110
0110
0110
,  // measure 4
0220
0000
0000
0330
,  // measure 5
1001
1000
1100
0100
,  // measure 6
0110
0010
0011
0001
,  // measure 7
1000
0000
0000
1001
0000
0000
0001
0000
0000
1000
0000
2002
,  // measure 8
0000
0000
0000
3003
0000
0000
1000
0000
0001
0100
0000
0001
,  // measure 9
2000
0000
0000
3000
0000
0000
0001
0000
1000
0100
0000
1000
,  // measure 10
0002
1003
1001
1000
,  // measure 11
1001
0000
0000
0001
0000
0000
1000
0100
1000
0100
1000
0100
,  // measure 12
1000
1100
1001
0001
,  // measure 13
0010
0000
0000
0011
0000
0000
1001
0000
0000
0100
0001
0100
,  // measure 14
0001
0000
0000
0010
0100
0010
0100
0000
0000
1000
0010
1000
,  // measure 15
0010
0000
0000
1000
0001
1000
0001
1000
0001
1000
0001
1000
,  // measure 16
0002
0000
0103
0000
,  // measure 17
0020
0000
0130
0000
,  // measure 18
0002
0000
1003
0000
,  // measure 19
0200
0000
1300
0000
,  // measure 20
0010
0000
0010
0100
,  // measure 21
0002
0000
1003
0000
,  // measure 22
0001
0100
0020
0000
,  // measure 23
2030
0000
3001
0000
,  // measure 24
0011
0011
1000
0001
,  // measure 25
1100
1100
0001
1000
,  // measure 26
0110
0001
1100
1100
,  // measure 27
0011
0011
1000
0001
,  // measure 28
0101
1001
0001
1000
,  // measure 29
1010
1001
0001
1000
,  // measure 30
1001
0000
0000
0001
0100
0001
0100
0000
0000
0010
1000
0010
,  // measure 31
1000
0000
0000
0001
1000
0001
1000
0001
1000
0001
1000
0001
,  // measure 32
2000
0001
0001
0001
,  // measure 33
0001
0001
0001
3001
,  // measure 34
1000
1000
0100
0100
,  // measure 35
0010
0010
0001
0001
,  // measure 36
0101
0100
0110
0010
,  // measure 37
1010
0000
0000
1000
0000
0000
1001
0000
0000
0001
0100
0001
,  // measure 38
0100
0000
0000
0010
0100
0010
0100
0000
0000
0001
1000
0001
,  // measure 39
1000
0000
0000
0100
1000
0100
1000
0000
0001
0100
0000
0001
,  // measure 40
0200
0000
0000
0010
0000
0000
0310
0000
1000
0100
0000
1000
,  // measure 41
0200
0010
0310
0110
,  // measure 42
0101
0000
0000
0000
0000
0000
0001
0000
1000
0200
0000
0000
,  // measure 43
0010
0000
0000
0310
0000
0000
0001
0000
1000
0010
0000
1000
,  // measure 44
0020
0000
0000
0100
0000
0000
0130
0000
0001
0010
0000
0001
,  // measure 45
0020
0100
0130
1000
,  // measure 46
0001
0000
0100
0001
0000
1000
0000
0000
0100
1000
0000
0000
,  // measure 47
1002
0100
1000
0103
,  // measure 48
0001
1001
1001
0000
,  // measure 49
0001
0000
1000
0000
0000
1001
0000
0000
0000
0010
0000
0000
,  // measure 50
0021
0000
0000
0001
0000
0000
0031
0000
0001
1000
0000
1000
,  // measure 51
0200
0000
0000
1000
0000
0000
1300
0000
1000
0001
0000
0001
,  // measure 52
0200
0000
0000
0001
0000
0000
0301
0000
0001
1000
0000
1000
,  // measure 53
0020
1000
1030
1010
,  // measure 54
1001
0000
0000
1000
0001
1000
0002
0000
0000
0103
0000
0000
,  // measure 55
1001
0000
0000
0001
1000
0001
2000
0000
0000
3100
0000
0000
,  // measure 56
1000
1100
0100
0110
,  // measure 57
0010
0000
0001
0100
0000
0002
0000
0000
0000
1003
0000
0000
,  // measure 58
1200
0000
0000
1000
0000
0000
1300
0000
1000
0001
0000
0001
,  // measure 59
0020
0000
0000
0001
0000
0000
0031
0000
0001
1000
0000
1000
,  // measure 60
0020
0000
0000
1000
0000
0000
1030
0000
1000
0001
0000
0001
,  // measure 61
0200
0001
0301
0101
,  // measure 62
1001
1000
0010
1010
,  // measure 63
1001
0001
1000
0000
,  // measure 64
0001
0011
0010
0110
,  // measure 65
1000
0000
0010
1000
0000
0001
0010
0001
0010
0001
1000
0001
,  // measure 66
1000
0000
0000
1010
,  // measure 67
0110
0000
0000
0101
,  // measure 68
0110
0000
1100
0000
,  // measure 69
0011
0000
0000
0000
0000
0000
1000
0001
1000
0001
1000
0001
,  // measure 70
1000
0000
0001
0100
0000
0020
0000
0000
1030
0100
0000
0020
,  // measure 71
0000
0000
0031
0100
0000
0010
0100
0010
0100
0010
0200
0000
,  // measure 72
0000
0000
0010
0310
,  // measure 73
1001
1000
0001
1000
,  // measure 74
0001
1000
0001
1000
,  // measure 75
0002
1000
1000
1003
,  // measure 76
0001
1000
0001
1000
0000
0000
0100
0010
0100
0010
0100
0010
,  // measure 77
0100
0110
0110
1001
,  // measure 78
2001
0100
0001
3100
,  // measure 79
1100
1001
1001
0110
,  // measure 80
0120
0000
0000
1000
0000
0000
0100
0000
0000
1030
0000
0001
,  // measure 81
1000
1001
1001
0011
,  // measure 82
0011
1100
1100
1001
,  // measure 83
1000
0000
0001
0100
0000
0000
0001
0000
1000
0100
0000
0000
,  // measure 84
0010
0000
0001
1000
0000
0001
1000
0001
1000
0001
0000
0000
,  // measure 85
0011
0011
1001
1001
,  // measure 86
1002
0010
0100
1003
,  // measure 87
1010
1010
1001
1001
,  // measure 88
2001
0000
0000
0100
0000
0000
0010
0000
0000
3001
0000
1000
,  // measure 89
0001
0000
0000
1001
0000
0000
0001
0000
1000
0100
0000
1000
,  // measure 90
0002
0000
0000
0103
0000
0000
0001
0000
0000
0001
0000
1000
,  // measure 91
0010
0000
1000
0010
0000
0100
0001
0000
0100
0001
0000
0000
,  // measure 92
0010
0100
0010
0100
0010
0100
1000
0001
1000
0001
1000
0001
,  // measure 93
1000
0000
0000
0000
;

//---------------dance-single - ----------------
#NOTES:
     dance-single:
     :
     Beginner:
     3:
     0.105,0.215,0.094,0.000,0.000: // measure 1
0000
0000
0000
0000
,  // measure 2
0000
0000
0000
0000
,  // measure 3
0000
0000
0000
0000
,  // measure 4
0000
0000
0000
0000
,  // measure 5
1000
0000
0000
0000
,  // measure 6
0001
0000
0000
0000
,  // measure 7
1000
0000
0000
0000
,  // measure 8
0000
0000
0001
0000
,  // measure 9
0000
0000
0001
0000
,  // measure 10
0000
0000
1000
0000
,  // measure 11
0000
0000
0000
0000
,  // measure 12
1001
0000
0000
0000
,  // measure 13
1000
0000
0000
0000
,  // measure 14
0001
0000
0000
0000
,  // measure 15
1000
0000
0000
0000
,  // measure 16
0010
0000
0000
0000
,  // measure 17
0000
0000
0000
0000
,  // measure 18
0000
0000
0000
0000
,  // measure 19
0000
0000
0000
0000
,  // measure 20
0010
0000
0000
0000
,  // measure 21
0000
0000
0000
0000
,  // measure 22
0000
0000
0000
0000
,  // measure 23
0000
0000
0000
0000
,  // measure 24
1000
0000
0000
0000
,  // measure 25
1000
0000
0000
0000
,  // measure 26
0001
0000
0000
0000
,  // measure 27
0001
0000
0000
0000
,  // measure 28
1000
0000
0000
0000
,  // measure 29
1000
0000
0000
0000
,  // measure 30
0001
0000
0000
0000
,  // measure 31
1000
0000
0000
0000
,  // measure 32
1001
0000
0000
0000
,  // measure 33
0000
0000
0000
0000
,  // measure 34
0000
0000
0000
0000
,  // measure 35
0000
0000
0000
0000
,  // measure 36
0001
0000
0000
0000
,  // measure 37
0100
0000
0000
0000
,  // measure 38
0100
0000
0000
0000
,  // measure 39
0100
0000
0000
0000
,  // measure 40
1001
0000
0000
0000
,  // measure 41
1000
0000
0000
0000
,  // measure 42
0001
0000
0000
0000
,  // measure 43
1000
0000
0000
0000
,  // measure 44
1000
0000
0000
0000
,  // measure 45
0100
0000
0000
0000
,  // measure 46
0100
0000
0000
0000
,  // measure 47
0000
0000
0000
0000
,  // measure 48
1001
0000
0000
0000
,  // measure 49
0000
0000
0000
0000
,  // measure 50
0001
0000
0000
0000
,  // measure 51
1000
0000
0000
0000
,  // measure 52
0001
0000
0000
0000
,  // measure 53
0010
0000
0000
0000
,  // measure 54
0100
0000
0000
0000
,  // measure 55
1000
0000
0000
0000
,  // measure 56
0010
0000
0000
0000
,  // measure 57
0110
0000
0000
0000
,  // measure 58
1001
0000
0000
0000
,  // measure 59
1000
0000
0000
0000
,  // measure 60
0001
0000
0000
0000
,  // measure 61
1000
0000
0000
0000
,  // measure 62
0100
0000
0000
0000
,  // measure 63
0010
0000
0000
0000
,  // measure 64
0001
0000
0000
0000
,  // measure 65
1000
0000
0000
0000
,  // measure 66
1001
0000
0000
0000
,  // measure 67
1001
0000
0000
0000
,  // measure 68
1001
0000
0000
0000
,  // measure 69
0000
0000
0000
0000
,  // measure 70
1000
0000
0000
0000
,  // measure 71
0001
0000
0000
0000
,  // measure 72
0000
0000
0000
0000
,  // measure 73
1001
0000
0000
0000
,  // measure 74
0000
0000
0000
0000
,  // measure 75
0000
0000
0000
0000
,  // measure 76
0000
0000
0000
0000
,  // measure 77
0001
0000
0001
0000
,  // measure 78
0001
0000
0000
0000
,  // measure 79
1000
0000
1000
0000
,  // measure 80
1000
0000
0000
0000
,  // measure 81
0001
0000
0001
0000
,  // measure 82
0001
0000
1000
0000
,  // measure 83
1000
0000
0000
0000
,  // measure 84
0000
0000
0000
0000
,  // measure 85
1001
0000
1000
0000
,  // measure 86
0100
0000
1000
0000
,  // measure 87
0001
0000
0001
0000
,  // measure 88
0010
0000
0001
0000
,  // measure 89
1000
0000
0001
0000
,  // measure 90
1000
0000
0001
0000
,  // measure 91
1000
0000
1000
0000
,  // measure 92
1001
0000
0000
0000
,  // measure 93
1000
0000
0000
0000
;
