#TITLE:Einherjar;
#SUBTITLE:;
#ARTIST:植松伸夫とわんにゃん☆パニックス;
#TITLETRANSLIT:;
#SUBTITLETRANSLIT:;
#ARTISTTRANSLIT:NOBUO UEMATSU TO WANNYAN PANICS;
#CREDIT:DigiMindAxel;
#BANNER:Einherjar.png;
#BACKGROUND:Einherjar-bg.png;
#LYRICSPATH:;
#CDTITLE:GuitarFreaksXG & DrumManiaXG.png;
#MUSIC:Einherjar.mp3;
#METERTYPE:DDR X;
#OFFSET:-7.514;
#SAMPLESTART:74.247;
#SAMPLELENGTH:12.000;
#SELECTABLE:YES;
#BPMS:0.000=230.000;
#STOPS:;
#BGCHANGES:-36.000=Einherjar.AVI=1.000=1=1=0,
99999=-nosongbg-=1.000=0=0=0 // don't automatically add -songbackground-
;

//---------------dance-single - ----------------
#NOTES:
     dance-single:
     :
     Easy:
     4:
     0.222,0.339,0.075,0.273,0.000:
2000
0000
0000
0000
,
3002
0000
0000
0000
,
2000
0000
0000
0000
,
0000
0000
0000
3003
,
0001
0000
0000
0000
,
0010
0000
0000
0000
,
0100
0000
0000
0000
,
1000
0000
0000
0000
,
0001
0000
0000
0000
,
1000
0000
0000
0000
,
0001
0000
0000
0000
,
1000
0000
0000
0000
,
0020
0000
0000
0000
,
0130
0000
0000
0000
,
0200
0000
0000
0000
,
0310
0000
0000
0000
,
2000
0000
0000
0000
,
3001
0000
0000
0000
,
0002
0000
0000
0000
,
1003
0000
0000
0000
,
0020
0000
0000
0000
,
0130
0000
0000
0000
,
0200
0000
0000
0000
,
0310
0000
0000
0000
,
2000
0000
0000
0000
,
3001
0000
0000
0000
,
0002
0000
0000
0000
,
1003
0000
0000
0000
,
0010
0000
0100
0000
,
0010
0000
0100
0000
,
0001
0000
1000
0000
,
0001
0000
0100
0000
,
0010
0000
1000
0000
,
0010
0000
1000
0000
,
0100
0000
0010
0000
,
0001
0000
2000
0000
,
3001
0000
0010
0000
,
0001
0000
0010
0000
,
0100
0000
1000
0000
,
0100
0000
0010
0000
,
0100
0000
0010
0000
,
0001
0000
1000
0000
,
0010
0000
0100
0000
,
0010
0000
1000
0000
,
0002
0000
0000
0000
,
0000
0000
0003
0000
,
1001
0000
0000
0000
,
1000
0000
1001
0000
,
2000
0000
0000
0000
,
3200
0000
0000
0000
,
0320
0000
0000
0000
,
0032
0000
0000
0000
,
2003
0000
0000
0000
,
3002
0000
0000
0000
,
2003
0000
0000
0000
,
3002
0000
0000
0000
,
0103
0000
0000
0010
0000
0000
0100
0000
,
0000
0000
0000
0000
,
0001
0000
0000
1000
0000
0000
0001
0000
,
0000
0000
0000
0000
,
2000
0000
0000
0000
,
0000
0000
0000
0000
,
3002
0000
0000
0000
,
1003
0000
0000
0000
,
1001
0000
0010
0000
,
0100
0000
1000
0000
,
0001
1000
0001
0000
,
1000
0000
0100
0000
,
0010
0000
0001
0000
,
0100
0000
0010
0000
,
1000
0001
1000
0000
,
2002
0000
3003
0000
,
0001
1000
0001
0000
,
0100
0000
0010
0000
,
1000
0000
0100
0000
,
0010
0000
0001
0000
,
1000
0001
1000
0000
,
0001
0000
1000
0000
,
0200
0000
0000
0000
,
0020
0000
0000
0330
,
0110
0000
0000
0000
,
0000
0000
0000
0000
,
1001
0000
0000
0000
,
1000
0100
0010
0001
,
1000
0000
0000
0000
,
0000
0000
0000
0000
,
1001
0000
0000
0000
,
0001
0010
0100
1000
,
0001
0000
0000
0000
0000
1000
0000
0000
,
2002
0000
0000
0000
,
3003
0000
0000
0000
;

//---------------dance-single - ----------------
#NOTES:
     dance-single:
     :
     Medium:
     8:
     0.409,0.509,0.047,0.094,0.000:
0001
1000
0001
1000
,
0010
0100
0010
0100
,
0002
0000
0000
0000
,
0000
0000
0000
1003
,
0010
0000
0000
0010
0000
0000
0000
0000
,
0100
0000
0000
0100
0000
0000
0000
0000
,
0010
0000
0000
0010
0000
0000
0000
0000
,
0100
0000
0000
0100
0000
0000
0000
0000
,
0001
0000
0000
0001
0000
0000
0000
0000
,
1000
0000
0000
1000
0000
0000
0000
0000
,
0001
0000
0000
0001
0000
0000
0000
0000
,
1000
0000
0000
1000
0000
0000
0000
0000
,
0010
0100
0010
1000
,
0002
0000
0000
1003
0000
0000
0000
0000
,
0010
0000
0000
0100
0000
0000
0001
0000
,
1000
0100
0010
0001
,
0100
0000
0000
0100
0000
0000
0001
0000
,
1000
0100
0010
0001
,
1000
0000
0000
1000
0000
0000
0001
0000
,
1000
0000
0000
1000
0000
0000
0001
0000
,
0100
0010
0100
0001
,
1000
0000
0000
1000
0000
0000
0010
0000
,
0100
0000
0000
0001
0000
0000
1000
0000
,
0001
0010
0100
1000
,
0001
0000
0000
0100
0000
0000
0001
0000
,
1000
0100
0010
0001
,
1000
0000
0000
0010
0000
0000
2000
0000
,
0002
0000
0000
3003
,
0100
0001
0100
0000
,
0010
1000
0010
0000
,
1000
0100
0010
0000
,
0001
0010
0100
1000
,
0010
0100
0010
0000
,
1000
0010
0100
0001
,
1000
0100
0010
1001
,
0000
0110
0000
0000
,
0001
0100
0001
0000
,
1000
0100
1000
0000
,
0010
0100
0010
1000
,
0100
0010
0001
0100
,
0010
1000
0100
0000
,
0010
0100
0010
0001
,
0010
0100
1000
0000
,
0010
0100
0010
1000
,
0001
0000
0000
0001
0000
0000
0001
0000
,
0000
0001
0000
0000
0001
0000
0000
0000
,
0001
1000
0001
1000
0000
0000
0000
0001
,
1000
0000
0000
0010
0100
0000
0000
0000
,
0001
0000
0000
0010
0000
0000
0001
0000
,
0000
0010
0000
0000
0001
0000
0000
0000
,
1000
0000
0000
0100
0000
0000
1000
0000
,
0000
0100
0000
0000
1000
0000
0000
0000
,
0010
0000
0000
0100
0000
0000
0010
0000
,
0000
0100
0000
0000
0010
0000
0000
0000
,
1000
0000
0000
0001
0000
0000
1000
0000
,
0000
0001
0000
0000
1000
0000
0000
0000
,
0010
0000
0100
0010
0000
0100
0010
0000
,
1000
0100
0010
0001
,
0100
0000
0010
0100
0000
0010
0100
0000
,
0001
0010
0100
1000
,
0002
0000
0000
0000
,
0000
0000
0000
0000
,
1003
0000
0000
0001
0000
0000
1000
0000
,
1001
0000
0000
0001
0000
0000
1000
0000
,
0001
0000
0100
0001
0100
0000
0001
0000
,
1000
0000
0010
1000
0010
0000
1000
0000
,
0001
0100
1000
0100
,
0001
0010
1000
0010
,
0001
0000
1000
0100
1000
0000
0001
0000
,
1000
0000
0001
0010
0001
0000
1000
0000
,
0001
0010
1000
0010
,
0001
1000
0000
0000
0010
0000
0010
0000
,
1001
0000
0100
1000
0100
0000
1000
0000
,
0001
0000
0010
0001
0010
0000
0001
0000
,
1000
0100
0001
0100
,
1000
0010
0001
0010
,
1000
0000
0001
0100
0001
0000
1000
0000
,
0001
0000
0100
0001
0100
0000
0001
0000
,
2000
0000
3200
0000
,
0320
0000
0032
0000
,
1003
0000
0000
0100
0000
0000
1000
0000
,
0001
0000
0000
0010
0000
0000
0001
0000
,
1000
0001
0000
0000
0000
0000
0000
0000
,
1001
0010
0100
1000
,
0001
0000
0000
0100
0000
0000
0001
0000
,
1000
0000
0000
0010
0000
0000
1000
0000
,
0001
0000
0000
1000
0000
0000
0001
0000
,
1000
0100
0010
0001
,
1000
0001
1000
0001
0000
0100
0010
0100
,
0020
0000
0000
0000
,
0030
0000
0000
0000
;

//---------------dance-single - ----------------
#NOTES:
     dance-single:
     :
     Hard:
     12:
     0.625,0.678,0.207,0.349,0.038: // measure 1
1100
0010
0001
1000
,  // measure 2
0011
0100
1000
0001
,  // measure 3
0200
0000
0000
0000
,  // measure 4
0000
0000
0000
0310
,  // measure 5
2000
0000
0000
0100
0000
0000
3000
0000
,  // measure 6
0020
0000
0000
0100
0000
0000
0130
0000
,  // measure 7
0200
0000
0000
0001
0000
0000
0300
0000
,  // measure 8
0002
0000
0000
1000
0000
0000
1003
0000
,  // measure 9
0020
0000
0000
0001
0000
0000
0030
0000
,  // measure 10
0200
0000
0000
1000
0000
0000
1300
0000
,  // measure 11
2000
0000
0000
0001
0000
0000
3000
0000
,  // measure 12
0002
0000
0000
0100
0000
0000
0103
0000
,  // measure 13
0010
1000
0010
2000
0000
0000
3001
0000
,  // measure 14
0200
0000
0000
0010
0000
0000
0310
0000
,  // measure 15
2000
0000
0000
3002
0000
0000
1003
0000
,  // measure 16
0001
0010
0100
1000
,  // measure 17
0020
0000
0000
0230
0000
0000
0301
0000
,  // measure 18
1000
0100
0010
0001
,  // measure 19
0110
0000
0000
0110
0000
0000
0100
0000
,  // measure 20
1001
0000
0000
1001
0000
0000
0001
0000
,  // measure 21
0100
0001
0100
0002
0000
0000
1003
0000
,  // measure 22
0020
0000
0000
0100
0000
0000
0130
0000
,  // measure 23
0002
0000
0000
1000
0000
0000
1003
0000
,  // measure 24
0100
0010
0001
1000
,  // measure 25
0020
0000
0000
1000
0000
0000
1030
0000
,  // measure 26
0001
0010
0100
1000
,  // measure 27
0110
0000
0000
0110
0000
0000
0001
0000
,  // measure 28
1001
0000
1000
0001
1000
0001
1000
0000
,  // measure 29
0001
0000
0100
0001
1000
0000
0100
1000
,  // measure 30
0200
0000
0010
0000
0310
0000
0001
1000
,  // measure 31
0001
0200
0010
0301
,  // measure 32
1000
0020
0100
1030
,  // measure 33
0001
0000
0100
0010
0100
0000
0001
0000
,  // measure 34
1000
0000
0100
1000
0001
0000
0010
0001
,  // measure 35
0100
0000
0010
0100
0010
0000
1001
0000
,  // measure 36
0000
2002
0000
3003
,  // measure 37
1001
0000
0100
0001
1000
0000
0100
1000
,  // measure 38
0200
0010
0310
0001
,  // measure 39
0200
0010
0301
0020
,  // measure 40
0100
1030
0001
0100
,  // measure 41
0010
0000
1000
0010
0000
1000
0010
0000
,  // measure 42
0100
0001
0000
0100
0002
0000
1000
0000
,  // measure 43
1003
0000
0010
0100
0000
0010
0100
0000
,  // measure 44
0001
1000
0000
0000
0010
0100
0010
0100
,  // measure 45
0010
0000
0000
0010
0000
0000
0010
0000
,  // measure 46
0000
0010
0000
0000
0010
0000
1010
0000
,  // measure 47
1000
0010
0100
0001
0000
0000
0000
0100
,  // measure 48
0010
0100
0000
0001
1000
0001
0000
0000
,  // measure 49
1000
0000
0100
1000
0000
0100
1000
0000
,  // measure 50
0010
0100
0000
0010
0100
0000
0001
0000
,  // measure 51
1000
0000
0100
1000
0000
0100
1000
0000
,  // measure 52
0010
0100
0000
0010
0100
0000
0001
0000
,  // measure 53
1000
0000
0001
0100
0000
0001
0100
0000
,  // measure 54
0010
0100
0000
0010
0100
0000
0001
0000
,  // measure 55
1000
0000
0001
0100
0000
0001
0100
0000
,  // measure 56
0010
0100
0000
0010
0100
0000
0001
0000
,  // measure 57
1001
0000
0100
1000
0000
0001
0100
0000
,  // measure 58
0001
0100
0001
0100
0020
0000
1000
0000
,  // measure 59
1030
0000
0001
0100
0000
0010
0100
0000
,  // measure 60
0001
0010
0100
1000
0010
0000
0010
0000
,  // measure 61
0220
0000
0000
0000
,  // measure 62
0000
0000
0330
0000
0000
1000
0001
0000
,  // measure 63
0100
0001
0100
0001
0100
0001
1000
0100
,  // measure 64
1000
0000
0000
1100
0000
0000
1001
0000
,  // measure 65
0010
0000
0010
1000
0100
0010
0001
1000
,  // measure 66
0100
0000
1000
0001
0010
0100
1000
0001
,  // measure 67
0010
0000
0001
1000
0100
0010
0001
1000
,  // measure 68
0100
1000
0001
0010
0100
1000
0001
0000
,  // measure 69
0010
0000
0001
0010
0001
0100
0010
1000
,  // measure 70
0100
0000
1000
0100
1000
0010
0100
0001
,  // measure 71
0010
0000
0001
0010
0001
0100
0010
1000
,  // measure 72
0100
0010
0000
0001
1000
0000
1000
0000
,  // measure 73
1001
0000
0010
0001
0010
0100
0010
0001
,  // measure 74
1000
0000
0100
1000
0100
0010
0100
1000
,  // measure 75
0001
0000
0010
0001
0100
0010
0100
0001
,  // measure 76
0010
0000
0100
1000
0010
0100
0010
1000
,  // measure 77
0100
0010
0001
1000
0010
1000
0001
0000
,  // measure 78
0010
0100
1000
0001
0100
0001
1000
0000
,  // measure 79
0100
0000
1000
0000
0100
0000
1000
0000
0100
0000
0010
0000
,  // measure 80
0100
0000
0010
0000
0001
0000
0010
0000
0001
0000
1000
0000
,  // measure 81
0002
0000
0000
0100
0000
0000
0103
0000
,  // measure 82
0020
0000
0000
1000
0000
0000
1030
0000
,  // measure 83
0001
0200
0000
0001
0000
0000
0301
0000
,  // measure 84
1001
1001
0110
0110
,  // measure 85
2000
0000
0000
0010
0000
0000
3010
0000
,  // measure 86
0200
0000
0000
0001
0000
0000
0301
0000
,  // measure 87
1000
0000
0010
0100
0000
0010
0100
0000
,  // measure 88
0001
0010
0001
1000
0100
1000
0001
1000
,  // measure 89
0001
0100
0010
1000
0000
0100
0010
0001
,  // measure 90
2000
0000
0000
0000
,  // measure 91
3000
0000
0000
0000
;

//---------------dance-single - ----------------
#NOTES:
     dance-single:
     :
     Challenge:
     13:
     0.743,0.721,0.367,0.367,0.038: // measure 1
0101
0000
0001
0010
0100
1000
0001
0000
,  // measure 2
1001
1000
1100
0100
,  // measure 3
2002
0000
0000
0000
,  // measure 4
0000
0000
3000
1003
,  // measure 5
0020
0000
0000
0100
0000
0000
1030
0000
,  // measure 6
0002
0000
0000
0010
0000
0000
0103
0000
,  // measure 7
1001
0000
0000
0110
0000
0000
1000
0000
,  // measure 8
0002
0000
0000
1000
0000
0000
1003
0000
,  // measure 9
0200
0000
0000
0010
0000
0000
0301
0000
,  // measure 10
2000
0000
0000
0100
0000
0000
3010
0000
,  // measure 11
1001
0000
0000
0110
0000
0000
0001
0000
,  // measure 12
1001
0000
0000
1001
0000
0001
1000
0000
,  // measure 13
0001
0010
0001
2000
0000
3100
1000
0100
,  // measure 14
0010
0000
0000
0101
0000
0000
0100
0000
,  // measure 15
0002
0000
0000
0203
0000
0000
0310
0000
,  // measure 16
2000
3200
0320
0032
,  // measure 17
0203
0000
0000
0320
0000
0000
1030
0000
,  // measure 18
1002
0023
0230
2300
,  // measure 19
3010
0000
0000
1010
0000
0000
0010
0000
,  // measure 20
0011
0000
0000
1001
0000
1000
0001
0000
,  // measure 21
1000
0100
1000
0002
0000
0013
0001
0010
,  // measure 22
0100
0000
0000
1010
0000
0000
0010
0000
,  // measure 23
2000
0000
0000
3020
0000
0000
1030
0000
,  // measure 24
0002
0023
0230
2300
,  // measure 25
3001
0000
0000
0101
0000
0000
0100
0000
,  // measure 26
2001
3200
0320
0032
,  // measure 27
0103
0000
0000
0101
0000
0000
0100
0000
,  // measure 28
1001
0000
0001
0100
0001
0100
0001
1000
,  // measure 29
0001
0010
0100
1000
0100
0010
0001
1000
,  // measure 30
0020
0000
0000
2030
0000
0000
3010
1000
,  // measure 31
0001
0000
0010
0001
0010
0000
0100
0010
,  // measure 32
0100
0000
0010
0001
0010
0000
0001
1000
,  // measure 33
0010
0000
1000
0001
1000
0000
0010
0100
,  // measure 34
0010
0000
1000
0010
0100
0001
0100
0010
,  // measure 35
1000
0000
0010
0100
0010
0000
0110
0000
,  // measure 36
0000
0000
1001
0000
1000
0001
1000
0001
,  // measure 37
1000
0100
0010
0100
1000
0001
0100
0001
,  // measure 38
2000
0000
0000
3002
0000
0000
1003
0001
,  // measure 39
0100
0000
0010
0100
0010
0000
1000
0001
,  // measure 40
1000
0000
0001
1000
0100
0000
0010
0001
,  // measure 41
1000
0000
1000
0001
0000
0001
0010
0000
,  // measure 42
0010
0100
0000
0100
1000
0001
0100
0001
,  // measure 43
1000
0000
0010
0100
0000
0100
0001
0000
,  // measure 44
0001
1000
0000
1000
0010
1000
0100
0010
,  // measure 45
0001
0000
0000
0001
0000
0000
1000
0000
,  // measure 46
0000
1000
0000
0000
0001
1000
0001
0000
,  // measure 47
0010
0100
1000
0001
0000
0000
0000
0001
,  // measure 48
1000
0010
0000
0010
0100
0001
0000
0000
,  // measure 49
1001
0000
0001
0100
0000
0100
0010
0000
,  // measure 50
0010
1000
0000
1000
0001
0010
0100
0000
,  // measure 51
1001
0000
1000
0010
0000
0010
0100
0000
,  // measure 52
0100
0001
0000
0001
1000
0100
0010
0000
,  // measure 53
1001
0000
1000
0100
0000
0100
0010
0000
,  // measure 54
0010
0001
0000
0001
1000
0010
0100
0000
,  // measure 55
1001
0000
0001
0010
0000
0010
0100
0000
,  // measure 56
0100
1000
0000
1000
0001
0100
0010
0000
,  // measure 57
0101
0000
0001
0100
0000
0100
0010
1000
,  // measure 58
0100
0010
0001
0010
0100
0000
0110
0000
,  // measure 59
1010
0000
1000
0010
0000
0010
0100
0001
,  // measure 60
0010
0100
1000
0100
0010
0001
0100
0001
,  // measure 61
0020
0000
0000
0000
,  // measure 62
0000
0000
0000
0000
0031
1000
0001
0000
,  // measure 63
1000
0010
1000
0001
0010
0001
1000
0100
,  // measure 64
0010
0100
0000
1000
0001
0000
1001
0000
,  // measure 65
2000
0000
3001
0010
0100
0010
0001
1000
,  // measure 66
0010
1000
0001
0010
0100
0010
0001
0100
,  // measure 67
1000
0100
0001
0100
0010
0100
0001
0010
,  // measure 68
0100
1000
0001
0100
0010
0100
0002
0000
,  // measure 69
1003
0001
0010
0100
1000
0100
0001
0100
,  // measure 70
1000
0100
0010
0001
0100
1000
0100
0001
,  // measure 71
0100
1000
0010
0100
0001
0010
0100
1000
,  // measure 72
0010
0100
0000
0001
1000
0000
0001
0000
,  // measure 73
1001
0000
0100
1000
0100
0001
0100
1000
,  // measure 74
0001
0010
0100
0010
0001
1000
0010
0100
,  // measure 75
0001
0010
0100
1000
0001
0010
0100
0010
,  // measure 76
0001
1000
0010
0100
0001
0010
0100
0000
,  // measure 77
1000
0100
0010
0001
0100
1000
0100
0010
,  // measure 78
1000
0100
0001
0100
0010
0001
0010
0100
,  // measure 79
1000
0000
0010
0000
0100
0000
0001
0000
0100
0000
0010
0000
,  // measure 80
1001
0000
0001
0000
0100
0000
0110
0000
0010
0000
1000
0000
,  // measure 81
1001
0000
1000
0001
0000
0010
0001
0000
,  // measure 82
0010
0001
1000
0010
0000
1000
0010
0000
,  // measure 83
0100
0001
1000
0100
0000
1000
0001
0000
,  // measure 84
0101
0101
1100
1100
,  // measure 85
1001
0000
0001
1000
0000
0100
1000
0000
,  // measure 86
0100
1000
0001
0100
0000
0001
0100
0000
,  // measure 87
0010
0100
0010
0100
0001
1000
0001
1000
,  // measure 88
0001
0010
1000
0010
0001
1000
0100
0001
,  // measure 89
0100
1000
0010
0100
0000
0100
0001
0010
,  // measure 90
0200
0000
0000
0000
,  // measure 91
0300
0000
0000
0000
;

//---------------dance-single - ----------------
#NOTES:
     dance-single:
     :
     Beginner:
     2:
     0.085,0.168,0.047,0.000,0.000:
1000
0000
0000
0000
,
1000
0000
0000
0000
,
1000
0000
0000
0000
,
0000
0000
0000
0000
,
0001
0000
0000
0000
,
0000
0000
0000
0000
,
0001
0000
0000
0000
,
0000
0000
0000
0000
,
0001
0000
0000
0000
,
0000
0000
0000
0000
,
0001
0000
0000
0000
,
0000
0000
0000
0000
,
1000
0000
0000
0000
,
0000
0000
0000
0000
,
0001
0000
0000
0000
,
0000
0000
0000
0000
,
1000
0000
0000
0000
,
0000
0000
0000
0000
,
0010
0000
0000
0000
,
0100
0000
0000
0000
,
0010
0000
0000
0000
,
0000
0000
0000
0000
,
0010
0000
0000
0000
,
0000
0000
0000
0000
,
0010
0000
0000
0000
,
0000
0000
0000
0000
,
0010
0000
0000
0000
,
0000
0000
0000
0000
,
1000
0000
0000
0000
,
0001
0000
0000
0000
,
1000
0000
0000
0000
,
0000
0000
0000
0000
,
0001
0000
0000
0000
,
0000
0000
0000
0000
,
1000
0000
0000
0000
,
0000
0000
0000
0000
,
0010
0000
0000
0000
,
0100
0000
0000
0000
,
0010
0000
0000
0000
,
0000
0000
0000
0000
,
0010
0000
0000
0000
,
0000
0000
0000
0000
,
0010
0000
0000
0000
,
0000
0000
0000
0000
,
1000
0000
0000
0000
,
0000
0000
0000
0000
,
1001
0000
0000
0000
,
0000
0000
0000
0000
,
1001
0000
0000
0000
,
0000
0000
0000
0000
,
0010
0000
0000
0000
,
0000
0000
0000
0000
,
0100
0000
0000
0000
,
0000
0000
0000
0000
,
1000
0000
0000
0000
,
0000
0000
0000
0000
,
0001
0000
0000
0000
,
0000
0000
0000
0000
,
1000
0000
0000
0000
,
0000
0000
0000
0000
,
0001
0000
0000
0000
,
0000
0000
0000
0000
,
0001
0000
0000
0000
,
0000
0000
0000
0000
,
1001
0000
0000
0000
,
0100
0000
0000
0000
,
0010
0000
0000
0000
,
0001
0000
0000
0000
,
1000
0000
0000
0000
,
0001
0000
0000
0000
,
1000
0000
0000
0000
,
0001
0000
0000
0000
,
0100
0000
0000
0000
,
0010
0000
0000
0000
,
0100
0000
0000
0000
,
0010
0000
0000
0000
,
1000
0000
0000
0000
,
0001
0000
0000
0000
,
1000
0000
0000
0000
,
0000
0000
0000
0000
,
1001
0000
0000
0000
,
0000
0000
0000
0000
,
0001
0000
0000
0000
,
0000
0000
0000
0000
,
1001
0000
0000
0000
,
0000
0000
0000
0000
,
1000
0000
0000
0000
,
0010
0000
0000
0000
,
0100
0000
0000
0000
,
0001
0000
0000
0000
;
