#TITLE:Echoes;
#SUBTITLE:;
#ARTIST:猫叉Master;
#TITLETRANSLIT:;
#SUBTITLETRANSLIT:;
#ARTISTTRANSLIT:Nekomata Master;
#GENRE:;
#CREDIT:DigiMindAxel;
#BANNER:Echoes.png;
#BACKGROUND:Echoes-bg.png;
#LYRICSPATH:;
#CDTITLE:pop'n music.png;
#MUSIC:Echoes.mp3;
#METERTYPE:DDR X;
#OFFSET:-13.205;
#SAMPLESTART:80.967;
#SAMPLELENGTH:12.000;
#SELECTABLE:YES;
#BPMS:0.000=75.250
,32.000=150.500
,104.000=75.250
,120.000=150.500
,186.000=75.250
;
#STOPS:
;
#BGCHANGES:;
#KEYSOUNDS:;
#ATTACKS:;

//---------------dance-single - ----------------
#NOTES:
     dance-single:
     :
     Easy:
     5:
     0.230,0.240,0.024,0.160,0.000,178.000,3.000,20.000,0.000,0.000,0.000,0.230,0.240,0.024,0.160,0.000,178.000,3.000,20.000,0.000,0.000,0.000: // measure 0
0002
0000
0023
0000
,  // measure 1
0032
0000
2003
0000
,  // measure 2
3020
0000
0230
0000
,  // measure 3
0320
0000
2030
0000
,  // measure 4
3001
0000
1000
0001
1000
0000
0100
1000
,  // measure 5
0100
0000
1000
0001
1000
0000
0001
0010
,  // measure 6
0001
0000
0100
0010
0100
0000
0010
0100
,  // measure 7
0010
0000
1000
0001
2000
0000
0000
0000
,  // measure 8
3001
0100
0010
0100
,  // measure 9
0001
0100
0010
0100
,  // measure 10
0001
1000
0001
1000
,  // measure 11
0001
1000
0100
0000
,  // measure 12
1000
0010
0100
0010
,  // measure 13
1000
0010
0100
0010
,  // measure 14
1000
0001
1000
0001
,  // measure 15
1000
0001
0100
0000
,  // measure 16
0010
0100
0020
0000
,  // measure 17
0230
0000
0302
0000
,  // measure 18
2003
0000
0000
3100
,  // measure 19
1000
0100
1000
0000
,  // measure 20
0002
0000
0203
0000
,  // measure 21
0320
0000
2030
0000
,  // measure 22
3001
0010
0001
0010
,  // measure 23
0001
0000
1000
0000
,  // measure 24
0010
0000
0010
0100
,  // measure 25
0010
1000
0001
0000
,  // measure 26
1001
0100
1000
0100
,  // measure 27
1000
0100
1000
0001
,  // measure 28
0010
0001
0010
0001
,  // measure 29
2000
3002
2003
3001
,  // measure 30
0000
0000
0100
0010
,  // measure 31
0100
0010
0100
0010
,  // measure 32
0100
0001
1000
0100
,  // measure 33
1000
0100
1000
0100
,  // measure 34
1000
0001
0100
0001
,  // measure 35
0100
0001
0100
0001
,  // measure 36
1000
0001
1000
0100
,  // measure 37
1000
0100
1000
1000
,  // measure 38
0001
0001
0100
0010
,  // measure 39
0100
0010
0100
0001
,  // measure 40
0100
0001
1000
0010
,  // measure 41
1000
0010
1000
0001
,  // measure 42
1000
0001
0100
0010
,  // measure 43
0100
0010
1000
0100
,  // measure 44
1000
0100
0010
0001
,  // measure 45
0010
0001
1000
1000
,  // measure 46
0001
0001
0110
0100
,  // measure 47
0010
0100
0100
0100
,  // measure 48
0010
0010
0110
0000
,  // measure 49
1000
0000
0001
0000
,  // measure 50
0100
0000
0000
0000
;

//---------------dance-single - ----------------
#NOTES:
     dance-single:
     :
     Medium:
     7:
     0.324,0.344,0.080,0.232,0.000,244.000,10.000,29.000,0.000,0.000,0.000,0.324,0.344,0.080,0.232,0.000,244.000,10.000,29.000,0.000,0.000,0.000: // measure 0
1001
0000
0000
0000
0100
0100
0000
0000
,  // measure 1
0010
0010
0000
0000
0100
0100
0000
0000
,  // measure 2
0110
0000
0000
0000
0001
0001
0000
0000
,  // measure 3
1000
1000
0000
0000
0001
0001
0000
0000
,  // measure 4
2000
0000
3100
1000
0020
0000
0130
0001
,  // measure 5
0020
0000
0031
1000
0200
0000
1300
0010
,  // measure 6
0200
0000
0301
0010
0200
0000
1300
0100
,  // measure 7
0020
0000
0031
1000
0020
0000
0000
0130
,  // measure 8
0001
0010
0001
0000
0010
0001
0010
0000
,  // measure 9
0001
0010
0001
0000
0010
0001
1000
0000
,  // measure 10
0010
1000
0010
0000
1000
0010
1000
0000
,  // measure 11
0010
1000
0010
0000
1000
0001
0010
0000
,  // measure 12
0001
1000
0001
0000
1000
0001
1000
0000
,  // measure 13
0100
1000
0100
0000
1000
0001
1000
0000
,  // measure 14
0001
0100
0001
0000
1000
0001
1000
0000
,  // measure 15
0001
0100
0001
0000
1000
0100
0010
0000
,  // measure 16
0002
0203
0302
0000
,  // measure 17
2003
0000
0000
0000
3001
0010
0000
0100
,  // measure 18
2000
0000
0000
0000
0000
3010
0100
0001
,  // measure 19
0100
0010
1000
0001
1000
0000
1001
0000
,  // measure 20
2000
3002
0203
0000
,  // measure 21
0302
0000
0000
0000
1003
0100
0000
0010
,  // measure 22
0002
0000
0000
0000
0000
0103
0010
0100
,  // measure 23
0001
0010
0100
1000
0001
0000
1000
0000
,  // measure 24
1001
0001
1000
0001
,  // measure 25
1000
0100
0010
0000
,  // measure 26
1001
0000
0100
0010
0100
0000
2000
3200
,  // measure 27
1300
0000
0010
0100
0010
0000
2000
3002
,  // measure 28
1003
0000
0001
0010
0002
0000
0103
0010
,  // measure 29
0210
0320
0130
0100
,  // measure 30
0000
0000
0010
0100
,  // measure 31
0001
0100
0001
0000
1000
0000
0100
0000
,  // measure 32
0010
0100
0010
0000
0001
0000
1000
0000
,  // measure 33
0010
0100
0010
0000
0001
1000
0001
0000
,  // measure 34
0100
0010
0100
0000
1001
0000
0100
1000
,  // measure 35
0100
1000
0010
0100
,  // measure 36
0001
1000
0001
0000
0010
0000
0001
0000
,  // measure 37
0100
0001
0100
0010
,  // measure 38
1000
0000
0100
0000
1000
0001
1000
0000
,  // measure 39
0100
0000
0010
0000
0001
0100
0001
0000
,  // measure 40
0010
0000
0100
0000
1000
0010
1000
0000
,  // measure 41
0100
0000
0010
0000
0001
1000
0001
0000
,  // measure 42
1000
0001
1000
0000
1001
0000
0100
1000
,  // measure 43
0100
0000
0010
0000
0001
1000
0001
0000
,  // measure 44
0010
0000
0001
0000
0100
0010
0100
0000
,  // measure 45
0010
0100
0010
0000
1000
0000
0100
0000
,  // measure 46
0010
0000
0001
0000
1001
1000
1000
0000
,  // measure 47
0001
0001
0001
0000
1000
1000
1000
0000
,  // measure 48
0001
0001
0001
0000
0210
0000
0000
0000
,  // measure 49
0320
0000
0230
0000
,  // measure 50
0320
0000
0030
0000
;

//---------------dance-single - ----------------
#NOTES:
     dance-single:
     :
     Hard:
     11:
     0.492,0.526,0.248,0.433,0.280,345.000,31.000,54.000,0.000,0.000,0.000,0.492,0.526,0.248,0.433,0.280,345.000,31.000,54.000,0.000,0.000,0.000: // measure 0
2001
0000
3020
0230
0000
0302
0023
0230
,  // measure 1
0000
0320
0032
2003
3020
0230
0302
1003
,  // measure 2
0110
0200
0320
0032
2003
3002
0023
0230
,  // measure 3
2300
0000
0000
0000
0000
0000
0000
0000
0000
0000
0000
0000
0000
0000
0000
0000
0000
0000
0000
0000
0000
0000
0000
0000
3001
0000
0000
1000
0001
0000
0001
0000
,  // measure 4
0100
0010
0100
0000
0110
0000
0010
0000
0100
1000
0100
0000
1100
0000
0100
0000
,  // measure 5
1000
0001
1000
0000
1001
0000
0001
0000
0100
0001
0100
0000
0101
0000
0001
0000
,  // measure 6
0010
0100
0010
0000
0110
0000
0100
0000
0010
0001
0010
0000
0011
0000
0001
0000
,  // measure 7
1000
0001
1000
0000
0001
1000
0100
0000
2002
0000
0000
0000
3000
0000
0103
0000
,  // measure 8
0001
0010
0100
0010
0001
0000
0001
1000
,  // measure 9
0100
0000
0100
1000
0001
0100
1000
0100
,  // measure 10
0001
1000
0010
1000
0001
0100
0020
1000
,  // measure 11
0000
1000
0000
1030
0001
0010
0100
1000
,  // measure 12
1001
0000
1000
0010
0100
0000
0100
0001
,  // measure 13
1000
0000
1000
0100
0001
0000
0001
0100
,  // measure 14
1000
0000
0100
0000
0010
1000
1000
0001
,  // measure 15
0010
0100
1000
0001
0001
1000
0001
0000
,  // measure 16
0101
0000
0000
0000
0110
0000
0000
0000
0202
0000
0000
0000
0303
0000
1000
0001
,  // measure 17
2000
0000
0000
0000
0000
0000
3001
0100
0002
0000
1000
0000
0000
0000
1003
0000
,  // measure 18
0001
0010
0100
1000
0000
1000
0001
0100
,  // measure 19
1000
0100
0001
1000
0001
0100
0100
0000
,  // measure 20
1100
0000
0000
0000
0110
0000
0000
0000
2200
0000
0000
0000
3300
0000
0001
1000
,  // measure 21
0002
0000
0000
0000
0000
0000
1003
0100
2000
0000
0001
0000
0000
0000
3001
0000
,  // measure 22
1000
0100
0010
0001
0000
0001
1000
0010
,  // measure 23
0001
0010
1000
0001
0000
0001
0001
1000
,  // measure 24
1000
0010
0100
0001
0000
0001
1000
0100
,  // measure 25
0001
0000
0100
0000
1000
0000
0001
0000
1000
0100
1000
0100
1000
0000
0000
0000
,  // measure 26
1001
0000
0000
0000
0000
0000
0000
0000
0000
0000
0000
0000
0000
0000
0000
0000
0000
0000
0000
0000
0000
0000
0000
0000
0000
0000
0000
0000
0000
0000
0000
0000
0000
0000
0000
0000
0000
0000
0000
0000
0000
0000
0000
0000
0000
0000
0000
0000
0001
0000
0000
0000
0000
0000
0000
0000
0000
0000
0000
0000
0000
0000
0000
0000
0001
0000
0000
0000
0000
0000
0000
0000
0000
0000
0000
0000
0000
0000
0000
0000
0010
0000
0000
0000
0000
0000
0000
0000
0000
0000
0000
0000
0000
0000
0000
0000
0100
0000
0000
0000
0000
0000
0000
0000
0000
0000
0000
0000
0000
0000
0000
0000
0000
0000
0000
0000
0000
0000
0000
0000
0000
0000
0000
0000
0000
0000
0000
0000
0000
0000
0000
0000
1000
0000
0000
0000
0000
0000
0001
0000
0000
0000
0000
0000
1000
0000
0000
0000
0000
0000
0000
0000
0000
0000
0000
0000
0000
0000
0000
0000
0000
0000
0000
0000
0000
0000
0000
0000
0001
0000
0000
0000
0000
0000
0000
0000
0000
0000
0000
0000
0000
0000
0000
0000
0000
0000
0000
0000
0000
0000
0000
0000
,  // measure 27
0101
0000
0000
0000
0000
0000
0000
0000
0000
0000
0000
0000
1000
0000
0000
0000
1000
0000
0000
0000
0010
0000
0000
0000
0100
0000
0000
0000
0000
0000
0000
0000
0000
0001
0000
0000
0010
0000
0000
0100
0000
0000
1000
0000
0000
0000
0000
0000
,  // measure 28
1100
0000
0000
0000
0000
0000
0000
0000
0000
0000
0000
0000
0000
0000
0000
0000
0000
0000
0000
0000
0000
0000
0000
0000
0000
0000
0000
0000
0000
0000
0000
0000
0000
0000
0000
0000
1000
0000
0000
0000
0000
0000
0001
0000
0000
0000
0000
0000
1000
0000
0000
0000
0000
0000
0000
0000
0000
0000
0000
0000
0000
0000
0000
0000
0000
0000
0000
0000
0000
0000
0000
0000
0010
0000
0000
0000
0000
0000
0000
0000
0000
0000
0000
0000
0000
0000
0000
0000
0000
0000
0000
0000
0000
0000
0000
0000
0100
0000
0000
0000
0000
0000
0000
0000
0000
0000
0000
0000
0000
0000
0000
0000
0000
0000
0000
0000
0000
0000
0000
0000
0001
0000
0000
0000
0000
0000
0000
0000
0000
0000
0000
0000
0000
0000
0000
0000
0000
0000
0000
0000
0000
0000
0000
0000
0010
0000
0000
0000
0000
0000
0000
0000
0000
0000
0000
0000
0000
0000
0000
0000
0100
0000
0000
0000
0000
0000
0000
0000
0000
0000
0000
0000
0000
0000
0000
0000
1000
0000
0000
0000
0000
0000
0000
0000
0000
0000
0000
0000
0000
0000
0000
0000
,  // measure 29
0020
0230
0310
0010
,  // measure 30
0000
0000
0000
0000
0000
0000
0000
0000
0002
0000
1000
0000
0000
1003
0000
0000
,  // measure 31
0200
0000
1000
0000
0000
1300
0000
0000
0020
0000
0100
0000
0000
0130
0000
0000
,  // measure 32
0002
0000
0100
0000
0000
0103
0000
0000
0002
0000
1000
0000
0000
1003
0000
0000
,  // measure 33
0001
0000
0000
0001
0010
0000
0000
0010
0100
0000
0000
0100
1000
0000
0000
1000
,  // measure 34
0001
0000
0000
0100
0010
0000
0000
0000
0101
0000
0000
0000
0001
0000
0000
0001
,  // measure 35
0100
0000
0000
0100
0010
0000
0000
0010
1000
0000
0000
1000
0001
0000
0000
0001
,  // measure 36
0010
0000
0000
0010
0100
0000
0000
0100
0020
0000
0001
0000
0000
0031
0000
0000
,  // measure 37
0200
0000
0010
0000
0000
0310
0000
0000
2000
0000
0010
0000
0000
3010
0000
0000
,  // measure 38
1000
0000
0100
0000
0010
0000
0001
0000
2000
0000
0100
0000
0000
3100
0000
0000
,  // measure 39
0020
0000
0100
0000
0000
0130
0000
0000
2000
0000
0001
0000
0000
3001
0000
0000
,  // measure 40
0200
0000
0001
0000
0000
0301
0000
0000
1000
0000
0000
1000
0010
0000
0000
0010
,  // measure 41
0100
0000
0000
0100
0001
0000
0000
0001
1000
0000
0000
1000
0100
0000
0000
0100
,  // measure 42
0010
0000
0000
0001
0100
0000
0000
0000
0110
0000
0000
0010
1000
0000
0000
1000
,  // measure 43
0100
0000
0000
0100
0010
0000
0000
0010
0001
0000
0000
0001
1000
0000
0000
1000
,  // measure 44
0100
0000
0000
0100
0001
0000
0000
0001
0200
0000
1000
0000
0000
1300
0000
0000
,  // measure 45
0020
0000
0100
0000
0000
0130
0000
0000
0002
0000
0100
0000
0000
0103
0000
0000
,  // measure 46
0001
0010
0100
1000
1010
0100
0110
0000
,  // measure 47
0011
0010
0110
1000
1100
0100
0101
0000
,  // measure 48
0011
0010
0110
1000
2002
0000
0000
3003
,  // measure 49
0020
0000
1000
1030
0002
0000
0000
0003
,  // measure 50
0220
0000
0330
0000
;

//---------------dance-single - ----------------
#NOTES:
     dance-single:
     :
     Challenge:
     13:
     0.569,0.688,0.248,0.224,0.465,438.000,31.000,28.000,0.000,0.000,0.000,0.569,0.688,0.248,0.224,0.465,438.000,31.000,28.000,0.000,0.000,0.000: // measure 0
1001
1000
0001
0000
1000
0000
0100
0000
1000
0100
1000
0000
0010
0000
0100
0000
,  // measure 1
0010
0100
0010
0000
0100
0000
0001
0000
0100
0001
0100
0000
0001
0000
1000
0000
,  // measure 2
0110
0100
0010
0000
0100
0000
0001
0000
1000
0001
1000
0000
0100
0000
0010
0000
,  // measure 3
0001
0000
0100
0000
0001
0000
0000
0000
0010
0000
0000
0000
0100
0000
0000
0000
0010
0000
0001
0000
0010
0000
0001
0000
0100
0000
0000
0001
1000
0000
0001
0000
,  // measure 4
1001
1000
0100
0000
0110
0000
0010
0000
0100
0001
0010
0000
0011
0000
0001
0000
,  // measure 5
0010
0100
1000
0000
1001
0000
0001
0000
1000
0100
0010
0001
0010
0100
1000
0000
,  // measure 6
1001
0001
0100
0000
0101
0000
0001
0000
0010
0001
1000
0000
1010
0000
0010
0000
,  // measure 7
1000
0100
0010
0000
0001
1000
0100
0000
2002
0000
0000
0000
0003
0000
3001
0000
,  // measure 8
1000
0100
0010
1000
0010
0001
0100
1000
,  // measure 9
0100
0010
1000
0010
0001
0010
0100
0000
,  // measure 10
0001
0100
1000
0100
0010
1000
0100
0001
,  // measure 11
1000
0100
0010
1000
0001
0001
0101
0000
,  // measure 12
0001
0010
1000
0010
0100
0001
0100
1000
,  // measure 13
0100
0010
1000
0010
0001
0010
0100
0000
,  // measure 14
0001
0100
1000
0100
0010
1000
0010
0001
,  // measure 15
0010
0000
0100
0000
0001
0000
1000
0000
0001
1000
0001
1000
0001
0000
1000
0001
,  // measure 16
0200
0000
0000
0000
0310
0000
1000
0100
2000
0000
0000
0000
3001
0000
1000
0001
,  // measure 17
0200
0000
0000
0000
0301
0000
1000
0100
1000
0000
0001
0000
0010
0000
0100
0000
,  // measure 18
0010
0001
0001
1000
0000
0001
1000
0100
,  // measure 19
0001
0000
0100
0000
1000
0000
0001
0000
0100
0001
0100
0001
0100
0000
0001
1000
,  // measure 20
0200
0000
0000
0000
1300
0000
0010
0100
0020
0000
0000
0000
0130
0000
0001
1000
,  // measure 21
0020
0000
0000
0000
1030
0000
0001
0010
0001
0000
1000
0000
0100
0000
0010
0000
,  // measure 22
0100
1000
0001
0001
0000
1000
0001
0010
,  // measure 23
1000
0000
0010
0000
0001
1000
0002
0000
0000
0000
0103
0000
0001
0000
1000
0000
,  // measure 24
1100
0100
0010
0001
0000
1000
0001
0100
,  // measure 25
1000
0000
0100
0000
0001
0000
1000
0000
0100
1000
0100
1000
0001
1000
0001
1000
,  // measure 26
0001
0000
0000
0000
0000
0000
0000
0000
0000
0000
0000
0000
0000
0000
0000
0000
0000
0000
0000
0000
0000
0000
0000
0000
0000
0000
0000
0000
0000
0000
0000
0000
0000
0000
0000
0000
0000
0000
0000
0000
0000
0000
0000
0000
0000
0000
0000
0000
0101
0000
0000
0000
0000
0000
0000
0000
0000
0000
0000
0000
0000
0000
0000
0000
0100
0000
0000
0000
0000
0000
0000
0000
0000
0000
0000
0000
0000
0000
0000
0000
0100
0000
0000
0000
0000
0000
0000
0000
0000
0000
0000
0000
0000
0000
0000
0000
0110
0000
0000
0000
0000
0000
0000
0000
0000
0000
0000
0000
0000
0000
0000
0000
0000
0000
0000
0000
0000
0000
0000
0000
0000
0000
0000
0000
0000
0000
0000
0000
0000
0000
0000
0000
1000
0000
0000
0000
0000
0000
0100
0000
0000
0000
0000
0000
2000
0000
0000
0000
0000
0000
0000
0000
0000
0000
0000
0000
0000
0000
0000
0000
0000
0000
0000
0000
0000
0000
0000
0000
3001
0000
0000
0000
0000
0000
0000
0000
0000
0000
0000
0000
0000
0000
0000
0000
0000
0000
0000
0000
0000
0000
0000
0000
,  // measure 27
1001
0000
0000
0000
0000
0000
0000
0000
0000
0000
0000
0000
0000
0000
0000
0000
0000
0000
0000
0000
0000
0000
0000
0000
0000
0000
0000
0000
0000
0000
0000
0000
0000
0000
0000
0000
0000
0000
0000
0000
0000
0000
0000
0000
0000
0000
0000
0000
1010
0000
0000
0000
0000
0000
0000
0000
0000
0000
0000
0000
0000
0000
0000
0000
0010
0000
0000
0000
0000
0000
0000
0000
0000
0000
0000
0000
0000
0000
0000
0000
0010
0000
0000
0000
0000
0000
0000
0000
0000
0000
0000
0000
0000
0000
0000
0000
0110
0000
0000
0000
0000
0000
0000
0000
0000
0000
0000
0000
0000
0000
0000
0000
0000
0000
0000
0000
0000
0000
0000
0000
0000
0000
0000
0000
0000
0000
0000
0000
0000
0000
0000
0000
0001
0000
0000
0000
0000
0000
0010
0000
0000
0000
0000
0000
0001
0000
0000
0000
0000
0000
0000
0000
0000
0000
0000
0000
0100
0000
0000
0000
0000
0000
0010
0000
0000
0000
0000
0000
0100
0000
0000
0000
0000
0000
0000
0000
0000
0000
0000
0000
0001
0000
0000
0000
0000
0000
0000
0000
0000
0000
0000
0000
,  // measure 28
1001
0000
0000
0000
0000
0000
0000
0000
0000
0000
0000
0000
0000
0000
0000
0000
0000
0000
0000
0000
0000
0000
0000
0000
0000
0000
0000
0000
0000
0000
0000
0000
0000
0000
0000
0000
1000
0000
0000
0000
0000
0000
0010
0000
0000
0000
0000
0000
2000
0000
0000
0000
0000
0000
0000
0000
0000
0000
0000
0000
0001
0000
0000
0000
0000
0000
0000
0000
0000
0000
0000
0000
0001
0000
0000
0000
0000
0000
0000
0000
0000
0000
0000
0000
0001
0000
0000
0000
0000
0000
0000
0000
0000
0000
0000
0000
3001
0000
0000
0000
0000
0000
0000
0000
0010
0000
0000
0000
0000
0000
0000
0000
0001
0000
0000
0000
0000
0000
0000
0000
0010
0000
0000
0000
0000
0000
0000
0000
0001
0000
0000
0000
0000
0000
0000
0000
0010
0000
0000
0000
0000
0000
0000
0000
0100
0000
0000
0000
0000
0000
0000
0000
1000
0000
0000
0000
0000
0000
0000
0000
0100
0000
0000
0000
0000
0000
0000
0000
1000
0000
0000
0000
0000
0000
0000
0000
0100
0000
0000
0000
0000
0000
0000
0000
0010
0000
0000
0000
0000
0000
0000
0000
,  // measure 29
0001
0000
0000
0000
0000
0000
1000
0010
2000
0000
0000
0000
0000
0000
3001
0010
0002
0000
0000
0000
0000
0000
1003
0001
2000
0000
0000
0000
0000
0000
0000
0000
,  // measure 30
3000
0000
0000
0000
0001
1000
0001
1000
0001
0000
0100
0000
0000
0100
0001
0000
,  // measure 31
0010
0000
0100
0000
0000
0100
1000
0000
0010
0000
0100
0000
0000
0100
0001
0000
,  // measure 32
0010
0000
0100
0000
0000
0100
1000
0000
0100
0000
0010
0000
0000
0010
0001
0000
,  // measure 33
1000
0000
0010
0000
0000
0010
0100
0000
0001
0000
0010
0000
0000
0010
0100
0000
,  // measure 34
1000
0000
0010
0100
0010
0000
0000
0000
1001
0000
0000
0000
0001
0000
0000
0001
,  // measure 35
0100
0000
0000
0100
1000
0000
0000
1000
0100
0000
0000
0100
0001
0000
0000
0001
,  // measure 36
1000
0000
0000
1000
0001
0000
0000
0001
0200
0000
0010
0000
0000
0310
0000
0000
,  // measure 37
2000
0000
0100
0000
0000
3100
0000
0000
0020
0000
0001
0000
0000
0031
0000
0000
,  // measure 38
0100
0010
0100
0010
0100
0010
0100
0000
0001
0000
1000
0000
0000
1000
0001
0000
,  // measure 39
0010
0000
0100
0000
0000
0100
0010
0000
0001
0000
1000
0000
0000
1000
0010
0000
,  // measure 40
0100
0000
0001
0000
0000
0001
0010
0000
0100
0000
1000
0000
0000
1000
0001
0000
,  // measure 41
0100
0000
0010
0000
0000
0010
0100
0000
0001
0000
0010
0000
0000
0010
0100
0000
,  // measure 42
1000
0000
0010
0100
0010
0000
0000
0000
1001
0000
0000
1000
0100
0000
0000
0100
,  // measure 43
0001
0000
0000
0001
0100
0000
0000
0100
1000
0000
0000
1000
0001
0000
0000
0001
,  // measure 44
1000
0000
0000
1000
0010
0000
0000
0010
0200
0000
0001
0000
0000
0301
0000
0000
,  // measure 45
2000
0000
0100
0000
0000
3100
0000
0000
0020
0000
0001
0000
0000
0031
0000
0000
,  // measure 46
0010
0001
0010
0001
0100
0010
0100
0010
1000
0000
0100
0000
1100
0000
0100
0000
,  // measure 47
0101
0000
0000
0000
0001
0000
0000
0000
1001
0000
0000
1000
0001
0000
0000
0000
0011
0000
0000
0000
0010
0000
0000
0000
0110
0000
0000
0000
0100
0000
0000
0000
,  // measure 48
1100
0000
0000
0000
1000
0000
0000
0000
1001
0000
0000
0001
0100
0000
0100
0000
0220
0000
0000
0000
0000
0000
0000
0000
0000
0000
0000
0000
0330
0000
0000
0000
,  // measure 49
2002
0003
3001
1000
2200
0000
0000
3300
,  // measure 50
0220
0000
0330
0000
;

//---------------dance-single - ----------------
#NOTES:
     dance-single:
     :
     Beginner:
     2:
     0.089,0.100,0.088,0.000,0.000,67.000,11.000,0.000,0.000,0.000,0.000,0.089,0.100,0.088,0.000,0.000,67.000,11.000,0.000,0.000,0.000,0.000: // measure 0
0001
0000
0000
0000
,  // measure 1
1000
0000
0000
0000
,  // measure 2
1001
0000
0000
0000
,  // measure 3
0100
0000
0000
0000
,  // measure 4
0110
0000
0010
0000
,  // measure 5
0100
0000
0010
0000
,  // measure 6
0110
0000
0001
0000
,  // measure 7
1000
0000
0001
0000
,  // measure 8
1001
0000
1000
0000
,  // measure 9
0001
0000
0000
0000
,  // measure 10
1000
0000
0001
0000
,  // measure 11
1000
0000
0000
0000
,  // measure 12
0010
0000
0100
0000
,  // measure 13
0010
0000
0000
0000
,  // measure 14
0100
0000
0010
0000
,  // measure 15
0100
0000
0000
0000
,  // measure 16
0110
0000
0000
0000
,  // measure 17
0001
0000
0000
0000
,  // measure 18
0010
0000
0000
0000
,  // measure 19
0100
0000
0000
0000
,  // measure 20
1000
0000
0000
0000
,  // measure 21
0001
0000
0000
0000
,  // measure 22
0100
0000
0000
0000
,  // measure 23
0001
0000
0000
0000
,  // measure 24
1000
0000
0000
0000
,  // measure 25
1000
0000
0000
0000
,  // measure 26
1001
0000
0001
0000
,  // measure 27
0010
0000
0001
0000
,  // measure 28
0010
0000
0100
0000
,  // measure 29
1000
0000
0100
0000
,  // measure 30
0000
0000
1001
0000
,  // measure 31
0000
0000
1000
0000
,  // measure 32
0000
0000
0001
0000
,  // measure 33
0000
0000
1000
0000
,  // measure 34
0000
0000
1001
0000
,  // measure 35
0000
0000
0010
0000
,  // measure 36
0000
0000
0100
0000
,  // measure 37
0000
0000
0010
0000
,  // measure 38
0000
0000
0110
0000
,  // measure 39
0000
0000
1000
0000
,  // measure 40
0000
0000
0001
0000
,  // measure 41
0000
0000
1000
0000
,  // measure 42
0000
0000
1001
0000
,  // measure 43
0000
0000
0001
0000
,  // measure 44
0000
0000
1000
0000
,  // measure 45
0000
0000
0001
0000
,  // measure 46
0001
0000
1001
0000
,  // measure 47
1000
0000
0100
0000
,  // measure 48
0010
0000
0001
0000
,  // measure 49
0001
0000
0001
0000
,  // measure 50
0001
0000
0000
0000
;
