#TITLE:Dreamin';
#SUBTITLE:;
#ARTIST:ステレオポニー;
#TITLETRANSLIT:;
#SUBTITLETRANSLIT:;
#ARTISTTRANSLIT:STEREOPONY;
#CREDIT:DigiMindAxel;
#BANNER:Dreamin'.png;
#BACKGROUND:Dreamin'-bg.png;
#LYRICSPATH:Dreamin'.lrc;
#CDTITLE:DigiMindAxel original simfile.png;
#MUSIC:Dreamin'.mp3;
#METERTYPE:DDR X;
#OFFSET:-11.264;
#SAMPLESTART:64.412;
#SAMPLELENGTH:12.000;
#SELECTABLE:YES;
#BPMS:0.000=180.000;
#STOPS:;
#BGCHANGES:;

//---------------dance-single - ----------------
#NOTES:
     dance-single:
     :
     Easy:
     5:
     0.261,0.287,0.162,0.019,0.000: // measure 1
0001
1000
0001
0000
,  // measure 2
0010
0001
0010
0000
,  // measure 3
0001
1000
0001
0000
,  // measure 4
0100
0010
0100
0000
,  // measure 5
0001
1000
0001
0000
,  // measure 6
1000
0100
1000
0000
,  // measure 7
0010
0100
0010
0000
,  // measure 8
1000
0001
1000
1000
,  // measure 9
1001
0000
0001
0000
,  // measure 10
0010
0000
0100
0000
,  // measure 11
1000
0000
0010
0000
,  // measure 12
0100
0000
0001
0000
,  // measure 13
1000
0000
0010
0000
,  // measure 14
0100
0000
0001
0000
,  // measure 15
0010
0000
0100
0000
,  // measure 16
1000
0000
0001
0000
,  // measure 17
1000
0000
0100
0000
,  // measure 18
0010
0000
0001
0000
,  // measure 19
0010
0000
0100
0000
,  // measure 20
1000
0000
0001
0000
,  // measure 21
1000
0000
0010
0000
,  // measure 22
0100
0000
0001
0000
,  // measure 23
0100
0000
0010
0000
,  // measure 24
1000
0001
1000
0001
,  // measure 25
1001
0000
1000
0000
,  // measure 26
1000
0000
1000
0000
,  // measure 27
0001
0000
0001
0000
,  // measure 28
0001
0000
0001
0000
,  // measure 29
1000
0000
1000
0000
,  // measure 30
1000
0000
1000
0000
,  // measure 31
0001
0000
0001
0000
,  // measure 32
0001
0000
0001
0000
,  // measure 33
1001
0000
0010
0000
,  // measure 34
0010
0000
0010
0000
,  // measure 35
0100
0000
0100
0000
,  // measure 36
0100
0000
0010
0000
,  // measure 37
0110
0000
0100
0110
,  // measure 38
0000
0000
0010
0110
,  // measure 39
0100
0000
0001
0000
,  // measure 40
1000
0000
0000
0000
0000
0000
0000
1001
,  // measure 41
0000
1000
0001
1000
,  // measure 42
0100
0000
0010
0000
0001
0000
0000
1001
,  // measure 43
0000
0001
1000
0001
,  // measure 44
1000
0000
0100
0000
0010
0000
0000
1001
,  // measure 45
0000
0000
1000
0000
0001
0000
0000
1001
,  // measure 46
0000
0000
0001
0000
1000
0000
0000
2001
,  // measure 47
0000
0000
3001
0000
,  // measure 48
1000
0000
0100
0000
0010
0000
0000
1001
,  // measure 49
0000
1000
1001
0000
,  // measure 50
0010
0000
0100
0000
0001
0000
0000
1001
,  // measure 51
0000
0001
1001
0000
,  // measure 52
0100
0000
0010
0000
0100
0000
0000
0110
,  // measure 53
0000
0100
0100
0100
,  // measure 54
0010
0010
0010
0100
,  // measure 55
0000
1000
1000
1000
,  // measure 56
0001
0000
1000
0000
0001
0000
0000
0110
,  // measure 57
0000
0100
0010
0100
,  // measure 58
0001
0100
0001
0000
,  // measure 59
1000
0100
1000
0100
,  // measure 60
1000
0001
1000
0001
,  // measure 61
0100
0010
0100
0001
,  // measure 62
0100
0001
0100
0000
,  // measure 63
0010
1000
0010
1000
,  // measure 64
0001
1000
0001
0001
,  // measure 65
2000
0000
0000
0000
,  // measure 66
0000
0000
0000
0000
,  // measure 67
0000
0000
0000
0000
,  // measure 68
3000
0000
0000
0000
;

//---------------dance-single - ----------------
#NOTES:
     dance-single:
     :
     Medium:
     7:
     0.421,0.414,0.314,0.238,0.000: // measure 1
1001
0000
0001
0000
0001
1000
0001
0000
,  // measure 2
0010
0100
1000
0001
,  // measure 3
1001
0000
1000
0000
1000
0001
1000
0000
,  // measure 4
0100
0010
0001
1000
,  // measure 5
0110
0000
0010
0000
0010
0100
0010
0000
,  // measure 6
1000
0010
0100
0001
,  // measure 7
0110
0000
0100
0000
0100
0010
0100
0000
,  // measure 8
0001
0010
0100
1000
,  // measure 9
1002
1000
0000
1003
,  // measure 10
0001
0010
0100
1000
,  // measure 11
2001
0001
0000
3001
,  // measure 12
1000
0100
0010
0001
,  // measure 13
0102
0100
0000
0103
,  // measure 14
0001
0010
0100
1000
,  // measure 15
2010
0010
0000
3010
,  // measure 16
1000
0100
0010
0001
,  // measure 17
1001
0000
1000
0100
1000
0000
0100
1000
,  // measure 18
0001
0100
0010
1000
,  // measure 19
0001
0000
1000
0010
1000
0000
0010
1000
,  // measure 20
0001
0010
0100
1000
,  // measure 21
1001
0000
1000
0100
1000
0000
0001
1000
,  // measure 22
0001
0010
0100
1000
,  // measure 23
0001
0000
1000
0010
1000
0000
0001
1000
,  // measure 24
0001
0000
1000
0100
0000
1000
0100
0000
,  // measure 25
1002
0000
0023
0000
,  // measure 26
0032
0000
1003
0000
,  // measure 27
0200
0000
2300
0000
,  // measure 28
3002
0000
1003
0000
,  // measure 29
0002
0000
0203
0000
,  // measure 30
0302
0000
1003
0000
,  // measure 31
0002
0000
2003
0000
,  // measure 32
3020
0000
1030
0000
,  // measure 33
2001
0000
3200
0000
,  // measure 34
0320
0000
0031
0000
,  // measure 35
2000
0000
3020
0000
,  // measure 36
0230
0000
0301
0000
,  // measure 37
0110
0000
0000
0100
0000
0000
0110
0000
,  // measure 38
0000
0010
0000
0000
1000
0000
1001
0000
,  // measure 39
0001
0000
0000
1000
0000
0000
1002
0000
,  // measure 40
0000
0000
1003
0000
0001
1000
0000
1001
,  // measure 41
0000
0000
0001
0100
0010
0000
0100
0010
,  // measure 42
0100
0000
0001
0000
1100
0000
0000
1001
,  // measure 43
0000
0000
1000
0100
0010
0000
0100
0010
,  // measure 44
0100
0000
1000
0000
0101
0000
0000
1001
,  // measure 45
0000
0000
0001
0100
0010
0000
0000
1001
,  // measure 46
0000
0000
1000
0010
0100
0000
0000
1002
,  // measure 47
0000
0000
0000
0000
1003
0000
0000
0001
,  // measure 48
0000
1000
0010
0000
0100
0000
0001
1000
,  // measure 49
0000
0000
1001
0000
1001
0000
0000
0001
,  // measure 50
0000
0010
0100
0000
0010
0100
0010
0001
,  // measure 51
0000
0000
1001
0000
1001
0000
0000
1000
,  // measure 52
0000
0100
0010
0000
0100
0010
0100
1000
,  // measure 53
0000
1001
0001
1001
,  // measure 54
1000
1100
0100
0110
,  // measure 55
0000
1001
0001
1001
,  // measure 56
1000
0001
1000
0001
1000
0001
1000
0010
,  // measure 57
0000
0100
0010
0000
0100
0000
0001
1000
,  // measure 58
0000
0010
0100
0000
0010
0000
1000
0001
,  // measure 59
1000
0000
0100
0000
0010
0000
0001
1000
,  // measure 60
0000
0000
0100
0000
0010
0000
0001
1000
,  // measure 61
0001
0000
0100
0000
0001
0000
0010
0100
,  // measure 62
0000
1000
0001
0000
0010
0000
0100
0010
,  // measure 63
0100
1000
0010
0100
,  // measure 64
0001
1000
0001
0000
1000
0100
0010
0001
,  // measure 65
2000
0000
0000
0000
,  // measure 66
0000
0000
0000
0000
,  // measure 67
0000
0000
0000
0000
,  // measure 68
3000
0000
0000
0000
;

//---------------dance-single - ----------------
#NOTES:
     dance-single:
     :
     Hard:
     11:
     0.596,0.573,0.428,0.380,0.010: // measure 1
1001
0000
1000
0100
0010
0100
1000
0002
,  // measure 2
0000
0103
0010
0100
0010
1000
0100
0000
,  // measure 3
1001
0000
0001
0100
0010
0100
0001
2000
,  // measure 4
0000
3100
0010
0100
0010
0001
0100
0000
,  // measure 5
1001
0000
1000
0001
0010
0001
1000
0020
,  // measure 6
0000
0130
0001
0010
0100
1000
0001
0000
,  // measure 7
1001
0000
0001
1000
0010
1000
0001
0020
,  // measure 8
0000
0130
0010
0001
1000
0100
0010
0000
,  // measure 9
0001
0000
0101
0000
0010
0100
0001
0200
,  // measure 10
0000
0010
0310
0100
,  // measure 11
1000
0000
1100
0000
0010
0100
1000
0200
,  // measure 12
0000
0010
0310
0001
,  // measure 13
1001
0000
1010
0000
0100
0010
1000
0200
,  // measure 14
0000
0000
0010
0000
0310
0000
0100
1000
,  // measure 15
0001
0000
0011
0000
0100
0010
0001
0020
,  // measure 16
0000
0000
0100
0000
0130
1000
0001
0000
,  // measure 17
1001
0000
0001
1000
0100
1000
0001
1000
,  // measure 18
0100
0000
0100
0010
0001
1000
0010
1000
,  // measure 19
1001
0000
1000
0100
1000
0002
0000
0100
,  // measure 20
0103
0001
1000
0100
0010
0000
0100
0000
,  // measure 21
1001
0000
1000
0001
0100
0001
1000
0001
,  // measure 22
0100
0000
0100
0010
1000
0001
0010
0001
,  // measure 23
1001
0000
0001
1000
0100
2000
0000
0001
,  // measure 24
3001
1000
0100
0001
1000
0010
0001
1000
,  // measure 25
1002
0010
0023
0100
,  // measure 26
0230
1000
1300
0001
,  // measure 27
1000
0001
0200
0001
,  // measure 28
0302
1000
2003
0010
,  // measure 29
3020
0100
0230
0001
,  // measure 30
0302
1000
2003
0001
,  // measure 31
3002
0010
0023
0100
,  // measure 32
0230
1000
1300
0001
,  // measure 33
2001
0100
3200
0010
,  // measure 34
0320
0001
0032
1000
,  // measure 35
2003
0010
3020
0100
,  // measure 36
0230
0001
0301
1000
,  // measure 37
1002
0000
0000
0103
0000
0000
2001
0000
,  // measure 38
0000
3100
0000
0000
1000
0001
0100
0001
,  // measure 39
2000
0000
0000
3001
0000
0000
0200
0000
,  // measure 40
0000
0000
0310
1000
0001
0001
0000
1001
,  // measure 41
0000
1000
0010
0001
0010
1000
0100
0001
,  // measure 42
0100
1000
0001
0000
0011
0000
0000
1001
,  // measure 43
0000
0001
0100
1000
0100
0001
0010
1000
,  // measure 44
0010
0001
1000
0000
1010
0000
0000
1001
,  // measure 45
0000
1000
0100
0001
0100
1000
0000
1000
,  // measure 46
0000
1000
0010
0001
0010
1000
0001
1002
,  // measure 47
0000
0000
0100
0000
0103
0000
0000
0002
,  // measure 48
0000
1003
0001
0100
0010
1000
0010
1010
,  // measure 49
0000
0000
0011
0000
1100
0000
0000
0002
,  // measure 50
0000
1003
0100
0001
0100
1000
0001
1001
,  // measure 51
0000
0000
1100
0000
0011
0000
0000
2000
,  // measure 52
0000
3001
0010
1000
0010
0001
1000
1001
,  // measure 53
0000
1010
1010
0110
,  // measure 54
0110
0000
0101
0000
0101
0000
1001
1001
,  // measure 55
0000
0011
1100
0011
,  // measure 56
0001
0010
0100
1000
0100
0010
0001
1001
,  // measure 57
0000
1000
0001
0010
0100
0010
0001
2000
,  // measure 58
0000
0000
0001
0000
3001
0000
0100
0000
0100
0000
0010
0000
1000
0000
0000
1000
,  // measure 59
0001
0010
0100
1000
0100
0010
0001
1001
,  // measure 60
0000
0000
0001
0000
1000
0000
0010
0000
0100
0000
0010
0000
1000
0000
0000
1000
,  // measure 61
0001
0100
0010
1000
0010
0100
0001
1001
,  // measure 62
0000
0001
0100
1000
0100
0001
1000
0001
,  // measure 63
1001
0000
1000
0001
0010
1000
0010
0001
,  // measure 64
1000
0100
0001
0100
1000
1000
0001
0001
,  // measure 65
0200
0000
0000
0000
,  // measure 66
0000
0000
0000
0000
,  // measure 67
0000
0000
0000
0000
,  // measure 68
0300
0000
0000
0000
;

//---------------dance-single - ----------------
#NOTES:
     dance-single:
     :
     Beginner:
     2:
     0.098,0.152,0.086,0.000,0.000: // measure 1
1000
0000
0000
0000
,  // measure 2
0000
0000
0000
0000
,  // measure 3
0100
0000
0000
0000
,  // measure 4
0000
0000
0000
0000
,  // measure 5
1000
0000
0000
0000
,  // measure 6
0000
0000
0000
0000
,  // measure 7
0100
0000
0000
0000
,  // measure 8
0000
0000
0000
0000
,  // measure 9
0010
0000
0000
0000
,  // measure 10
0010
0000
0000
0000
,  // measure 11
0010
0000
0000
0000
,  // measure 12
0000
0000
0000
0000
,  // measure 13
0001
0000
0000
0000
,  // measure 14
0001
0000
0000
0000
,  // measure 15
0001
0000
0000
0000
,  // measure 16
0000
0000
0000
0000
,  // measure 17
1000
0000
0000
0000
,  // measure 18
1000
0000
0000
0000
,  // measure 19
1000
0000
0000
0000
,  // measure 20
0000
0000
0000
0000
,  // measure 21
0010
0000
0000
0000
,  // measure 22
0010
0000
0000
0000
,  // measure 23
0010
0000
0000
0000
,  // measure 24
0000
0000
0000
0000
,  // measure 25
0100
0000
0000
0000
,  // measure 26
0000
0000
0000
0000
,  // measure 27
0001
0000
0000
0000
,  // measure 28
0000
0000
0000
0000
,  // measure 29
1000
0000
0000
0000
,  // measure 30
0000
0000
0000
0000
,  // measure 31
0100
0000
0000
0000
,  // measure 32
0000
0000
0000
0000
,  // measure 33
0110
0000
0000
0000
,  // measure 34
0000
0000
0000
0000
,  // measure 35
0010
0000
0000
0000
,  // measure 36
0000
0000
0000
0000
,  // measure 37
1001
0000
0000
0000
,  // measure 38
0000
0000
0000
0000
,  // measure 39
0001
0000
0000
0000
,  // measure 40
0000
0000
0000
0000
0000
0000
0000
1001
,  // measure 41
0000
0000
0000
0000
,  // measure 42
1000
0000
0000
0000
0000
0000
0000
1001
,  // measure 43
0000
0000
0000
0000
,  // measure 44
0001
0000
0000
0000
0000
0000
0000
1001
,  // measure 45
0000
0000
0000
0000
,  // measure 46
1000
0000
0000
0000
0000
0000
0000
1001
,  // measure 47
0000
0000
0000
0000
,  // measure 48
0001
0000
0000
0000
,  // measure 49
0000
1000
0000
0001
,  // measure 50
0000
0000
1000
0000
0000
0000
0000
1001
,  // measure 51
0000
0001
0000
1000
,  // measure 52
0000
0000
0001
0000
0000
0000
0000
1001
,  // measure 53
0000
0100
0000
0100
,  // measure 54
0000
0100
0000
0100
,  // measure 55
0000
0010
0000
0010
,  // measure 56
0000
0000
0000
0110
,  // measure 57
0000
0100
0000
1000
,  // measure 58
0000
0100
0000
1000
,  // measure 59
0000
0100
0000
0010
,  // measure 60
0000
0001
0000
0010
,  // measure 61
0000
0001
0000
1000
,  // measure 62
0000
0001
0000
1000
,  // measure 63
0000
0100
0000
0010
,  // measure 64
0000
0100
0000
0000
,  // measure 65
0010
0000
0000
0000
;
