#TITLE:DanceDanceRevolution 4thMIX BGM MEDLEY;
#SUBTITLE:;
#ARTIST:NAOKI MAEDA;
#TITLETRANSLIT:;
#SUBTITLETRANSLIT:;
#ARTISTTRANSLIT:;
#CREDIT:DigiMindAxel;
#BANNER:DanceDanceRevolution 4thMIX BGM MEDLEY.png;
#BACKGROUND:DanceDanceRevolution 4thMIX BGM MEDLEY-bg.png;
#LYRICSPATH:;
#CDTITLE:Konami original.png;
#MUSIC:DanceDanceRevolution 4thMIX BGM MEDLEY.mp3;
#METERTYPE:DDR X;
#OFFSET:-6.680;
#SAMPLESTART:38.865;
#SAMPLELENGTH:12.000;
#SELECTABLE:YES;
#BPMS:0.000=150.250,23.000=125.000,71.000=100.050,103.000=140.000,151.000=130.000;
#STOPS:;
#BGCHANGES:;

//---------------dance-single - ----------------
#NOTES:
     dance-single:
     :
     Hard:
     10:
     0.432,0.435,0.458,0.000,0.068:
1000
0100
0010
0001
1000
0000
0100
0000
,
1100
0000
0011
0000
0001
1000
0010
0000
,
1000
0000
0001
0100
1000
0100
0001
0000
,
1000
0100
0001
0100
1000
0010
0100
0001
,
1001
0000
0000
0000
,
0000
0000
0000
1001
,
1100
0000
0011
0000
0100
1000
0001
0000
,
0101
0000
1010
0000
1000
0001
0010
0000
,
0011
0000
1100
0000
0001
1000
1001
0000
,
0110
0000
1001
0000
0010
0100
0110
0000
,
0101
0000
1010
0000
0100
0001
0010
0000
,
0011
0000
1100
0000
0010
0001
1000
0000
,
1010
0000
0101
0000
0010
0100
0101
0000
,
0001
1000
1100
0000
1100
0000
1000
0001
,
0010
0001
1000
1000
1000
0000
1100
0000
,
0110
0000
0011
0000
1001
0000
0001
1000
,
0010
1000
0001
0001
0001
0000
0101
0000
,
0110
0000
0000
0000
1010
0000
0010
0000
0100
0000
0000
0000
1001
0000
0000
1000
,
0000
0000
1000
0000
0001
0000
0000
0000
0010
0000
0000
0000
0100
0010
0100
0010
,
0000
0000
0000
0000
0000
0000
0001
1000
0000
0000
0000
0000
0001
0000
0000
0001
,
0000
0001
1000
0000
0010
0000
0100
0100
,
0010
0100
0010
0100
0000
0000
0000
0000
0001
1000
0001
1000
0001
0000
0000
0000
,
1000
0100
0000
1000
0000
0000
0001
0000
0000
0001
0000
0000
1001
0000
0000
0000
,
0010
0000
0000
0000
0100
0000
1000
0000
0100
0000
1000
0000
1001
0000
0000
0001
,
0000
0000
0100
0001
0010
0000
0100
0000
0100
0000
0000
0000
1001
0000
0000
0000
,
0100
0010
1001
1100
,
0100
1000
0001
0000
1000
0000
1001
0000
,
1001
0000
0001
0100
0100
0000
0101
0000
,
0100
0001
0010
0000
0001
0000
0110
0000
,
1000
0000
0010
1000
1000
0000
0001
0000
,
0011
0000
0001
1000
0100
0010
0100
0000
,
1100
0000
1000
0001
0100
0010
0000
1000
,
0001
0010
0100
0010
0001
1000
0000
0001
,
0001
0100
0010
0110
,
0100
0000
0001
1000
0100
0010
0100
0000
,
1000
0000
0001
1000
0010
0100
0000
0001
,
1000
0100
0010
0100
1000
0001
0000
1000
,
1000
0010
0100
0110
,
0000
0000
0000
0010
,
0000
0010
0000
0000
0010
1000
1000
0000
,
0000
1000
0000
1000
,
0100
0000
0010
0000
0001
0000
1000
0010
,
0100
0010
1000
0100
0010
0000
0100
1000
,
0001
0101
0000
0000
0001
0000
0010
0100
,
1000
0100
0010
0001
1000
0000
0100
1000
,
0010
1010
0000
0000
0010
0000
1001
0000
,
1000
0001
0100
0000
1000
0100
0001
0000
,
1000
0000
0001
0000
1000
0001
0100
0010
,
0000
0001
0000
0010
1000
0000
0001
0010
,
1000
0010
0001
0100
0010
0010
0000
0000
;

//---------------dance-single - ----------------
#NOTES:
     dance-single:
     :
     Easy:
     5:
     0.182,0.217,0.107,0.000,0.000:
1000
0100
1000
0001
,
1000
0000
0001
0000
,
0100
0001
0100
0000
,
0010
0100
0010
0100
,
0110
0000
0000
0000
,
0000
0000
0000
0110
,
0000
0010
0000
0100
,
0000
0010
0000
0100
,
0000
0001
0000
1000
,
1000
1000
1000
1001
,
0000
0001
0000
0100
,
0000
0010
0000
0100
,
0000
0001
0000
1000
,
1000
1000
1000
1001
,
0000
0001
0000
0010
,
0100
0010
0100
0010
,
0000
0001
0000
1000
,
1000
1000
0010
0110
,
0000
0000
0000
0100
,
0100
0100
0000
0010
,
0000
0000
0000
1000
,
1000
1000
0000
1001
,
0000
0001
0000
0010
,
0000
0100
0000
1000
,
0000
0001
1000
1001
,
0000
0000
0000
1001
,
0000
0001
0000
0100
,
0000
0010
0000
0100
,
0000
0001
0000
1000
,
0001
1000
0001
1000
,
0000
0100
0000
1000
,
0000
0010
0000
0100
,
0000
0010
0000
0100
,
0000
0001
1000
1001
,
0000
0001
0000
1000
,
0000
0001
0000
0010
,
0000
0001
0000
0010
,
0100
0010
0100
1000
,
0000
0000
0000
0000
,
0000
0000
0000
0001
,
0000
0001
0000
0001
,
0001
0001
0001
1001
,
1000
0001
0000
0100
,
0001
0100
0000
0001
,
1000
0001
0000
1000
,
0100
1000
0000
1001
,
0000
0001
0000
0010
,
0000
0100
0000
0010
,
0000
0001
0000
0100
,
0010
0100
0001
0000
;

//---------------dance-single - ----------------
#NOTES:
     dance-single:
     :
     Medium:
     8:
     0.361,0.339,0.478,0.000,0.000: // measure 1
0001
1001
1000
1001
,  // measure 2
0001
0000
0100
0010
0100
0000
0001
0000
,  // measure 3
1000
0000
0100
1000
0100
1000
0010
0000
,  // measure 4
0100
0001
0100
0001
1000
0000
0100
0000
,  // measure 5
1100
0000
0000
0000
,  // measure 6
0000
0000
0000
1001
,  // measure 7
0001
0000
0100
0000
0001
1000
0000
0000
,  // measure 8
1001
0000
1000
0000
0010
0100
0000
0000
,  // measure 9
0001
0000
1001
0000
1000
0100
1000
0000
,  // measure 10
1100
1000
1100
1001
,  // measure 11
0001
0000
0100
0000
0010
1000
0000
0000
,  // measure 12
0001
0000
1001
0000
1000
0100
0000
0000
,  // measure 13
1000
0000
1001
0000
0100
0001
0100
0000
,  // measure 14
0101
0100
0101
1001
,  // measure 15
0001
0000
1000
0100
0010
0000
1001
0000
,  // measure 16
0001
0001
1001
1100
,  // measure 17
1000
0000
0001
1000
0100
0000
1100
0000
,  // measure 18
1100
0000
1000
0001
0100
0000
1001
0000
,  // measure 19
0000
0001
1000
0000
1000
0000
0001
0100
,  // measure 20
0001
0000
0000
0101
0000
0000
0100
0000
,  // measure 21
0000
0010
0100
0000
0100
0000
0010
0010
,  // measure 22
0010
0100
0000
0000
0001
0000
1001
0000
,  // measure 23
0000
1100
0000
0000
0000
0000
0101
0000
,  // measure 24
0000
0000
0001
0001
1000
1000
1001
0000
,  // measure 25
0000
0000
0001
0100
0010
0000
0110
0000
,  // measure 26
0100
0010
0001
1001
,  // measure 27
1000
0000
1100
0000
0100
1000
0010
0000
,  // measure 28
0010
0010
0110
0101
,  // measure 29
0001
1000
0100
0000
1000
0000
1100
0000
,  // measure 30
0010
0001
1000
1001
,  // measure 31
0001
0000
0100
0001
0100
0001
1000
0000
,  // measure 32
0000
0000
0000
0001
1000
0001
0000
1000
,  // measure 33
0010
1000
0010
1000
0010
0100
0000
0001
,  // measure 34
0001
0000
0000
1001
,  // measure 35
0001
0000
0001
1000
0100
1000
0001
0000
,  // measure 36
0000
0000
0000
1000
0100
1000
0000
0001
,  // measure 37
0100
0001
0100
0001
0100
0010
0000
1000
,  // measure 38
1000
0001
1000
1001
,  // measure 39
0000
0000
0000
0001
,  // measure 40
0000
0001
0000
0000
0001
1000
1000
0000
,  // measure 41
0001
1000
0001
1000
,  // measure 42
1000
0000
1000
0000
1000
0001
0101
0000
,  // measure 43
1001
1010
0000
1001
,  // measure 44
0110
1001
0000
1100
,  // measure 45
0110
0011
0000
1001
,  // measure 46
0110
1001
0000
1001
,  // measure 47
0000
0000
1100
0000
0000
1100
0000
0000
,  // measure 48
0010
0000
0001
0000
1000
0010
0100
0010
,  // measure 49
0000
0010
0000
0100
0010
0000
1000
0001
,  // measure 50
1000
0000
0001
0100
0001
1000
0000
0000
;

//---------------dance-single - ----------------
#NOTES:
     dance-single:
     :
     Challenge:
     12:
     0.570,0.581,0.283,0.195,0.317:
0001
0010
0100
0010
0001
1000
0010
0000
,
1000
0010
0100
0010
1000
0100
0010
0000
,
0100
1000
0001
0100
1000
0100
0001
0000
,
1000
0000
0010
0000
0001
0000
0010
0000
1000
0001
1000
0001
1000
0001
1000
0001
,
2000
0000
0000
0000
,
0000
0000
3000
1001
,
0001
0010
0100
0010
0001
0001
1000
1000
,
0010
0100
0001
1000
0100
0100
1000
1000
,
0001
0010
0100
0010
0001
0001
1001
1000
,
1100
0000
0000
0000
1001
0000
0001
0000
0100
0001
0010
0001
0010
0000
0001
0000
,
0010
0100
0010
0001
1000
1000
0010
0010
,
1000
0100
0010
0100
1000
1000
0001
0001
,
0100
0010
1000
0010
0100
0100
0101
0001
,
0100
0010
1000
0100
1000
0000
1000
0000
0001
0000
0001
0000
1001
0000
1000
0100
,
1000
0100
1000
0100
1000
0000
0001
0000
1000
0000
1010
0000
0020
0000
0000
0000
,
0230
0000
0000
0000
0302
0000
0000
0000
1003
0000
1001
0000
1001
0000
0001
0010
,
0001
0010
0001
0010
0001
0000
1000
0000
0010
0000
0100
0000
0101
0000
0000
0000
,
1001
0000
0000
0000
1100
0000
0100
0000
1100
0000
1000
0000
1001
0000
0000
0101
,
0000
0000
1010
0000
1000
0000
0001
0100
0000
0001
0000
0000
1000
0100
0010
0002
,
0000
0000
0000
0000
1003
0000
0001
0200
0000
0000
0300
0000
0101
0000
0000
1001
,
0000
0000
1010
0000
1000
0000
0001
0010
0000
0001
0000
0000
1000
0001
1000
0001
,
0010
0001
0010
0001
0000
0000
0000
0000
1000
0001
1000
0001
1000
0000
0000
0000
,
0001
1000
0100
1000
0000
0000
0010
0100
0000
0100
0010
0000
0110
0000
0000
0100
,
0001
0000
0010
0000
0100
1000
0100
1000
0001
1000
0001
0000
1001
0000
0000
1100
,
0000
0000
1000
0001
0100
0000
0101
0000
1001
0000
0000
1000
0001
0000
0001
0000
,
1000
0010
1000
0010
0100
0001
0000
0000
1000
0001
1000
0000
0001
0000
0100
0001
,
0100
0010
0100
0000
0001
1000
1100
0000
,
1100
0000
0000
0000
1000
0000
0001
1000
0001
0000
0000
0000
1000
0000
0010
1000
,
0010
0100
0010
0000
1000
0001
0020
0000
,
0230
0000
0000
0000
0310
0000
0001
1000
0001
0000
0000
0000
2000
0000
0000
0000
,
0001
0000
3001
1000
0010
0200
0001
0000
,
0001
0000
0301
1000
0100
0010
0000
0001
,
1000
0100
0001
0100
1000
0002
0000
0100
,
0203
0010
0310
1002
,
1000
0000
1003
0001
0100
0020
1000
0000
,
1000
0000
1030
0001
0010
0100
0000
1000
,
0001
0010
1000
0010
0001
2000
0000
0010
,
3020
0100
0130
2002
,
0000
0000
0000
0000
0000
0000
0000
0000
3003
0000
0000
0000
1000
0000
0000
0010
,
0000
0000
0100
0000
0000
0010
0000
0000
1000
0000
0001
0000
0001
0000
1000
0000
,
0100
0000
0000
0000
0010
0000
0100
0000
1000
0000
0000
0000
0001
0000
0000
0100
,
0010
0000
0100
0000
0001
0000
1000
0000
0100
0000
0000
0000
1000
0000
0001
0100
,
0001
0000
1000
0000
0001
0100
0001
0000
1000
0000
0000
0000
0100
0000
0000
0010
,
0001
0000
2000
0000
0000
0000
0001
0000
3001
0000
0000
0000
1000
0000
0001
0010
,
0001
0000
1000
0000
0001
0010
0001
0000
1000
0000
0000
0000
0010
0000
0000
0100
,
0001
2000
0000
0001
3001
0000
1001
0000
,
1000
0000
0100
0000
0001
0000
0000
0000
0100
0000
1000
0000
0001
0000
0000
0100
,
0000
0000
0010
0000
0000
0100
0000
0000
0001
0000
1000
0000
0100
0000
0001
0000
,
0000
0000
0100
0000
0000
0000
1000
0000
0001
0000
0000
0000
1000
0100
1000
0100
,
1000
0000
0001
0100
0001
0100
0001
0000
1000
0010
0100
0001
0000
0000
0000
0000
;

//---------------dance-single - ----------------
#NOTES:
     dance-single:
     :
     Beginner:
     3:
     0.085,0.096,0.088,0.000,0.000:
0001
0000
0000
0000
,
0010
0000
0000
0000
,
0100
0000
0000
0000
,
1000
0000
0000
0000
,
1001
0000
0000
0000
,
0000
0000
0000
1001
,
0000
0000
0000
0001
,
0000
0000
0000
1000
,
0000
0000
0000
0001
,
0000
0000
0000
0110
,
0000
0000
0000
0100
,
0000
0000
0000
0010
,
0000
0000
0000
0100
,
0000
0000
0000
1001
,
0000
0000
0000
0001
,
0000
0000
0000
1001
,
0000
0000
0000
1000
,
0000
0000
0000
0010
,
0000
0000
0000
0010
,
0000
0000
0000
0100
,
0000
0000
0000
0100
,
0000
0000
0000
1001
,
0000
0001
0000
1000
,
0000
0000
0000
1001
,
0000
1000
0000
0001
,
0000
0000
0000
1000
,
0000
0000
0000
0010
,
0000
0000
0000
0100
,
0000
0000
0000
0001
,
0000
0000
0000
1000
,
0000
0000
0000
0000
,
0000
0000
0000
0001
,
0000
0000
0000
0000
,
0000
0000
0000
1001
,
0000
0000
0000
0000
,
0000
0000
0000
0001
,
0000
0000
0000
0000
,
0000
0000
0000
1001
,
0000
0000
0000
0000
,
0000
0000
0000
1000
,
0000
1000
0000
1000
,
0000
0000
0000
0001
,
0000
0001
0000
0001
,
0000
0000
0000
0010
,
0000
0010
0000
0010
,
0000
0000
0000
0100
,
0000
0100
0000
0100
,
0000
0000
0000
1000
,
0000
1000
0000
1000
,
0000
0001
0000
0000
;
