#TITLE:DYNAMITE SENSATION;
#SUBTITLE:;
#ARTIST:NAOKI;
#TITLETRANSLIT:;
#SUBTITLETRANSLIT:;
#ARTISTTRANSLIT:;
#CREDIT:SupremeX & DigiMindAxel;
#BANNER:DYNAMITE SENSATION.png;
#BACKGROUND:DYNAMITE SENSATION-bg.png;
#LYRICSPATH:;
#CDTITLE:CROSSxBEATS.png;
#MUSIC:DYNAMITE SENSATION.mp3;
#METERTYPE:DDR X;
#OFFSET:-6.518;
#SAMPLESTART:38.502;
#SAMPLELENGTH:12.000;
#SELECTABLE:YES;
#BPMS:0.000=150.000;
#STOPS:;
#BGCHANGES:;

//---------------dance-single - ----------------
#NOTES:
     dance-single:
     :
     Hard:
     11:
     0.597,0.632,0.322,0.254,0.268: // measure 1
0002
0000
0000
0000
,  // measure 2
2003
0000
0000
0000
,  // measure 3
3200
0000
0000
0000
,  // measure 4
0320
0000
0000
0000
,  // measure 5
0031
1000
0010
0000
0010
1000
0001
0000
,  // measure 6
1000
0100
0010
0000
0010
0100
1000
0000
,  // measure 7
0100
1000
0010
0000
0010
0100
0001
0000
,  // measure 8
0010
0100
1000
0000
1000
0100
0010
0000
,  // measure 9
0001
0100
0010
0000
0010
0100
0001
0000
,  // measure 10
0010
0100
1000
0000
1000
0001
0100
0000
,  // measure 11
0110
0000
1000
0010
0110
0000
0001
0100
,  // measure 12
0110
0000
0000
0000
1000
0100
1000
0000
0001
0010
0001
0000
1000
0001
1000
0000
,  // measure 13
0100
0010
0001
0010
1000
0010
0100
0010
,  // measure 14
0001
0100
1000
0100
0010
0100
1000
0100
,  // measure 15
0001
0010
1000
0010
0100
0010
1000
0010
,  // measure 16
0001
0100
1000
0100
0010
0100
1000
0100
,  // measure 17
0002
0000
1003
0002
0100
0000
1003
0000
,  // measure 18
0001
0010
0100
0010
0100
1000
0010
0100
,  // measure 19
0001
0010
0100
0010
0100
1000
0001
0100
,  // measure 20
0010
0100
0010
1000
0001
0000
0001
0000
,  // measure 21
0101
0000
0000
1100
0000
0000
0010
0000
0200
0000
0000
0000
0000
0000
0000
0000
,  // measure 22
0300
0000
0001
0100
0001
0000
0100
0001
0100
0000
0010
1000
0010
0000
1000
0000
,  // measure 23
1100
0000
0000
0101
0000
0000
0100
0000
0020
0000
0000
0000
0000
0000
0000
0000
,  // measure 24
0030
0000
1000
0100
1000
0000
0001
0010
0001
0000
1000
0001
1000
0000
0001
0000
,  // measure 25
0101
0000
0000
0110
0000
0000
0010
0000
2000
0000
0000
0000
0000
0000
0000
0000
,  // measure 26
3000
0000
0001
1000
0001
0000
0100
0010
0100
0000
0001
1000
0001
0000
1000
0000
,  // measure 27
1100
0000
0000
0110
0000
0000
0010
0000
0200
0000
0000
0000
0010
0000
0000
0000
,  // measure 28
0310
0000
0001
1000
0001
0000
0010
0100
0010
0000
0001
1000
0001
0000
1000
0000
,  // measure 29
1002
0000
0000
1000
0000
0000
1003
0000
0100
0000
0000
0000
1000
0000
0000
0000
,  // measure 30
2001
0000
0000
0001
0000
0000
3001
0000
0010
0000
0000
0000
0100
0000
0000
0000
,  // measure 31
2010
0000
0000
0010
0000
0000
3010
0000
0100
0000
0000
0000
0001
0000
0000
0000
,  // measure 32
0012
0000
0000
0010
0000
0000
0013
0000
0100
0000
0000
0000
1000
0000
0000
0000
,  // measure 33
0001
0100
0000
0001
0100
0000
0010
1000
0000
0010
1000
0000
0001
0000
0000
0000
,  // measure 34
1000
0100
0000
1000
0100
0000
0010
0001
0000
0010
0001
0000
1000
0000
0000
0000
,  // measure 35
0001
0010
0100
1000
0001
0010
0100
2000
,  // measure 36
0001
0000
0000
0100
0000
3100
0000
0000
,  // measure 37
1000
0001
0000
1000
0001
0000
0100
0010
0000
0100
0010
0000
1000
0000
0000
0000
,  // measure 38
0001
0010
0000
0001
0010
0000
0100
1000
0000
0100
1000
0000
0001
0000
0000
0000
,  // measure 39
1000
0010
0100
0001
1000
0010
0100
0002
,  // measure 40
1000
0000
0000
0100
0000
0103
0000
0000
,  // measure 41
0001
0010
0100
1000
0001
0100
0100
0000
,  // measure 42
0001
0100
0010
1000
0001
0010
0010
0000
,  // measure 43
0001
0010
0100
1000
0001
0100
0100
0000
,  // measure 44
0001
0010
0100
0010
0001
0100
0100
0000
,  // measure 45
1001
0100
0010
0001
1000
0010
0010
0000
,  // measure 46
0100
0001
0010
0100
1000
0001
0001
0000
,  // measure 47
0100
0010
0100
0001
1000
0100
0100
0000
,  // measure 48
1000
0100
1000
0100
,  // measure 49
1100
0000
0000
0110
0000
0000
0110
0000
0220
0000
0000
0000
0000
0000
0000
0000
,  // measure 50
0330
0000
1000
0010
1000
0000
0010
1000
0010
0000
0100
0010
0100
0000
0001
0000
,  // measure 51
1001
0000
0000
0101
0000
0000
0101
0000
0202
0000
0000
0000
0000
0000
0000
0000
,  // measure 52
0303
0000
0001
1000
0001
0000
1000
0001
1000
0000
0100
0010
0100
0000
1000
0000
,  // measure 53
1001
0000
0000
1100
0000
0000
1100
0000
2200
0000
0000
0000
0000
0000
0000
0000
,  // measure 54
3300
0000
0010
0100
0010
0000
0100
0010
0100
0000
0001
1000
0001
0000
1000
0000
,  // measure 55
1010
0000
0000
0110
0000
0000
0110
0000
0220
0000
0000
0000
0000
0000
0000
0000
,  // measure 56
0330
0000
0001
1000
0001
0000
0010
0100
0010
0000
0001
0100
0001
0000
1000
0000
,  // measure 57
0001
0010
0100
0001
0100
1000
0001
1000
,  // measure 58
2002
0000
0000
0000
,  // measure 59
0000
0000
0000
0000
0000
0000
0000
3003
;

//---------------dance-single - ----------------
#NOTES:
     dance-single:
     :
     Medium:
     7:
     0.403,0.431,0.234,0.156,0.039:
1000
0010
0100
0001
,
0001
0010
0100
1000
,
1000
0100
0010
0001
,
0010
0100
1000
0001
,
1001
0010
1000
0010
,
1000
0001
1000
0000
0010
0000
0110
0000
,
0001
1000
0001
0000
0100
0000
0010
0000
,
1001
0000
0010
0000
1000
0100
0010
0000
,
0001
0010
1000
0010
,
0001
0000
1000
0000
0001
0100
0001
0100
,
0010
1000
0100
0001
,
0100
0000
1000
0000
0001
0100
0010
1000
,
1001
0001
1000
0001
,
1000
0001
0010
0100
,
1000
0010
0100
0000
0001
0000
1000
0000
,
0001
0010
0100
1000
0001
0100
0001
0000
,
1000
0000
0010
0000
0100
0001
0100
0000
,
0001
0000
1001
0000
0100
1000
0100
0000
,
0010
0011
0100
0110
,
0001
0010
0100
1000
0001
0100
0001
0000
,
1001
0000
0000
1000
0000
0000
0001
0000
0002
0000
0000
0000
0000
0000
0000
0000
,
0003
1000
0001
0100
,
0010
0000
0000
0010
0000
0000
0000
0000
0100
0000
0200
0000
0000
0000
0000
0000
,
0300
0000
0001
1000
0010
0000
0100
0000
,
0001
0000
0000
0001
0000
0000
1000
0000
2000
0000
0000
0000
0000
0000
0000
0000
,
3000
0001
0100
0010
,
1000
0000
0000
1000
0000
0000
0010
0000
0220
0000
0000
0000
0000
0000
0000
0000
,
0330
1000
0010
0100
,
1002
0000
0000
0003
,
2000
0000
0000
3000
,
0020
0000
0000
0030
,
1000
0001
0100
0010
,
1000
0010
1000
0000
0001
0000
0101
0000
,
0010
1000
0010
0000
0001
0000
0101
0000
,
0010
1000
0100
0000
0010
0000
1001
0000
,
0010
0100
1000
0001
,
1000
0010
1000
0000
0010
0000
0110
0000
,
0001
0000
0010
0000
0100
1000
0100
0000
,
1000
0001
0010
1000
,
0010
0001
2002
3003
,
0010
0100
1000
0010
,
0100
0001
1000
0000
0010
1000
0001
0000
,
0010
0000
0100
0000
1000
0001
0100
0000
,
0001
0000
1000
0000
0100
0010
0001
0000
,
1000
0000
0001
0000
0100
0001
1000
0000
,
0100
0000
0010
0000
0001
1000
0100
0000
,
0010
0000
0100
0000
1000
0001
0010
0000
,
0001
0010
0100
1000
,
1001
0000
0000
1001
0000
0000
0010
0000
0020
0000
0000
0000
0000
0000
0000
0000
,
0030
1000
0001
0100
,
0110
0000
0000
0110
0000
0000
1000
0000
2000
0000
0000
0000
0000
0000
0000
0000
,
3000
0001
0100
0010
,
1001
0000
0000
1001
0000
0000
0100
0000
0200
0000
0000
0000
0000
0000
0000
0000
,
0301
0000
0010
0100
1000
0100
0010
0000
,
0110
0000
0000
0110
0000
0000
0001
0000
0002
0000
0000
0000
0000
0000
0000
0000
,
1003
0000
0100
0010
0001
0100
0100
0010
,
0010
0000
1000
0000
0100
0010
0001
1000
,
2002
0000
0000
0000
,
0000
0000
0000
0000
0000
0000
0000
3003
;

//---------------dance-single - ----------------
#NOTES:
     dance-single:
     :
     Easy:
     6:
     0.290,0.287,0.049,0.088,0.000:
0002
0000
0000
0000
,
2003
0000
0000
0000
,
3020
0000
0000
0000
,
0230
0000
0000
0000
,
0301
1000
0010
0100
,
0100
0010
1000
0001
,
0001
0010
0100
0100
,
1000
0001
0010
0010
,
0100
1000
0001
0001
,
0100
0010
1000
1000
,
0010
0100
0001
0001
,
0010
0100
1000
0010
,
0110
0000
0001
0000
,
1000
0000
0001
0000
,
1001
0000
0001
0000
,
1000
0001
0100
0010
,
1001
0001
0001
0001
,
1000
1000
1000
1000
,
0100
0100
0100
0100
,
0010
0010
0010
0000
,
0001
1000
0100
0000
,
1000
0100
0010
0001
,
1000
0001
0100
0000
,
0001
0100
0010
1000
,
1001
1000
0010
0000
,
1000
0010
0100
0001
,
0010
0100
0010
0000
,
0001
0010
0100
1000
,
0001
0001
0001
0001
,
0010
0010
0010
0010
,
0100
0100
0100
0100
,
1000
1000
1000
1000
,
0001
1000
0001
1000
,
0010
0100
0010
0100
,
0001
0010
0100
1000
,
0002
0000
0000
1003
,
0010
0100
0001
0100
,
0001
0010
0100
1000
,
0200
0000
0000
0310
,
0001
1000
0001
0000
,
1000
0010
0100
0100
,
0001
0010
0100
1000
,
0001
0001
0100
0100
,
0001
1000
0001
1000
,
0010
0100
0010
0010
,
1000
0001
1000
1000
,
0010
0100
0001
0001
,
1000
0001
0010
0100
,
1000
0001
0010
0000
,
0001
0010
0100
1000
,
0001
0100
0010
0000
,
1000
0100
0010
0001
,
1000
0010
0100
0000
,
0001
0010
0100
1000
,
0001
0100
0010
0000
,
1000
0100
0010
0001
,
2000
0000
0000
3000
,
0220
0000
0000
0000
,
0000
0000
0000
0000
0000
0000
0000
0330
;

//---------------dance-single - ----------------
#NOTES:
     dance-single:
     :
     Beginner:
     2:
     0.112,0.139,0.010,0.000,0.000:
1000
0000
0001
0000
,
0100
0000
0010
0000
,
1000
0000
0100
0000
,
0010
0000
0001
0000
,
1000
0000
0001
0000
,
0100
0000
0010
0000
,
0100
0000
0001
0000
,
1000
0000
0001
0000
,
1000
0000
0100
0000
,
1000
0000
0001
0000
,
0010
0000
0001
0000
,
0100
0000
0100
0000
,
0100
0000
0000
0000
,
0001
0000
0000
0000
,
0010
0000
0000
0000
,
0100
0000
0000
0000
,
1000
0000
0000
0000
,
0010
0000
0000
0000
,
0100
0000
0000
0000
,
0001
0000
0000
0000
,
1000
0000
0000
0000
,
0100
0000
0000
0000
,
0010
0000
0000
0000
,
0001
0000
0000
0000
,
0100
0000
0000
0000
,
0000
0000
0001
0000
,
0100
0000
0010
0000
,
1000
0000
0010
0000
,
1000
0000
0000
0000
,
0001
0000
0000
0000
,
0010
0000
0000
0000
,
0100
0000
0000
0000
,
1000
0000
1000
0000
,
0001
0000
0001
0000
,
1000
0000
0000
0000
,
0000
0000
0010
0000
,
1000
0000
0100
0000
,
1000
0000
0100
0000
,
0010
0000
0000
0000
,
0001
0000
0010
0000
,
0001
0000
0000
0000
,
0010
0000
0000
0000
,
0100
0000
0000
0000
,
1000
0000
0000
0000
,
0100
0000
0000
0000
,
0010
0000
0000
0000
,
0001
0000
0000
0000
,
1000
0000
0000
0000
,
0001
0000
0000
0000
,
1000
0000
0000
0000
,
0010
0000
0000
0000
,
0100
0000
0000
0000
,
0001
0000
0000
0000
,
0010
0000
0000
0000
,
0100
0000
1000
0000
,
0100
0000
1000
0000
,
0001
0000
0000
0000
,
1001
0000
0000
0000
;

//---------------dance-single - ----------------
#NOTES:
     dance-single:
     :
     Challenge:
     13:
     0.726,0.690,0.185,0.137,0.595: // measure 1
1000
0000
1000
0000
1000
0000
0000
0001
0000
0100
0000
0000
0101
0000
0000
0000
,  // measure 2
0001
0000
0001
0000
0001
0000
0000
1000
0000
0100
0000
0000
1100
0000
0000
0000
,  // measure 3
1000
0000
1000
0000
1000
0000
0000
0010
0000
0100
0000
0000
0110
0000
0000
0000
,  // measure 4
0100
0000
0010
0100
0000
0000
0000
0001
0000
1000
0000
0000
0001
0000
0000
0000
,  // measure 5
1000
0100
0010
0000
0100
0000
1000
0000
,  // measure 6
0001
0100
0010
0000
0100
0000
0001
0000
,  // measure 7
0010
0100
1000
0000
0010
0000
0100
0000
,  // measure 8
0001
0000
0010
0000
0100
0000
0000
1000
0000
0001
0000
0000
1000
0000
0000
0000
,  // measure 9
1001
0001
0100
0010
0100
0001
0010
1000
,  // measure 10
0010
0001
1000
0001
1000
0100
0001
0100
,  // measure 11
1100
0000
1000
0001
0101
0000
0010
1000
,  // measure 12
1100
0000
0100
0000
0110
0000
0010
0000
0001
1000
0001
1000
0002
0000
0000
0000
,  // measure 13
1003
0100
1000
0000
0001
0010
0001
0000
1000
0001
1000
0000
0001
1000
0001
0000
,  // measure 14
0100
0010
0000
0010
0100
0000
0000
0001
1000
0000
0100
0000
0010
0000
0000
0000
,  // measure 15
0001
0000
1000
0010
1000
0010
1000
0000
0001
0000
0010
0100
0010
0100
0010
0000
,  // measure 16
0001
1000
0000
1000
0001
0000
0000
0010
0100
0000
1000
0000
0010
0000
0000
0000
,  // measure 17
1000
0100
1000
0000
0001
0100
0001
0000
1000
0001
1000
0000
0100
0010
0100
0000
,  // measure 18
1000
0010
0000
0010
1000
0000
0000
0001
1000
0000
0100
0000
0010
0000
0001
0000
,  // measure 19
1000
0000
0001
0010
0001
0010
0001
0000
1000
0000
0010
0100
0010
0100
0010
0000
,  // measure 20
1000
0000
0010
0000
0100
0000
0001
1000
0000
0000
0001
0000
0001
0000
0000
0000
,  // measure 21
1000
0000
0001
0200
0000
0000
0001
0000
0301
0000
1000
0000
0100
0000
0010
0000
,  // measure 22
0100
0000
1000
0010
1000
0000
0001
0100
0001
0000
0100
0010
0100
0000
0001
0000
,  // measure 23
1000
0000
0001
0020
0000
0000
0100
0000
0130
0000
1000
0000
0001
0000
0100
0000
,  // measure 24
0001
0000
1000
0100
1000
0000
0100
0010
0100
0000
0010
0001
0010
0000
0001
0000
,  // measure 25
1000
0000
0010
2000
0000
0000
0001
0000
3001
0000
1000
0000
0010
0000
0100
0000
,  // measure 26
0001
0000
0100
0001
0100
0000
0010
1000
0010
0000
0100
0010
0100
0000
0001
0000
,  // measure 27
1000
0000
0100
0020
0000
0000
0001
0000
0031
0000
1000
0000
0010
0100
0010
0100
,  // measure 28
0000
0120
0000
0100
0000
0100
0000
0130
,  // measure 29
0101
0000
0000
0001
0000
0000
0001
0000
1000
0000
0010
0000
0100
0001
0000
0001
,  // measure 30
1000
0000
0000
1100
0000
0000
1100
0000
1000
0000
0001
0000
0100
0001
0000
0001
,  // measure 31
0010
0000
0000
0011
0000
0000
0011
0000
0010
0000
0001
0000
0100
0010
0000
0010
,  // measure 32
1000
0000
0000
1010
0000
0000
1000
0000
0001
0000
0010
0000
0100
0010
0000
0000
,  // measure 33
0001
0100
0001
0100
0001
0000
0010
0100
0000
0100
1000
0000
0002
0000
0000
0000
,  // measure 34
1003
0100
1000
0100
1000
0000
0010
0100
0000
0100
0001
0000
2000
0000
0000
0000
,  // measure 35
3001
0010
1000
0010
0001
0010
1000
0010
,  // measure 36
0001
0100
1000
0100
0001
0100
1000
0100
,  // measure 37
0001
1000
0001
1000
0001
0000
0010
0100
0000
0100
1000
0000
0001
0000
0100
0000
,  // measure 38
0001
1000
0001
1000
0001
0000
0100
0010
0000
0010
1000
0000
0100
0000
0010
0000
,  // measure 39
0001
0100
1000
0100
0001
0100
1000
0100
,  // measure 40
0001
0010
1000
0010
0001
0010
1000
0010
,  // measure 41
0001
1000
0001
0000
1000
0001
0000
0001
1000
0000
0100
0000
0010
0000
0000
0000
,  // measure 42
0001
1000
0001
0000
1000
0001
0000
0001
1000
0000
0010
0000
0100
0000
0000
0000
,  // measure 43
0001
1000
0001
0000
0100
0010
0000
0010
0100
0000
0001
0000
0010
0000
0000
0000
,  // measure 44
0100
0010
0100
0000
1000
0010
0000
0010
1000
0000
0100
0000
0010
0000
0000
0000
,  // measure 45
0001
0100
0001
0000
1000
0100
0000
0100
1000
0000
0001
0000
0100
0000
0000
0000
,  // measure 46
0001
1000
0001
0000
0010
0100
0000
0100
0010
0000
0001
0000
0100
0000
0000
0000
,  // measure 47
0001
1000
0001
0000
0100
0001
0000
0001
0100
0000
0001
0000
1000
0001
1000
0001
,  // measure 48
1000
0100
0010
0001
,  // measure 49
1000
0000
0001
0200
0000
0000
0001
0000
0301
0000
1000
0000
0100
0000
0010
0000
,  // measure 50
0001
0000
1000
0100
1000
0000
0001
0100
0001
0000
1000
0001
1000
0000
0001
0000
,  // measure 51
0010
0000
0100
2000
0000
0000
0010
0000
3010
0000
1000
0000
0001
0000
0010
0000
,  // measure 52
0100
0000
0010
0001
0010
0000
0100
0010
0100
0000
0010
0001
0010
0000
0100
0000
,  // measure 53
1001
0000
0001
0200
0000
0000
0010
0000
0310
0000
1000
0000
0100
0000
0010
0000
,  // measure 54
0110
0000
1000
0010
1000
0000
0100
0010
0100
0000
1000
0010
1000
0000
0100
0000
,  // measure 55
0110
0000
0001
0020
0000
0000
0100
0000
0130
0000
1000
0000
0001
0100
0001
1000
,  // measure 56
0000
0000
0100
1000
0100
0000
0010
0100
0010
0000
0001
0100
0001
0000
1000
0000
,  // measure 57
0001
0010
1000
0010
0001
0100
0010
1000
,  // measure 58
2002
0000
0000
0000
,  // measure 59
0000
0000
0000
0000
0000
0000
0000
3003
;
