#TITLE:DAY DREAM;
#SUBTITLE:;
#ARTIST:Mutsuhiko Izumi;
#TITLETRANSLIT:;
#SUBTITLETRANSLIT:;
#ARTISTTRANSLIT:;
#CREDIT:DigiMindAxel;
#BANNER:DAY DREAM.png;
#BACKGROUND:DAY DREAM-bg.png;
#LYRICSPATH:;
#CDTITLE:GUITARFREAKS & drummania.png;
#MUSIC:DAY DREAM.mp3;
#METERTYPE:DDR X;
#OFFSET:-8.610;
#SAMPLESTART:19.300;
#SAMPLELENGTH:12.000;
#SELECTABLE:YES;
#DISPLAYBPM:*;
#BPMS:0.000=80.000,10.000=300.000,26.000=339.999,135.000=90.000,151.000=340.000;
#STOPS:;
#BGCHANGES:-11.000=DAY DREAM.avi=1.000=1=1=0,
99999=-nosongbg-=1.000=0=0=0 // don't automatically add -songbackground-
;

//---------------dance-single - ----------------
#NOTES:
     dance-single:
     :
     Easy:
     6:
     0.239,0.443,0.282,0.158,0.000:
1001
0000
1000
0000
,
2002
0000
0000
0000
,
0000
0000
3003
0000
0000
2002
0000
0000
,
0000
0000
0000
0000
,
3003
1001
0000
0000
,
0110
0000
0000
1001
,
0000
0000
1001
0000
,
1000
0000
0001
0000
,
1000
0000
0000
0100
,
0000
1000
0000
0100
,
0000
0000
0000
0000
,
1000
0000
0001
0000
,
1000
0000
0000
0001
,
0000
0100
0000
0001
,
0000
0000
0100
0000
,
0020
0000
0000
0000
,
0000
0000
0030
0000
,
0020
0000
0000
0000
,
0000
0000
0030
0000
,
0000
1001
0000
0001
,
0000
1000
0000
0001
,
0000
0000
1000
0000
,
0100
0000
1000
0000
,
0000
0000
1001
0000
,
1000
0000
0001
0000
,
0000
0000
0000
0010
,
0000
0001
0000
0010
,
0000
0000
0000
1001
,
0000
0000
0000
0000
,
0000
0000
0000
0220
,
0000
0000
0000
0000
,
0330
0000
0000
0110
,
0000
0000
0000
0000
,
0000
0000
0000
0110
,
0010
0010
0010
0100
,
0100
0100
0100
0001
,
0001
0001
0001
1000
,
1000
0000
0000
1001
,
0000
1000
0000
0001
,
0000
1000
0000
0100
,
0000
1000
0000
0100
,
0000
0000
0000
0000
,
0010
0000
0001
0000
,
0010
0000
0100
0000
,
0000
1000
0000
0001
,
0000
0100
0000
0001
,
0000
2000
0000
0000
,
0000
0000
0000
3000
,
0000
2000
0000
0000
,
0000
0000
0000
3000
,
0000
0000
1001
0000
,
0001
0000
1000
0000
,
0010
0000
0000
1001
,
0000
1000
0000
0001
,
0000
0010
0000
0110
,
0000
0010
0000
0100
,
0000
0001
0000
0000
,
1001
0000
0001
0000
,
1000
0000
0100
0000
,
0110
0000
0010
0000
,
0100
0000
1000
0000
,
0000
1001
0000
1000
,
0000
0001
0000
0010
,
0000
0110
0000
0100
,
0000
0001
0000
1000
,
0000
0000
1001
0000
,
1000
0000
0001
0000
,
0100
0000
0110
0000
,
0010
0000
0100
0000
,
1000
0000
0000
2002
,
0000
0000
0000
0000
,
0000
0000
0000
0000
,
3003
0000
0000
0220
,
0000
0000
0000
0000
,
0000
0000
0000
0000
,
0000
0000
0000
0000
,
0000
0000
0000
0000
,
0000
0000
0000
0000
,
0000
0000
0000
0000
,
0000
0000
0000
0000
,
0000
0000
0000
0000
,
0000
0000
0000
0000
,
0000
0000
0000
0000
,
0000
0000
0000
0000
,
0000
0000
0000
0000
,
0000
0000
0330
0000
,
0000
0000
0000
0000
,
0000
0100
0000
0000
;

//---------------dance-single - ----------------
#NOTES:
     dance-single:
     :
     Medium:
     10:
     0.368,1.000,0.237,0.124,0.040: // measure 1
1001
0000
0000
1000
0100
1000
0000
0000
,  // measure 2
0001
2002
0000
0000
0000
0000
0000
0000
,  // measure 3
0000
0000
3003
0000
0000
2200
0000
0000
,  // measure 4
0000
0000
0000
0000
,  // measure 5
3300
0000
1000
0000
0000
0001
0000
0000
,  // measure 6
0100
0000
0000
0010
0000
0000
1000
0001
,  // measure 7
1000
0000
0000
0000
0001
0000
0000
1000
,  // measure 8
0000
0000
0100
0000
0000
0010
0000
0000
,  // measure 9
0001
0000
0000
0000
0000
0100
0000
0000
,  // measure 10
0010
0000
0000
1000
0000
0000
0010
0000
,  // measure 11
0000
0100
0000
0000
0000
0000
0001
0000
,  // measure 12
0000
0010
0000
0000
0100
0000
0000
0010
,  // measure 13
0000
0000
0001
0000
0000
0000
0000
1000
,  // measure 14
0000
0000
0010
0000
0000
0100
0000
0000
,  // measure 15
0010
0000
0000
1000
0001
1000
0001
2000
,  // measure 16
0000
0000
0000
0000
,  // measure 17
0000
0000
0000
3000
,  // measure 18
0002
0000
0000
0000
,  // measure 19
0000
0000
0000
0003
,  // measure 20
0000
0000
1001
0000
0000
1000
0000
0000
,  // measure 21
0100
0000
0000
0010
0000
0000
0001
0000
,  // measure 22
0000
0000
0000
1000
0000
0000
0010
0000
,  // measure 23
0000
0100
0000
0000
0001
0000
0000
1000
,  // measure 24
0000
0000
0000
0000
0100
0000
0000
0010
,  // measure 25
0000
0000
0001
0000
0000
0010
0000
0000
,  // measure 26
0100
0000
0000
0000
0000
1000
0000
0000
,  // measure 27
0010
0000
0000
0100
0000
0000
0010
0000
,  // measure 28
0000
1000
0000
0000
0000
0000
1001
0000
,  // measure 29
0000
0000
0000
0010
0000
0100
0000
0010
,  // measure 30
0000
0100
0001
0000
0000
0000
1001
0000
,  // measure 31
0000
1001
0000
0000
1001
0000
0000
1001
,  // measure 32
0000
0000
0000
0220
,  // measure 33
0000
0000
0000
0000
,  // measure 34
0000
0000
0330
0000
0000
0000
0110
0010
,  // measure 35
0100
0000
0001
0000
0010
0000
0100
0000
1000
0001
1000
0001
1000
0000
0100
0000
,  // measure 36
0010
0000
0100
0000
1000
0000
0010
0000
0100
0010
0100
0010
0100
0000
0001
0000
,  // measure 37
1000
0000
0010
0000
1000
0000
0001
0000
0010
0100
0010
0100
0010
0000
0001
0000
,  // measure 38
1000
0000
0010
1000
0000
0000
0000
0000
0000
0000
0000
0000
1001
0000
0000
0000
,  // measure 39
0000
0001
0000
0000
0100
0000
0000
0010
,  // measure 40
0000
0000
1010
0000
0000
0000
0000
0100
,  // measure 41
0000
0000
0010
0000
0000
0001
0000
0000
,  // measure 42
0010
0000
0000
0100
0000
0000
0000
0000
,  // measure 43
1000
0000
0000
0001
0000
0000
0100
0000
,  // measure 44
0000
0010
0000
0000
0110
0000
0000
0000
,  // measure 45
0000
0001
0000
0000
1000
0000
0000
0100
,  // measure 46
0000
0000
0010
0000
0000
0100
1000
0100
,  // measure 47
1000
0200
0000
0000
0000
0000
0000
0000
,  // measure 48
0000
0000
0000
0000
,  // measure 49
0300
2000
0000
0000
,  // measure 50
0000
0000
0000
0000
,  // measure 51
3000
0000
0000
0000
1001
0000
0000
0001
,  // measure 52
0000
0000
0100
0000
0000
0010
0000
0000
,  // measure 53
0100
0000
0000
0000
0000
0001
0000
0000
,  // measure 54
0010
0000
0000
0100
0000
0000
0010
0000
,  // measure 55
0000
0001
0000
0000
0000
0000
0100
0000
,  // measure 56
0000
0010
0000
0000
0100
0000
0000
0010
,  // measure 57
0000
0000
1000
0000
0000
0000
0000
0001
,  // measure 58
0000
0000
1000
0000
0000
0100
0000
0000
,  // measure 59
0010
0000
0000
0001
0000
0000
0000
0000
,  // measure 60
1001
0000
0000
1000
0000
0000
0100
0000
,  // measure 61
0000
0010
0000
0000
0001
0000
0000
0000
,  // measure 62
0000
0011
0000
0000
0010
0000
0000
0001
,  // measure 63
0000
0000
0100
0000
0000
0010
0000
0000
,  // measure 64
0000
0000
0110
0000
0000
0100
0000
0000
,  // measure 65
0010
0000
0000
1000
0000
0000
0100
0000
,  // measure 66
0000
0000
0000
1001
0000
0000
1000
0000
,  // measure 67
0000
0100
0000
0000
0010
0000
0000
0001
,  // measure 68
0000
0000
0000
0000
1001
0000
0000
0001
,  // measure 69
0000
0000
0100
0000
0000
0010
0000
0000
,  // measure 70
1000
0000
0000
0000
0000
0001
0010
0001
,  // measure 71
0000
0000
1000
0001
1000
0000
0000
0010
,  // measure 72
1000
0010
0000
0000
1000
0001
1000
0000
,  // measure 73
0000
0000
0000
0120
,  // measure 74
0000
0000
0000
0000
,  // measure 75
0000
0000
0000
0100
,  // measure 76
0000
0000
0000
0000
0000
0100
0000
0000
,  // measure 77
0000
0000
0000
0000
,  // measure 78
0000
0000
0000
0100
0000
0000
0000
0000
,  // measure 79
0000
0000
0000
0000
0000
0100
0000
0000
,  // measure 80
0000
0000
0000
0000
,  // measure 81
0000
0000
0000
0000
,  // measure 82
0000
0000
0000
0000
,  // measure 83
0000
0000
0000
0000
,  // measure 84
0000
0000
0000
0000
,  // measure 85
0000
0000
0000
0000
,  // measure 86
0000
0000
0130
0000
,  // measure 87
0000
0000
0000
0000
,  // measure 88
0000
0010
0100
0010
0000
0000
0000
0000
;

//---------------dance-single - ----------------
#NOTES:
     dance-single:
     :
     Hard:
     16:
     0.837,1.000,0.090,0.361,0.158: // measure 1
1001
0000
0000
1000
1100
0100
0000
0000
,  // measure 2
0011
2002
0000
0000
0000
0000
0000
0000
,  // measure 3
0000
0000
3003
0000
0000
0001
0010
0001
,  // measure 4
0010
0001
0010
0100
1000
0100
1000
0100
,  // measure 5
0000
0000
1000
0001
0000
1000
0010
0000
,  // measure 6
1000
0001
0000
1000
0010
0000
0100
0010
,  // measure 7
0100
0000
0000
0000
0001
0100
0000
0001
,  // measure 8
0100
0000
0001
1000
0000
0001
1000
0000
,  // measure 9
0100
1000
0100
0000
0000
1000
0001
0000
,  // measure 10
1000
0001
0000
1000
0100
0000
1000
0100
,  // measure 11
0000
0010
0100
0010
0000
0000
0001
1000
,  // measure 12
0000
0001
1000
0000
0100
1000
0000
0100
,  // measure 13
1000
0000
0010
0100
0010
0000
0000
0001
,  // measure 14
0010
0000
0001
0010
0000
0001
1000
0000
,  // measure 15
0001
1000
0000
0100
1000
0100
1000
0002
,  // measure 16
0000
0000
0203
0000
0000
0320
0000
0000
,  // measure 17
2030
0000
0000
3002
0000
0000
0003
0000
,  // measure 18
0020
0000
0000
0032
0000
0000
2003
0000
,  // measure 19
0000
3200
0000
0000
2300
0000
0000
3000
,  // measure 20
0000
0000
0001
0010
0001
0010
0001
0000
,  // measure 21
1000
0001
0000
0001
1000
0000
0100
0010
,  // measure 22
0100
0000
0000
1000
0010
1000
0010
1000
,  // measure 23
0000
0010
0100
0000
0100
0010
0000
1000
,  // measure 24
0001
1000
0000
0000
0100
0010
0100
0010
,  // measure 25
0100
0000
1000
0010
0000
0010
1000
0000
,  // measure 26
0001
0010
0001
0000
0000
1000
0001
1000
,  // measure 27
0001
1000
0000
0001
0100
0000
0100
0001
,  // measure 28
0000
1000
0001
1000
0000
0000
0001
0010
,  // measure 29
0100
1000
0000
1000
0000
0010
0000
0010
,  // measure 30
0000
1000
0010
0100
0001
0000
1000
0001
,  // measure 31
0000
0001
1000
0000
1000
0010
0000
0010
,  // measure 32
0100
0000
0000
0220
,  // measure 33
0000
0000
0000
0000
,  // measure 34
0000
0000
0000
0000
0000
0000
0000
0000
0330
0000
0000
0000
0001
0010
1000
0010
,  // measure 35
0000
0001
0010
1000
0010
0001
0000
0100
0010
1000
0100
1000
0001
0100
1000
0100
,  // measure 36
0000
0001
0100
1000
0100
0001
0000
0010
0100
1000
0100
0010
0001
0100
1000
0100
,  // measure 37
0000
0001
0010
1000
0010
0001
0000
1000
0001
0010
0100
1000
0001
0100
1000
0100
,  // measure 38
0000
0001
0100
0110
0000
0000
0000
0000
0000
0000
0000
0000
0001
0000
1000
0000
,  // measure 39
0001
1000
0001
1000
0010
1000
0000
1000
,  // measure 40
0010
0000
0100
0010
0100
0010
0000
1000
,  // measure 41
0010
1000
0010
1000
0010
1000
0001
0000
,  // measure 42
0001
1000
0000
0100
1000
0100
1000
0000
,  // measure 43
0001
0010
0001
0010
0001
0010
0100
1000
,  // measure 44
0000
1000
0001
0000
0010
0100
0010
0100
,  // measure 45
0000
1000
0001
1000
0001
1000
0001
0010
,  // measure 46
0100
0000
0100
0010
0000
0001
1000
0001
,  // measure 47
1000
0020
0000
0000
0230
0000
0000
0302
,  // measure 48
0000
0000
0023
0000
0000
0230
0000
0000
,  // measure 49
0300
0000
2000
0000
0000
3020
0000
0000
,  // measure 50
0230
0000
0000
0320
0000
0000
2030
0000
,  // measure 51
0000
3000
0000
0000
0001
1000
0001
1000
,  // measure 52
0001
0000
1000
0100
0000
1000
0100
0000
,  // measure 53
1000
0100
1000
0100
1000
0001
0010
0100
,  // measure 54
1000
0001
0000
1000
0100
0010
0001
1000
,  // measure 55
0000
0001
0100
0010
0100
0001
0010
0100
,  // measure 56
1000
0001
0000
0100
0010
0100
0010
1000
,  // measure 57
0100
1000
0100
0010
0001
0010
0001
0100
,  // measure 58
0010
0100
0010
1000
0001
1000
0001
0010
,  // measure 59
0100
1000
0000
0100
1000
0100
1000
0001
,  // measure 60
0010
0100
1000
0002
0000
0000
0003
1000
,  // measure 61
0100
1000
0100
0010
0100
0010
0001
1000
,  // measure 62
0001
1000
0100
0020
0000
0000
0030
0001
,  // measure 63
0100
0000
0100
0001
0000
1000
0001
1000
,  // measure 64
0001
1000
0200
0000
0000
0000
1300
0100
,  // measure 65
0000
0100
2000
0000
0000
3002
0000
0000
,  // measure 66
0203
0000
0000
0301
1000
0001
1000
0001
,  // measure 67
0000
1000
0001
0000
0001
0100
0000
0010
,  // measure 68
0100
0000
0001
1000
0010
0100
0001
0100
,  // measure 69
0010
1000
0002
0000
0000
1003
0100
0000
,  // measure 70
0100
1000
0000
0001
1000
0100
0010
0001
,  // measure 71
0010
0100
1000
0001
1000
0001
0100
0001
,  // measure 72
0100
0001
0010
0100
0010
0100
1000
0000
,  // measure 73
0000
0000
0000
1001
,  // measure 74
0000
0000
0000
0000
,  // measure 75
0000
1000
0100
0000
1000
0100
0000
1000
,  // measure 76
0001
0000
1000
0001
0000
0100
0001
0000
,  // measure 77
0100
0001
0000
0010
0100
0000
0010
0100
,  // measure 78
0000
1000
0002
0000
0000
0000
0000
0000
,  // measure 79
0000
0000
0000
1003
0001
1000
0000
0000
,  // measure 80
0100
0010
0100
0010
0100
0010
0100
0010
,  // measure 81
0100
0010
0001
1000
0001
1000
0001
1000
,  // measure 82
0001
1000
0001
1000
0001
1000
0001
1000
,  // measure 83
0001
1000
0001
1000
0010
1000
0010
1000
,  // measure 84
0010
1000
0010
1000
0010
1000
0010
1000
,  // measure 85
0001
1000
0001
1000
0001
1000
0001
1000
,  // measure 86
0001
0000
1001
0000
,  // measure 87
0000
0000
0000
0000
,  // measure 88
0000
1000
0001
1000
0000
0000
0000
0000
;

//---------------dance-single - ----------------
#NOTES:
     dance-single:
     :
     Beginner:
     3:
     0.066,0.148,0.090,0.000,0.000:
0000
0000
0000
0000
,
0000
0000
0000
0000
,
0000
0000
0000
0000
0000
1001
0000
0000
,
0000
0000
0000
0000
,
0000
0000
0000
0000
,
0000
0000
0000
0000
,
0000
0000
0110
0000
,
0000
0000
0000
0000
,
0000
0000
0010
0000
,
0000
0000
0000
0000
,
0000
0000
0000
0100
,
0000
0000
0000
0000
,
0000
0000
0000
0000
,
0010
0000
0000
0000
,
0000
0000
0000
0000
,
1000
0000
0000
0000
,
0000
0000
0000
0000
,
0000
0000
0000
0000
,
0000
0000
0000
0000
,
0000
0001
0000
0000
,
0000
0000
0000
0000
,
0000
0000
1000
0000
,
0000
0000
0000
0000
,
0000
0000
0001
0000
,
0000
0000
0000
0000
,
0000
0000
0000
0010
,
0000
0000
0000
0000
,
0000
0000
0000
1001
,
0000
0000
0000
0000
,
0000
0000
0000
0000
,
0000
0000
0000
0000
,
0000
0000
0000
0000
,
0000
0000
0000
0000
,
0000
0000
0000
0001
,
0000
0000
0000
0010
,
0000
0000
0000
0100
,
0000
0000
0000
1000
,
0000
0000
0000
1001
,
0000
0000
0000
0000
,
0000
0000
0000
0001
,
0000
0000
0000
0000
,
0000
0000
0000
0000
,
0010
0000
0000
0000
,
0000
0000
0000
0000
,
0001
0000
0000
0000
,
0000
0000
0000
0000
,
0100
0000
0000
0000
,
0000
0000
0000
0000
,
0000
0000
0000
0000
,
0000
0000
0000
0000
,
0000
0000
0110
0000
,
0000
0000
0000
0000
,
0000
0000
0010
0000
,
0000
0000
0000
0000
,
0000
0000
0000
0100
,
0000
0000
0000
0000
,
0000
0000
0000
0000
,
0010
0000
0000
0000
,
0000
0000
0000
0000
,
1000
0000
0000
0000
,
0000
0000
0000
0000
,
0010
0000
0000
0000
,
0000
0000
0000
0000
,
0000
0100
0000
0000
,
0000
0000
0000
0000
,
0000
0001
0000
0000
,
0000
0000
0000
0000
,
0000
0000
1000
0000
,
0000
0000
0000
0000
,
0000
0000
1001
0000
,
0000
0000
0000
0000
,
0000
0000
0000
0000
,
0000
0000
0000
0110
,
0000
0000
0000
0000
,
0000
0000
0000
0000
,
0000
0000
0000
0000
,
0000
0000
0000
0000
,
0000
0000
0000
0000
,
0000
0000
0000
0000
,
0000
0000
0000
0000
,
0000
0000
0000
0000
,
0000
0000
0000
0000
,
0000
0000
0000
0000
,
0000
0000
0000
0000
,
0000
0000
0000
0000
,
0000
0000
0100
0000
,
0000
0000
0000
0000
,
0000
0000
0110
0000
;
