#TITLE:Custom-made Girl;
#SUBTITLE:-NOT FOR SALE!- (Bossa Arr.);
#ARTIST:Bongo Mango Session Band;
#TITLETRANSLIT:;
#SUBTITLETRANSLIT:;
#ARTISTTRANSLIT:;
#CREDIT:DigiMindAxel;
#BANNER:Custom-made Girl -NOT FOR SALE!- (Bossa Arr.).png;
#BACKGROUND:Custom-made Girl -NOT FOR SALE!- (Bossa Arr.)-bg.png;
#LYRICSPATH:Custom-made Girl -NOT FOR SALE!- (Bossa Arr.).lrc;
#CDTITLE:Konami original REMIX.png;
#MUSIC:Custom-made Girl -NOT FOR SALE!- (Bossa Arr.).mp3;
#METERTYPE:DDR X;
#OFFSET:-12.565;
#SAMPLESTART:72.862;
#SAMPLELENGTH:12.000;
#SELECTABLE:YES;
#BPMS:0.000=88.000;
#STOPS:;
#BGCHANGES:;

//---------------dance-single - ----------------
#NOTES:
     dance-single:
     :
     Easy:
     2:
     0.126,0.205,0.119,0.037,0.005:
2002
0000
0000
3003
0000
0110
0000
0000
,
2002
0000
0000
3003
0000
0110
0000
0000
,
0010
0000
0010
0000
,
0100
0000
0100
0000
,
0001
0000
1000
0000
,
0001
0000
0010
0000
,
0100
0000
0100
0000
,
0010
0000
0010
0000
,
0001
0000
1000
0000
,
0010
0000
0000
0000
,
0000
0000
0000
0000
0000
0110
0000
0000
,
1000
0000
0010
0000
,
1000
0000
0100
0000
,
0010
0000
0100
0000
,
0010
0000
0001
0000
,
1000
0000
1000
0000
,
0001
0000
0001
0000
,
0010
0000
0100
0000
,
0010
0000
0000
0000
,
0001
0000
1001
0000
,
1000
0000
0001
0000
,
0100
0000
0110
0000
,
0010
0100
0010
0100
,
0001
1000
0001
0000
,
0010
0001
0010
0001
,
1000
0100
0010
0000
,
0100
1000
0100
1000
,
0001
0100
0010
0000
,
1000
0001
1000
0001
,
0010
0100
1000
0000
,
1001
0000
1000
0000
,
1001
0000
0001
0000
,
0110
0000
0100
0000
,
0110
0000
0001
0000
,
1001
0000
0000
0000
0000
0000
0000
1001
0000
0000
0000
0000
0000
0000
0000
0000
;

//---------------dance-single - ----------------
#NOTES:
     dance-single:
     :
     Medium:
     6:
     0.271,0.333,0.247,0.064,0.069:
1001
0000
0000
1000
0000
0000
0000
1000
0000
0000
0110
0000
0000
0000
0000
0000
,
1001
0000
0000
0001
0000
0000
0000
0001
0000
0000
0110
0000
0000
0000
0000
0000
,
1000
0000
0100
0000
1000
0100
1000
0000
,
0010
0100
0001
0000
0001
0100
0010
0000
,
0100
0000
0001
0000
0100
0001
0100
0000
,
0001
1000
0001
1000
,
0100
1000
0100
1000
0100
0000
1000
0000
,
0010
0100
0010
0100
0010
0000
1000
0000
,
0001
0010
0001
0010
0001
0000
0100
0000
,
0220
0000
0000
0330
,
0020
0000
0000
0000
0030
0110
0110
0000
,
0010
0100
0010
0000
1000
0100
1000
0000
,
0100
0010
0001
0000
0001
0010
0100
0000
,
0010
0001
0010
0000
0001
1000
0001
0000
,
0100
0010
1000
0000
1000
0010
0100
0000
,
0001
1000
0001
1000
0001
0000
0010
0000
,
0100
1000
0100
1000
0100
0000
1000
0000
,
0001
0100
0001
0100
0001
0000
1000
0000
,
0020
0100
0000
0030
,
0100
0001
0100
0000
0110
0000
0000
0000
,
0100
0010
0100
0000
0001
1000
0001
0000
,
0010
0001
0010
0100
1000
1000
1000
0000
,
1001
1100
0100
1100
,
1000
0100
0010
0001
0000
0000
1000
0000
,
0001
0011
0010
0011
,
0001
0100
0010
1000
0000
0000
0001
0000
,
1000
1010
0010
1010
,
1000
0100
0010
0001
0000
0000
1000
0000
,
0001
0101
0100
0101
,
0001
0010
0100
1000
0000
0000
0001
0000
,
1001
0000
1000
0000
0000
0020
0000
1030
0000
0000
0000
0000
0000
0000
0000
0000
,
1001
0000
0001
0000
0000
0020
0000
0031
0000
0000
0000
0000
0000
0000
0000
0000
,
0110
0000
0110
0000
0000
1000
0010
1000
0000
0000
0000
0000
0000
0000
0000
0000
,
0110
0000
0110
0000
0000
0101
0000
0101
0000
0000
1000
0001
1000
0000
1000
0000
,
1001
0000
1001
0000
0000
0010
0100
0002
0000
0000
0003
0000
0000
0000
0000
0000
;

//---------------dance-single - ----------------
#NOTES:
     dance-single:
     :
     Hard:
     11:
     0.522,0.523,0.321,0.156,0.659: // measure 1
0001
0100
0000
0101
0000
0101
0000
1001
0000
0000
2002
0000
3003
0000
0000
0000
,  // measure 2
1000
0100
0000
1100
0000
1100
0000
1001
0000
0000
2002
0000
3003
1000
0000
1000
,  // measure 3
0002
0000
0000
0103
0001
0100
0000
0001
0000
0010
0000
0100
0000
1000
0001
0000
,  // measure 4
1000
0000
0100
0000
0001
0100
0000
0000
1000
0001
0000
0001
0100
0000
0001
0000
,  // measure 5
1000
0000
0100
0000
0010
0100
0010
0000
0001
1000
0000
1000
0010
0000
1000
0000
,  // measure 6
0001
0000
0010
0001
0010
0001
0000
1000
0001
0000
0001
1000
0010
0000
0100
0000
,  // measure 7
0210
0000
0000
0301
0010
0001
0000
0010
0100
1000
0000
1000
0001
0000
0001
0000
,  // measure 8
0100
0000
0010
1000
0010
1000
0000
0100
0010
0001
0000
0001
1000
0000
1000
0000
,  // measure 9
0001
0000
1000
0010
0100
0010
0000
1000
0000
0001
0000
0001
0100
0000
0100
0000
,  // measure 10
0110
0000
0010
0000
0000
0010
0000
0010
0000
0010
1000
0100
0010
0001
0010
0000
,  // measure 11
0001
1000
0001
1000
0001
0000
0000
0000
0100
0000
0100
0000
0000
0000
0100
0000
0000
0000
0000
0000
1001
0000
0000
0000
1001
0000
1001
0000
0000
0000
0000
0000
,  // measure 12
0101
0000
0000
0100
0010
0100
0000
0001
0000
0010
0000
0100
0000
1000
0001
0000
,  // measure 13
1000
0000
0100
0000
0002
0000
0000
0103
1000
0100
0000
0010
0100
1000
0100
0000
,  // measure 14
0010
0000
0010
0000
0001
0100
0010
0000
1000
0001
0000
0001
1000
0010
1000
0000
,  // measure 15
0110
0000
0010
0100
1000
0200
0000
0310
0001
1000
0010
0100
0001
0100
0001
0000
,  // measure 16
1001
0000
1000
0100
0010
0001
0000
0012
0000
1000
0000
1003
0001
0000
0001
0000
,  // measure 17
1001
0000
0001
0000
0010
0100
0000
2100
0000
0001
0000
3001
1000
0000
1000
0000
,  // measure 18
0001
0000
1000
0010
0100
0001
0000
1001
0000
0000
0010
0000
0100
0000
1000
0000
,  // measure 19
0001
0000
0001
0000
0010
0001
0000
0001
0000
0001
1000
0010
0100
0001
0100
0000
,  // measure 20
0001
0000
0001
0000
0010
0001
0000
0001
2000
0000
0000
0000
0000
0000
0000
0000
,  // measure 21
3001
0000
1000
0010
0100
0010
1000
0100
1000
0001
0000
0001
0000
0001
1000
0000
,  // measure 22
0001
0000
1000
0100
0010
0100
1000
0001
0200
0000
0001
0000
0301
0000
0000
0000
,  // measure 23
1002
0100
0010
0100
1003
0000
1001
0000
,  // measure 24
1000
0000
0100
0000
0001
0000
0010
0000
1000
0001
1000
0001
0010
0000
0010
0100
,  // measure 25
1000
0000
0100
0000
0001
0000
0010
0000
1000
0000
0001
1000
0020
0000
1000
0000
,  // measure 26
1030
0000
0100
0000
0001
0000
0010
0000
1000
0001
1000
0001
0100
0000
0100
0010
,  // measure 27
1000
0000
1002
0000
0000
0000
1003
0000
0001
0000
0100
0010
0100
0010
1000
0000
,  // measure 28
0001
0000
0100
0000
1000
0000
0010
0000
0001
1000
0001
0000
0001
1000
0100
1000
,  // measure 29
0100
0001
0100
1000
0001
0001
0001
1000
,  // measure 30
0100
0000
0001
0000
0010
0000
1000
0000
0001
0000
1000
0001
1000
0010
0000
0000
,  // measure 31
0110
0000
0000
0000
1001
0000
0000
0000
0000
0000
1000
0000
0100
0000
0010
0000
0001
0010
0001
0010
0001
0000
0000
0000
1000
0000
1000
0000
0000
0000
0001
0000
,  // measure 32
1001
0000
0000
0000
0000
0000
0110
0000
0000
0000
0000
0000
0000
0000
0000
0100
0000
0000
0001
0000
0000
0010
0000
0000
0001
0000
1000
0000
0010
0000
1000
0000
0000
0000
1000
0000
0001
0000
0000
0000
0001
0000
1000
0000
0000
0000
0010
0000
,  // measure 33
0110
0000
0000
0000
1001
0000
0000
0000
0000
0000
0001
0000
0100
0000
0010
0000
1000
0001
1000
0001
1000
0001
1000
0001
1000
0000
0100
0000
0000
0000
1000
0000
,  // measure 34
1001
0000
0110
0000
0000
0100
0001
0101
0000
0001
1000
1000
1000
0000
1000
0000
,  // measure 35
0110
0000
1001
0000
0000
0100
1000
2200
0000
0000
3300
0000
0000
0000
0000
0000
;

//---------------dance-single - ----------------
#NOTES:
     dance-single:
     :
     Beginner:
     1:
     0.055,0.079,0.064,0.000,0.000:
1001
0000
0000
0000
,
1001
0000
0000
0000
,
0010
0000
0000
0000
,
0100
0000
0000
0000
,
0010
0000
0000
0000
,
0100
0000
0000
0000
,
1000
0000
0000
0000
,
0001
0000
0000
0000
,
1000
0000
0000
0000
,
0010
0000
0000
0000
,
0000
0000
0000
0000
,
0110
0000
0000
0000
,
0100
0000
0000
0000
,
0010
0000
0000
0000
,
0100
0000
0000
0000
,
0001
0000
0000
0000
,
0001
0000
0000
0000
,
1000
0000
0000
0000
,
1000
0000
0000
0000
,
0010
0000
0000
0000
,
0110
0000
0000
0000
,
0100
0000
0000
0000
,
0001
0000
0000
0000
,
0010
0000
0000
0000
,
0100
0000
0000
0000
,
1000
0000
0000
0000
,
0001
0000
0000
0000
,
0010
0000
0000
0000
,
0100
0000
0000
0000
,
1000
0000
0000
0000
,
1001
0000
0000
0000
,
0010
0000
0000
0000
,
0110
0000
0000
0000
,
0100
0000
0000
0000
,
1001
0000
0001
0000
;
