#TITLE:Crash;
#SUBTITLE:;
#ARTIST:RAM;
#TITLETRANSLIT:;
#SUBTITLETRANSLIT:;
#ARTISTTRANSLIT:;
#CREDIT:DigiMindAxel;
#BANNER:Crash.png;
#BACKGROUND:Crash-bg.png;
#LYRICSPATH:Crash.lrc;
#CDTITLE:Walk It Out!.png;
#MUSIC:Crash.mp3;
#METERTYPE:DDR X;
#OFFSET:-9.421;
#SAMPLESTART:61.074;
#SAMPLELENGTH:12.000;
#SELECTABLE:YES;
#BPMS:0.000=130.000;
#STOPS:;
#BGCHANGES:;

//---------------dance-single - ----------------
#NOTES:
     dance-single:
     :
     Easy:
     3:
     0.164,0.197,0.074,0.147,0.000:
0002
0000
0000
0000
,
2003
0000
0000
0000
,
3002
0000
0000
0000
,
1003
0000
0000
0000
,
1001
0000
1000
0000
,
0010
0000
0010
0000
,
1000
0000
1000
0000
,
0001
0000
0001
0000
,
0010
0000
0010
0000
,
0001
0000
0001
0000
,
1000
0000
0001
0000
,
1000
0000
0000
0000
,
1001
0000
1000
0000
,
0100
0000
0010
0000
,
0100
0000
1000
0000
,
0001
1000
0001
0000
,
0100
0000
0010
0000
,
0100
0000
0001
0000
,
1000
0000
0001
0000
,
1001
0000
0000
0000
,
2001
0000
0000
0000
,
3002
0000
0000
0000
,
2003
0000
0000
0000
,
3002
0000
0000
0000
,
1003
0000
0100
0000
,
0010
0000
0001
0000
,
0010
0000
0100
0000
,
2002
0000
0000
3003
,
0001
0000
0010
0000
,
0001
0000
0010
0000
,
0001
0000
1000
0000
,
0001
1000
0001
0000
,
1000
0000
0010
0000
,
1000
0000
0001
0000
,
1000
0000
0010
0000
,
0100
0010
0100
0000
,
1001
0000
0001
0000
,
1000
0000
0100
0000
,
1000
0000
0001
0000
,
0001
0000
1000
0000
,
0010
0000
1000
0000
,
0001
1000
0001
0000
,
0010
0000
0100
0000
,
2000
0000
0000
3000
,
1001
0000
0001
0000
,
0010
0000
0001
0000
,
1000
0000
0100
0000
,
1000
0000
0001
0000
,
1000
0000
1000
0000
,
0001
0000
0001
0000
,
0100
0000
0010
0000
,
1000
1000
1000
0000
,
2001
0000
3002
0000
,
1000
0000
1003
0000
,
0020
0000
0032
0000
,
1000
0000
1003
0000
,
0200
0000
2300
0000
,
0001
0000
3001
0000
,
0200
0000
0302
0000
,
1003
0000
0000
0000
,
1001
0000
0000
0000
;

//---------------dance-single - ----------------
#NOTES:
     dance-single:
     :
     Beginner:
     1:
     0.054,0.098,0.008,0.000,0.000:
1000
0000
0000
0000
,
0000
0000
0000
0000
,
0000
0000
0000
0000
,
0001
0000
0000
0000
,
0001
0000
0000
0000
,
0000
0000
0000
0000
,
1000
0000
0000
0000
,
0000
0000
0000
0000
,
0001
0000
0000
0000
,
0000
0000
0000
0000
,
1000
0000
0000
0000
,
0000
0000
0000
0000
,
1000
0000
0000
0000
,
0000
0000
0000
0000
,
0001
0000
0000
0000
,
0000
0000
0000
0000
,
0100
0000
0000
0000
,
0000
0000
0000
0000
,
0100
0000
0000
0000
,
0000
0000
0000
0000
,
0010
0000
0000
0000
,
0000
0000
0000
0000
,
0010
0000
0000
0000
,
0000
0000
0000
0000
,
0010
0000
0000
0000
,
0000
0000
0000
0000
,
1000
0000
0000
0000
,
1000
0000
0000
0000
,
1000
0000
0000
0000
,
0001
0000
0000
0000
,
1000
0000
0000
0000
,
0001
0000
0000
0000
,
0010
0000
0000
0000
,
0010
0000
0000
0000
,
0100
0000
0000
0000
,
0100
0000
0000
0000
,
1000
0000
0000
0000
,
0001
0000
0000
0000
,
1000
0000
0000
0000
,
0001
0000
0000
0000
,
1000
0000
0000
0000
,
0010
0000
0000
0000
,
0100
0000
0000
0000
,
0001
0000
0000
0000
,
1000
0000
0000
0000
,
0000
0000
0000
0000
,
0001
0000
0000
0000
,
0000
0000
0000
0000
,
1000
0000
0000
0000
,
0000
0000
0000
0000
,
0001
0000
0000
0000
,
1000
0000
0000
0000
,
0001
0000
0000
0000
,
0010
0000
0000
0000
,
0001
0000
0000
0000
,
1000
0000
0000
0000
,
0100
0000
0000
0000
,
1000
0000
0000
0000
,
0001
0000
0000
0000
,
0001
0000
0000
0000
,
1001
0000
0000
0000
;

//---------------dance-single - ----------------
#NOTES:
     dance-single:
     :
     Medium:
     8:
     0.403,0.393,0.066,0.377,0.029:
1002
0000
0010
0000
,
0010
0000
2003
0000
,
0100
0000
3100
0000
,
1001
0000
0000
0000
,
1000
0010
0100
0010
0000
1000
0000
0001
,
0000
0001
0100
0010
0000
0000
0000
0000
,
1000
0100
0010
0100
0000
1000
0000
0001
,
0000
0001
0100
0010
0000
0000
0000
0000
,
0100
0010
0100
0001
0000
1000
0000
0001
,
0000
0010
0100
1000
0000
0000
0100
0010
,
0100
1000
0000
0001
0000
1000
0000
0001
,
0100
0000
0010
0000
0000
0000
0200
0000
0000
0010
0000
0000
0310
0000
0000
0000
,
1000
0000
0010
0000
0100
0000
0001
0100
,
0000
0100
0010
0200
0000
0000
0301
0000
,
1000
0000
0100
0000
0010
0000
0100
1000
,
0000
1000
0001
0020
0000
0001
0000
0000
,
0031
0000
2000
0000
0000
3001
0010
0001
,
0010
0000
0100
0020
0000
0000
0031
0000
,
1000
0010
0100
0010
0000
1000
0000
0001
,
1000
0000
1000
0000
1000
0000
1000
0000
1000
0000
0000
0001
1000
0000
0000
0000
,
1001
0000
0000
2000
0000
0000
0200
0000
0000
0000
0000
0000
3300
0000
0000
0000
,
1001
0000
0000
0002
0000
0000
0020
0000
0000
0000
0000
0000
0033
0000
0000
0000
,
1001
0000
0000
0002
0000
0000
0200
0000
0000
0000
0000
0000
0303
0000
0000
0000
,
1001
0000
0000
2000
0000
0000
0020
0000
0000
0000
0000
0000
3030
0000
0000
0000
,
2000
0010
3002
0100
,
2003
0010
3002
0100
,
2003
0100
3001
0010
,
0220
0000
0000
0330
,
0001
0100
0010
0200
0000
0301
0010
0100
,
0000
1000
0001
1000
0100
0000
0100
0000
,
1000
0010
0100
0020
0000
1030
0100
0010
,
0000
0001
1000
0001
0010
0000
0010
0000
,
0001
0010
0100
0020
0000
0031
0100
0010
,
0000
1000
0001
1000
0100
0000
0100
0000
,
1000
0100
0010
0200
0000
1300
0010
0100
,
0000
0001
1000
0001
0010
0000
0010
0000
,
0001
0100
0010
2000
0000
3100
0010
0001
,
0000
0100
0000
0001
1000
0000
0001
0000
,
1000
0010
0100
0002
0000
0013
0100
1000
,
0000
0001
0000
1000
0001
0000
1000
0000
,
0001
0010
0100
2000
0000
3010
0100
0001
,
1000
0001
0010
0200
0000
0000
0300
0000
,
1000
0100
0010
0002
0000
0103
0010
1000
,
0001
0001
0001
0000
1000
0000
0001
0010
,
0002
0000
0010
0000
,
0013
0000
0100
0000
1000
0000
0010
0100
,
0010
1000
0001
1000
0001
1000
0000
0010
,
0100
0001
1000
0001
0000
0000
1000
0100
,
2000
0000
0100
0000
,
3100
0000
0010
0000
0001
0000
0100
0010
,
0100
0001
1000
0001
1000
0001
0000
0010
,
0100
0000
0100
0000
0100
0000
0100
0000
0100
0000
0000
1000
0001
0000
0001
0000
,
0200
0000
0301
2000
0000
3002
0000
0100
,
0000
0100
0000
0203
0000
0310
1000
0000
,
0020
0000
1030
0002
0000
0000
0000
1003
,
0010
0100
0001
2000
0000
0001
0000
3001
,
0020
0000
0031
2000
0000
3002
0000
0100
,
0000
0103
0010
0200
0000
0301
0100
0020
,
0000
1030
0001
0010
0001
1000
0100
0010
,
0000
0001
1000
0200
0000
1300
0001
0000
,
1001
0000
0000
0000
;

//---------------dance-single - ----------------
#NOTES:
     dance-single:
     :
     Hard:
     9:
     0.496,0.442,0.082,0.451,0.098: // measure 1
1001
0000
0000
2000
0000
0000
0020
0000
0000
0000
0000
0000
3030
0000
0000
0000
,  // measure 2
1000
0000
0000
0002
0000
0000
0020
0000
0000
0000
0000
0000
0033
0000
0000
0000
,  // measure 3
0010
0000
0000
2000
0000
0000
0001
0000
0000
0000
0002
0000
0000
0000
3003
0000
,  // measure 4
0220
0000
0000
0330
,  // measure 5
0001
0100
0010
0100
0000
0101
0000
1010
,  // measure 6
0000
1000
0100
0020
0000
0000
0130
0000
,  // measure 7
1000
0100
0010
0100
0000
1100
0000
0011
,  // measure 8
0000
0001
0100
0020
0000
0000
1030
0000
,  // measure 9
0001
0010
0100
0010
0000
0010
0001
1000
,  // measure 10
0000
1000
0010
0200
0000
0000
0301
0100
,  // measure 11
0010
1000
0100
0010
0000
0110
0000
0100
,  // measure 12
0010
0000
0001
1000
0000
0000
0010
0000
1000
0001
0000
0000
1000
0000
0000
0000
,  // measure 13
0001
0000
0000
1000
0000
0000
0200
0000
0000
0000
0310
0000
0000
0000
0100
0000
,  // measure 14
0000
1000
0001
0100
0001
0010
0100
0000
,  // measure 15
1000
0000
0000
0001
0000
0000
0020
0000
0000
0000
0130
0000
0000
0000
0010
0000
,  // measure 16
0000
0001
1000
0010
1000
0100
0010
0000
,  // measure 17
0001
0000
0000
1000
0000
0000
0020
0000
0000
0000
0130
0000
0000
0000
0010
0000
,  // measure 18
1000
0001
0010
0001
1000
0100
0010
0000
,  // measure 19
0001
0000
0000
1000
0000
0000
0020
0000
0000
0000
1030
0000
0100
0000
0010
0000
,  // measure 20
0001
0000
0001
0000
1000
0000
1000
0000
0001
0000
0000
0100
0010
0000
0010
0000
,  // measure 21
0210
0000
0000
0320
0000
0000
0032
0000
0000
0000
1000
0000
1003
0000
0000
0000
,  // measure 22
0002
0000
0000
2003
0000
0000
3200
0000
0000
0000
0010
0000
0310
0000
0000
0000
,  // measure 23
0002
0000
2003
0000
3002
0000
0000
0100
,  // measure 24
0000
0203
0000
0320
0000
1000
1030
0000
,  // measure 25
0002
0000
0000
0010
0000
0000
0013
0000
0200
0000
0000
1000
0000
0000
1300
0000
,  // measure 26
0002
0000
0000
0100
0000
0000
0103
0000
0020
0000
0000
1000
0000
0000
1030
0000
,  // measure 27
0002
0000
0000
1000
0000
0000
1003
0000
0200
0000
0000
0010
0000
0000
0310
0000
,  // measure 28
2002
0000
0000
3000
0000
1000
1000
1000
,  // measure 29
1003
0010
0100
0020
0000
1030
0001
0100
,  // measure 30
0010
0001
0010
0100
0001
0000
1000
0000
,  // measure 31
0001
0010
0100
0020
0000
0031
1000
0100
,  // measure 32
0010
0100
1000
0001
0100
0000
0001
0000
,  // measure 33
1000
0100
0001
0200
0000
1300
0001
0010
,  // measure 34
0000
0010
0001
2000
0000
0000
3001
0000
,  // measure 35
1000
0010
0001
0020
0000
1030
0001
0100
,  // measure 36
0000
0100
0001
0010
0100
0000
1000
0000
,  // measure 37
1001
1000
0010
2000
0000
3001
0010
0200
,  // measure 38
0000
1000
0000
1300
0001
0010
0001
0000
,  // measure 39
0001
1000
0100
0001
0100
1000
0001
0020
,  // measure 40
0000
0001
0000
0031
1000
0100
1000
0000
,  // measure 41
0001
1000
0010
0001
0010
1000
0001
0100
,  // measure 42
0001
1000
0100
0020
0000
0000
0130
0000
,  // measure 43
1000
0001
0100
1000
0100
0001
1000
0010
,  // measure 44
1000
0000
0001
0010
0000
0000
0001
0000
1000
0010
0000
0000
1000
0000
1000
0000
,  // measure 45
0001
0010
0100
1000
0000
1000
0100
1000
,  // measure 46
0001
0100
0010
1000
0000
1000
0010
1000
,  // measure 47
0001
0010
0100
0010
0001
0100
1000
0100
,  // measure 48
0001
1000
0010
0200
0000
0000
0301
1000
,  // measure 49
0001
0100
0010
1000
0000
1000
0010
1000
,  // measure 50
0001
0010
0100
1000
0000
1000
0100
1000
,  // measure 51
0001
0100
0010
0100
0001
0010
1000
0010
,  // measure 52
0001
0000
0001
0000
1000
0000
1000
0000
0001
0000
0000
0100
0010
0000
0010
0000
,  // measure 53
0020
0000
0130
0002
0000
0013
0100
2000
,  // measure 54
0000
3010
0100
0002
0000
0103
0010
0100
,  // measure 55
0002
0000
1003
0020
0000
1000
0000
1030
,  // measure 56
0010
0001
0010
2000
0000
3001
0010
0100
,  // measure 57
2000
0000
3001
0100
0010
0200
0000
0301
,  // measure 58
0100
1000
0100
0002
0000
0013
0100
2000
,  // measure 59
0000
3001
0100
1000
0100
0001
0010
1000
,  // measure 60
0010
0000
0001
1000
0000
0000
0001
0000
1000
0100
0000
0000
1000
0000
0001
1000
,  // measure 61
0001
0000
0000
0000
;
