#TITLE:Comic Sonic;
#SUBTITLE:;
#ARTIST:the pillows;
#TITLETRANSLIT:;
#SUBTITLETRANSLIT:;
#ARTISTTRANSLIT:;
#CREDIT:DigiMindAxel;
#BANNER:Comic Sonic.png;
#BACKGROUND:Comic Sonic-bg.png;
#LYRICSPATH:Comic Sonic.lrc;
#CDTITLE:DigiMindAxel original simfile.png;
#MUSIC:Comic Sonic.mp3;
#METERTYPE:DDR X;
#OFFSET:-6.830;
#SAMPLESTART:45.160;
#SAMPLELENGTH:12.000;
#SELECTABLE:YES;
#BPMS:0.000=150.000;
#STOPS:;
#BGCHANGES:-16.000=Comic Sonic.avi=1.000=1=1=0,
99999=-nosongbg-=1.000=0=0=0 // don't automatically add -songbackground-
;

//---------------dance-single - ----------------
#NOTES:
     dance-single:
     :
     Easy:
     3:
     0.161,0.275,0.141,0.022,0.000:
0001
0000
0000
0000
,
1000
0000
0000
0000
,
0100
0000
0000
0000
,
0010
0000
0000
0000
,
0001
0000
1000
0000
,
0001
0000
0000
0000
,
0010
0000
0100
0000
,
1000
0000
0000
0000
,
0001
0000
1000
0000
,
0001
0000
0000
0000
,
0100
0000
0010
0000
,
1000
0000
1000
0000
,
1001
0000
0000
0000
,
0001
0000
0000
0000
,
0110
0000
0000
0000
,
0100
0000
0000
0000
,
1001
0000
0000
0000
,
0001
0000
0000
0000
,
0100
0000
0000
0000
,
0010
0000
0000
0000
,
1000
0000
0000
0000
,
0001
0000
0000
0000
,
1000
0000
0001
0000
,
1001
0000
0000
0000
,
0010
0000
0100
0000
,
0010
0000
0100
0000
,
0001
0000
0010
0000
,
0001
0000
0010
0000
,
0001
0000
0001
0000
,
1000
0000
1000
0000
,
0100
0000
1000
0000
,
0100
0000
1000
0000
,
0010
0000
0010
0000
,
0010
0000
0010
0000
,
0100
0000
0100
0000
,
0100
0000
0100
0000
,
0001
0000
1000
0000
,
0001
0000
1000
0000
,
0100
0000
1000
0000
,
0010
0000
0100
0000
,
0001
0000
0001
0000
,
0001
0000
0001
0000
,
1001
0000
1001
0000
,
0010
0100
0010
0100
,
0110
0000
0110
0000
,
0010
0100
0010
0100
,
0110
0000
0110
0000
,
1000
0001
1000
0001
,
1001
0000
1001
0000
,
1000
0001
2002
0000
,
0000
0000
0000
3003
;

//---------------dance-single - ----------------
#NOTES:
     dance-single:
     :
     Medium:
     7:
     0.311,0.386,0.054,0.054,0.005:
1000
0000
0000
1000
0000
0000
0000
0000
,
0100
0000
0000
0100
0000
0000
0000
0000
,
0010
0000
0000
0010
0000
0000
0000
0000
,
0001
0000
0000
0001
0000
0000
1000
0000
,
0001
0000
0000
0001
0000
0000
0100
0000
,
0010
0000
0000
0010
0000
0000
1000
0000
,
0001
0000
0000
0001
0000
0000
0010
0000
,
0100
0000
0000
0100
0000
0000
1000
0000
,
0010
0000
0000
0010
0000
0000
1000
0000
,
0001
0000
0000
0001
0000
0000
0010
0000
,
0100
0000
0000
0100
0000
0000
1000
0000
,
0010
0000
0000
0010
0000
0000
0100
0000
,
0110
0000
0000
0200
0000
0000
0301
0000
,
0020
0000
0000
0030
,
0001
0000
0000
0020
0000
0000
0130
0000
,
2000
0000
0000
3000
,
1001
0000
0000
0001
0000
0000
0010
0000
,
0100
0000
0000
0100
0000
0000
0010
0000
,
0001
0000
0000
0001
0000
0000
1000
0000
,
0010
0000
0000
0010
0000
0000
0100
0000
,
0010
0000
0000
0010
0000
0000
1000
0000
,
0001
0000
0000
0001
0000
0000
0010
0000
,
0110
0000
0000
0100
0000
0000
1000
0000
,
1001
1001
0000
0000
,
0001
0100
1000
0100
,
0001
0000
1000
0001
1000
0000
0000
0000
,
0001
0010
1000
0010
,
0001
0000
1000
0001
1000
0000
0000
0000
,
0001
0100
0001
0000
1000
0010
1000
0000
,
0100
0010
0001
0000
,
1000
0001
1000
0100
,
1000
0000
0001
0000
0100
0010
0100
0010
,
1000
0100
0001
0100
,
1000
0000
0001
1000
0001
0000
0000
0000
,
1000
0010
0001
0010
,
1000
0000
0001
1000
0001
0000
0000
0000
,
1000
0100
1000
0000
0001
0010
0001
0000
,
0100
0010
1000
0000
,
0010
0100
0001
0100
,
0010
0100
0001
1000
,
0100
1000
0100
0010
,
0001
0010
0001
1000
,
0001
0001
0001
0000
1000
1000
1000
0000
,
0010
0100
0010
0100
0010
0100
0010
0000
,
1000
1000
1000
0000
0001
0001
0001
0000
,
0100
0010
0100
0010
0100
0010
0100
0000
,
0001
0001
0001
0000
1000
1000
1000
0000
,
0100
0010
0100
0010
0100
0010
0100
0000
,
1000
1000
1000
0000
0001
0001
0001
0000
,
0010
0100
0010
0100
0020
0000
0000
0000
,
0000
0000
0000
0000
0000
0000
0000
0000
0000
0000
0000
0000
0000
0130
0000
0000
;

//---------------dance-single - ----------------
#NOTES:
     dance-single:
     :
     Hard:
     12:
     0.587,0.664,0.076,0.260,0.255: // measure 1
1000
0000
0001
0200
0000
0000
0301
0000
,  // measure 2
1000
0000
0100
0020
0000
0001
0031
0000
,  // measure 3
1000
0000
0010
0200
0000
0000
0310
0000
,  // measure 4
1000
0000
0001
0020
0000
0001
0031
0000
,  // measure 5
1000
0100
0010
0000
1000
0000
0010
0000
,  // measure 6
0001
1000
0100
0020
0000
0100
0130
0000
,  // measure 7
1000
0010
0100
0000
1000
0000
0100
0000
,  // measure 8
0001
1000
0010
0200
0000
0001
0301
0000
,  // measure 9
1000
0100
0001
0000
1000
0000
0100
0000
,  // measure 10
0010
1000
0001
0020
0000
0100
0130
0000
,  // measure 11
1000
0010
0001
0000
1000
0000
0010
0000
,  // measure 12
0100
1000
0001
0200
0000
0001
0301
0000
,  // measure 13
1002
0000
0000
0023
0000
0000
0130
0000
,  // measure 14
2000
0000
0001
3001
0000
1000
0100
0010
,  // measure 15
0002
0000
0000
0203
0000
0000
0310
0000
,  // measure 16
2000
0000
0001
3001
0000
1000
0010
0100
,  // measure 17
0001
0010
0001
2000
0000
3100
0010
0001
,  // measure 18
0200
0000
0010
0310
0000
1000
0100
1000
,  // measure 19
0001
0100
0001
2000
0000
3010
1000
0100
,  // measure 20
0020
0000
0001
0031
0000
1000
0001
0100
,  // measure 21
0010
0000
0110
0000
0010
0001
1000
0100
,  // measure 22
0020
0000
0100
0130
0000
1000
0001
0010
,  // measure 23
0011
0000
0000
1100
0000
1000
0010
0100
,  // measure 24
0110
0000
0000
0000
0110
0000
0000
0000
1000
0001
1000
0001
1000
0001
1000
0001
,  // measure 25
1000
0100
1000
0100
0010
0100
1000
0001
,  // measure 26
0100
0010
0100
0001
0010
0100
1000
0000
,  // measure 27
0001
0100
0001
0100
0010
0100
0001
0010
,  // measure 28
0100
1000
0100
0010
0100
1000
0010
0000
,  // measure 29
1000
0100
0001
0000
1000
0010
0001
0000
,  // measure 30
1000
0001
0010
0100
1000
0001
0100
0000
,  // measure 31
0002
1000
0100
1003
,  // measure 32
0001
0000
0010
0000
0100
0000
1000
0000
0001
1000
0001
1000
0001
1000
0001
1000
,  // measure 33
0001
0010
0001
0010
0100
0010
0001
1000
,  // measure 34
0010
1000
0001
0010
0100
1000
0001
0000
,  // measure 35
1000
0001
0100
0001
1000
0100
0010
0001
,  // measure 36
0100
0001
0100
0010
1000
0001
1000
0000
,  // measure 37
0001
0010
1000
0000
0001
0100
1000
0000
,  // measure 38
0001
1000
0100
0010
0001
1000
0100
0000
,  // measure 39
2000
0100
0001
3100
,  // measure 40
1000
0100
0010
0001
,  // measure 41
1000
0001
0010
1000
0010
0001
0010
1000
,  // measure 42
0010
0001
0100
1000
0100
0001
0100
1000
,  // measure 43
0100
0001
0100
0001
0100
0000
0000
0000
0001
1000
0001
1000
0001
0000
0000
0000
,  // measure 44
1000
0100
1000
0100
1000
0100
1000
0100
1000
0100
1000
0100
1000
0000
0000
0000
,  // measure 45
0001
1000
0001
1000
0001
0000
0000
0000
0010
0001
0010
0001
0010
0000
0000
0000
,  // measure 46
0001
0100
0001
0100
0001
0100
0001
0100
0001
0100
0001
0100
0001
0000
0000
0000
,  // measure 47
1000
0001
1000
0001
1000
0000
0000
0000
0100
1000
0100
1000
0100
0000
0000
0000
,  // measure 48
1000
0001
1000
0001
1000
0001
0100
0010
0100
0010
0100
0010
0100
0000
0000
0000
,  // measure 49
0010
1000
0010
1000
0010
0000
0000
0000
1000
0001
1000
0001
1000
0000
0000
0000
,  // measure 50
0001
0010
0001
0010
0001
0010
0001
1000
0002
0000
0000
0000
0000
0000
0000
0000
,  // measure 51
0000
0000
0000
0000
0000
0000
0000
0000
0000
0000
0003
0000
0000
0220
0000
0000
,  // measure 52
0330
0000
0000
0000
;

//---------------dance-single - ----------------
#NOTES:
     dance-single:
     :
     Beginner:
     1:
     0.101,0.161,0.130,0.000,0.000:
0001
0000
0000
0000
,
0001
0000
0000
0000
,
0001
0000
0000
0000
,
0001
0000
0000
0000
,
1001
0000
0000
0000
,
0000
0000
0000
0000
,
1000
0000
0000
0000
,
0000
0000
0000
0000
,
0100
0000
0000
0000
,
0000
0000
0000
0000
,
0010
0000
0000
0000
,
0000
0000
0000
0000
,
0100
0000
0000
0000
,
1000
0000
0000
0000
,
0100
0000
0000
0000
,
0010
0000
0000
0000
,
1001
0000
0000
0000
,
0001
0000
0000
0000
,
0100
0000
0000
0000
,
0010
0000
0000
0000
,
0100
0000
0000
0000
,
0010
0000
0000
0000
,
1001
0000
0000
0000
,
0001
0000
0000
0000
,
1001
0000
0000
0000
,
1000
0000
0000
0000
,
0010
0000
0000
0000
,
1000
0000
0000
0000
,
0001
0000
0001
0000
,
0001
0000
0000
0000
,
1000
0000
0000
0000
,
0010
0000
0000
0000
,
1001
0000
0000
0000
,
0001
0000
0000
0000
,
0010
0000
0000
0000
,
0001
0000
0000
0000
,
1000
0000
1000
0000
,
1000
0000
0000
0000
,
0001
0000
0000
0000
,
0100
0000
0000
0000
,
0010
0000
0010
0000
,
0010
0000
0010
0000
,
0110
0000
0000
0000
,
0110
0000
0000
0000
,
1001
0000
0000
0000
,
1001
0000
0000
0000
,
0110
0000
0100
0000
,
0100
0000
0000
0000
,
1001
0000
0001
0000
,
0001
0000
1001
0000
;
