#TITLE:Clione;
#SUBTITLE:Hommarju Remix;
#ARTIST:Hommarju;
#TITLETRANSLIT:;
#SUBTITLETRANSLIT:;
#ARTISTTRANSLIT:;
#CREDIT:DigiMindAxel;
#BANNER:Clione Hommarju Remix.png;
#BACKGROUND:Clione Hommarju Remix-bg.png;
#LYRICSPATH:;
#CDTITLE:SOUND VOLTEX.png;
#MUSIC:Clione Hommarju Remix.mp3;
#METERTYPE:DDR X;
#OFFSET:-7.105;
#SAMPLESTART:57.934;
#SAMPLELENGTH:12.000;
#SELECTABLE:YES;
#BPMS:0.000=170.000;
#STOPS:;
#BGCHANGES:;

//---------------dance-single - ----------------
#NOTES:
     dance-single:
     :
     Easy:
     5:
     0.278,0.318,0.033,0.268,0.000:
0001
0001
0001
0001
,
2000
3010
0100
0010
,
0100
0100
0100
0100
,
2002
0000
0000
3003
,
0020
0000
0000
0000
,
0000
0000
0000
0000
,
0230
0000
0000
0000
,
0000
0000
0000
0000
,
0320
0000
0000
0000
,
0000
0000
0000
0000
,
0032
0000
0000
0000
,
0003
0000
0000
0000
,
2001
0000
0000
0000
,
3200
0000
0000
0000
,
0320
0000
0000
0000
,
0032
0000
0000
0000
,
0203
0000
0000
0000
,
0320
0000
0000
0000
,
2030
0000
0000
0000
,
3001
0000
0000
0000
,
1001
0100
1000
0100
,
1000
0001
1000
0001
,
1000
0100
1000
0100
,
1000
0001
1000
0001
,
0010
0100
0010
0100
,
0010
0001
0010
0001
,
1000
0010
1000
0010
,
0100
0001
0100
0001
,
1000
0100
0010
0001
,
1000
0010
0100
0001
,
1000
0100
0010
0001
,
1000
0010
0100
0001
,
0010
0100
0010
0100
,
0020
0000
0000
0030
,
1002
0000
0000
0000
,
2000
0000
0000
3003
,
0010
0100
0010
0100
,
0010
1000
0010
1000
,
0001
0010
0100
1000
,
0001
0010
0100
1000
,
0001
0100
0001
0100
,
0001
1000
0001
1000
,
0001
0010
0100
1000
,
0010
0100
0010
0100
,
0002
0000
0000
0000
,
2000
0000
0000
3003
,
0200
0000
0000
0000
,
2000
0000
0000
3300
,
0010
0001
0010
0001
,
0010
0001
1000
0001
,
1000
0100
0010
0001
,
2000
0000
0000
0000
,
3020
0000
0000
0000
,
0230
0000
0000
0000
,
0320
0000
0000
0000
,
2030
0000
0000
0000
,
3002
0000
0000
0000
,
2003
0000
0000
0000
,
3200
0000
0000
0000
,
0320
0000
0000
0000
,
0031
1000
0001
1000
,
0100
1000
0100
1000
,
0001
1000
0001
1000
,
0001
0010
0100
1000
,
0010
0010
0100
0100
,
0010
0010
1000
1000
,
0001
0001
0010
0100
,
2000
0000
0000
0000
,
3001
0100
0001
1000
,
0100
1000
0001
0100
,
0001
0010
0100
1000
,
0010
0100
0010
1000
,
0100
0010
0001
1000
,
0010
0010
0100
0100
,
0001
1000
0100
1000
,
0002
0000
0000
0000
,
1003
0000
0000
0000
;

//---------------dance-single - ----------------
#NOTES:
     dance-single:
     :
     Medium:
     8:
     0.424,0.509,0.084,0.276,0.000:
1000
0010
1000
0001
,
2000
0100
3100
0010
,
0001
0000
0100
0001
1000
0000
1000
0000
,
2002
0000
0000
3003
,
0020
0000
0000
2030
0000
0000
0000
0000
,
3002
0000
0000
0003
,
0020
0000
0000
0000
0230
0000
0000
0320
,
0000
0230
0000
0000
,
2300
0000
0000
0000
,
3002
0000
2003
0000
,
3200
0000
0000
0000
,
0310
0000
0000
0000
,
1001
0100
0010
0100
,
0010
1000
0010
1000
,
0001
0100
0001
0100
,
0001
1000
0001
1000
,
0100
0010
0100
0010
,
0001
1000
0001
1000
,
0010
1000
0001
0100
,
0002
0000
0000
0003
,
1001
0000
0100
0000
1000
0100
1000
0000
,
0010
0000
0100
0000
0001
0100
0001
0000
,
0010
0000
0001
0000
0010
0001
0010
0000
,
0001
0000
1000
0000
0100
1000
0100
0000
,
1000
0000
0001
0000
0100
0001
0100
0000
,
0001
0000
1000
0000
0001
1000
0001
0000
,
0010
0000
0001
0000
0100
0010
0100
0000
,
0001
0000
1000
0000
0100
1000
0100
0000
,
1001
0000
0100
1000
0100
1000
0100
0000
,
1000
0000
0001
1000
0001
1000
0001
0000
,
0100
0000
0001
0100
0001
0100
0001
0000
,
1000
0000
0100
1000
0100
1000
0100
0000
,
1000
0001
0100
0000
0001
1000
0100
0000
,
1000
0100
0010
0001
0010
0100
1000
0000
,
2001
0000
0000
0000
,
0002
0000
0000
3003
,
0100
1000
0010
0000
0010
0000
0010
0000
,
0110
0100
0100
0100
,
0001
0010
0100
0000
0010
0000
0001
0000
,
1000
0100
0010
0000
0100
0000
1000
0000
,
0010
1000
0001
0000
0001
0000
0001
0000
,
1001
0010
0010
0010
,
1000
0010
0100
0000
0010
0000
1000
0000
,
0001
0100
0010
0000
0100
0001
0010
0100
,
1000
0001
0000
0001
0000
0001
0000
0001
,
0000
1000
0000
1000
0000
1000
0000
1000
,
0000
0010
0000
0010
0000
0010
0000
0010
,
0000
0100
0000
0100
0000
0100
0000
0100
,
0001
1000
0001
1000
0001
1000
0001
0000
,
0100
0010
0100
0010
0100
0010
0100
0000
,
0001
0010
0100
1000
0100
0010
0001
0000
,
0220
0000
0000
0330
,
0020
0000
0000
0000
,
0032
0000
0000
2003
0000
0000
0000
0000
,
3200
0000
0000
0320
0000
0000
0000
0000
,
0030
0000
0000
0001
0000
1000
0000
0010
,
0200
0000
0000
0000
,
0302
0000
0000
2003
0000
0000
0000
0000
,
3200
0000
0000
0310
0000
0000
0000
0000
,
0000
0000
0001
1000
,
1001
0010
0100
1000
,
0010
0100
0001
1000
,
0100
0001
0100
1000
,
0010
0100
0010
1000
,
0010
0001
0010
1000
,
0001
1000
0001
0000
0010
0001
0010
0000
,
0100
1000
0010
0100
0001
0010
0100
0000
,
2000
3002
2003
3002
,
1003
0010
0100
0000
0010
0000
1000
0000
,
0001
1000
0100
0000
1000
0100
0010
0000
,
0001
0100
0001
0000
0010
0001
0010
0000
,
0100
1000
0100
0000
1000
0001
0100
0000
,
0001
0000
1000
0000
0100
1000
0001
0000
,
0100
0001
0010
0000
0001
0010
0100
0000
,
1000
0001
1000
0001
1000
0001
1000
0000
,
0020
0000
0000
0000
0130
0010
0100
0000
,
1001
0000
0000
0000
;

//---------------dance-single - ----------------
#NOTES:
     dance-single:
     :
     Hard:
     11:
     0.584,0.668,0.100,0.427,0.251:
0001
0100
0010
0000
0100
0001
0010
0000
,
0002
1003
0001
1000
,
0010
0100
0010
1000
0001
0000
0001
0010
,
0200
1000
1000
1300
,
0210
0000
0000
0302
0000
0000
0000
1000
,
2000
0000
0000
3003
,
0002
0000
0000
0000
0200
0003
0000
0320
,
0000
0000
0230
0000
0000
0001
0000
0302
,
2000
0000
0000
0000
0003
0000
3000
0100
,
0020
0000
0032
0000
,
2000
0000
0000
3003
,
1001
0000
0000
0000
,
0210
0001
0010
0301
,
2000
0100
0010
3100
,
0020
0001
0100
0031
,
0200
1000
0010
1300
,
0002
0000
0010
0000
1000
0000
0013
0001
,
2000
0000
0100
0000
0001
0000
3100
1000
,
0002
0100
0010
0103
,
0001
0001
1000
1000
0010
0010
0020
0000
,
1030
0000
0002
0000
0000
0010
0000
0000
0100
0000
0000
0013
0000
0000
0001
0000
,
0000
0000
0020
0000
0000
0100
0000
0000
0001
0000
0000
0130
0000
0000
1000
0000
,
0000
0000
0020
0000
0000
0100
0000
0000
1000
0000
0000
0130
0000
0000
0001
0000
,
0000
0000
0200
0000
0000
0010
0000
0000
0001
0000
0000
0310
0000
0000
1000
0000
,
0000
0000
0200
0000
0000
0010
0000
0000
1000
0000
0000
0310
0000
0000
0001
0000
,
0000
0000
0020
0000
0000
0100
0000
0000
0001
0000
0000
0130
0000
0000
1000
0000
,
0000
0000
0002
0000
0000
1000
0000
0000
0100
0000
0000
1003
0000
0000
0001
0000
,
0000
0000
2000
0000
0000
0001
0000
0000
0100
0000
0000
3001
0000
0000
1000
0000
,
0001
0000
0100
0000
0010
0000
0100
0000
0001
0000
0000
0001
1000
0000
0010
0000
,
1000
0000
0100
0000
0010
0000
0100
0000
1000
0000
0000
1000
0001
0000
0100
0000
,
0010
0000
1000
0000
0100
0000
0010
0000
0100
0000
0000
0100
1000
0000
0010
0000
,
0100
0000
0010
0000
1000
0000
0100
0000
0010
0000
0000
0010
0001
0000
0100
0000
,
0001
0001
1000
1000
0100
0001
0100
1000
,
0001
0000
0010
0000
1000
0000
0010
0000
0001
0000
0100
0010
0100
0000
0001
0000
,
1000
0010
0000
0100
0000
0010
0000
0100
,
0002
1000
1000
1003
,
0001
0100
0010
0100
0001
0010
1000
0000
,
0012
0000
1003
0000
0100
1000
0010
0000
,
1000
0000
0001
0000
0010
0000
0001
0000
1000
0000
0000
0100
0000
0000
0010
0000
,
0000
0000
1000
0000
0010
0000
0001
0000
1000
0000
0000
0010
0000
0000
0100
0000
,
0001
0010
0100
0010
0001
0100
1000
0000
,
0102
0000
1003
0000
0010
1000
0001
0000
,
1000
0000
0001
0000
0010
0000
0001
0000
1000
0000
0000
0010
0000
0000
0100
0000
,
0001
0000
0010
0100
0000
0010
0100
0000
1000
0000
0100
0000
0010
0000
0001
0000
,
1000
0001
0000
0100
0000
0010
0000
0100
,
0001
1000
0000
0100
0000
0010
0000
0100
,
1000
0000
0001
0000
0010
0000
1000
0000
0010
0000
0000
0001
0000
0000
1000
0000
,
0000
0000
0001
0000
0010
0000
1000
0000
0010
0000
0000
0001
0000
0000
1000
0000
,
0001
0100
1000
0100
0001
0010
1000
0010
,
0001
0010
0100
1000
0100
0010
0001
1000
,
0010
0100
0000
0010
0100
0000
0001
1000
0000
0000
0010
0000
0100
0000
0002
0000
,
0200
0000
0000
0303
,
0220
0000
0000
0030
,
0302
0000
0000
2003
0000
0000
3010
0000
,
0200
0000
0000
0302
0000
0000
0000
0000
,
0000
0000
0000
1003
0000
1000
0000
0100
,
0020
0000
0000
0000
0000
0000
0031
1000
,
0200
0000
0000
2300
0000
0000
0000
3010
,
0200
0000
0000
0302
0000
0000
0000
0000
,
0000
0000
0000
1003
0100
0010
0001
1000
,
1001
0000
0001
0000
0000
1000
0000
0000
0100
0000
0000
1000
0000
0000
0001
0000
,
1001
0000
1000
0000
0000
0001
0000
0000
0100
0000
0000
0001
0000
0000
1000
0000
,
1001
0000
0001
0000
0000
0010
0000
0000
0100
0000
0000
1000
0000
0000
0001
0000
,
1001
0000
1000
0000
0000
0010
0000
0000
0100
0000
0000
0001
0000
0000
1000
0000
,
1001
0000
0001
1000
0000
0001
1000
0000
0001
0000
1000
0010
0000
1000
0010
0000
,
1000
0000
0001
0010
0000
0001
0010
0000
0001
0000
1000
0000
0100
0000
0010
0000
,
0001
1000
0000
0001
1000
0000
0100
1000
0000
0100
1000
0000
0001
1000
0001
1000
,
0002
2003
3020
0230
,
0301
0100
0010
0001
0010
0100
0001
1000
,
0100
0000
0001
0000
0100
0000
1000
0000
0001
1000
0001
1000
0001
0000
0000
0000
,
1000
0010
0100
1000
0100
0010
1000
0001
,
0010
1000
0010
0001
1000
0100
0010
0001
,
1000
0010
0001
0010
1000
0100
0010
0001
,
1000
0001
1000
0000
0001
1000
0000
0001
1000
0000
0100
0000
0010
0000
0100
0000
,
1000
0000
0001
0000
0010
0000
0100
0000
0010
0001
0010
0000
0100
0010
0100
0000
,
2000
0000
0000
0000
0000
0000
0000
0000
3100
0000
1000
0001
1000
0001
1000
0000
,
1001
0000
0000
0000
;

//---------------dance-single - ----------------
#NOTES:
     dance-single:
     :
     Challenge:
     14:
     0.703,0.827,0.268,0.444,0.557: // measure 1
0001
1000
0100
1000
0001
0010
0100
1000
,  // measure 2
0010
0100
0020
0000
0000
0000
1030
0000
0000
0000
0001
0000
0000
0000
1000
0000
,  // measure 3
0001
0000
0010
0000
0001
0000
1000
0000
0010
0000
0000
0001
0000
0000
0010
0000
,  // measure 4
1000
0001
1000
0001
1000
0001
1000
0010
,  // measure 5
2010
0000
0000
0000
0000
0000
3002
0000
0000
0000
0000
0000
0000
0000
1003
0010
,  // measure 6
0200
0000
0000
0300
,  // measure 7
0002
0000
0000
0000
0203
0000
0000
2300
,  // measure 8
0000
0000
3200
0000
0000
0301
0000
2000
,  // measure 9
0002
0000
0000
0000
0000
3003
0000
0100
,  // measure 10
0020
0000
0032
0000
,  // measure 11
2000
0000
0000
3003
,  // measure 12
1001
0000
0000
0000
0000
0000
0000
0000
0000
0000
1000
0001
1000
0001
1000
0001
,  // measure 13
2000
0000
0000
0000
0000
0000
3200
0000
0000
0000
0000
0000
0000
0000
1300
0001
,  // measure 14
0200
0000
0000
0320
0000
0000
0130
0000
,  // measure 15
0002
0000
0000
2003
0000
0000
3002
0000
,  // measure 16
0200
0000
0000
0303
,  // measure 17
0020
0100
1000
0130
,  // measure 18
2000
0001
0100
3001
,  // measure 19
0020
0001
0100
0031
,  // measure 20
1000
0001
1000
0000
0001
1000
0001
0000
0100
0010
0100
0010
0100
0010
0100
0010
,  // measure 21
0100
0000
0001
0000
0000
0101
0000
0000
0001
0000
0000
0101
0000
0000
0110
0000
,  // measure 22
0000
0000
1000
0000
0000
1100
0000
0000
1000
0000
0000
1100
0000
0000
0010
0100
,  // measure 23
0000
0000
0001
0000
0000
1001
0000
0000
1000
0000
0000
1001
0000
0000
0110
0000
,  // measure 24
0000
0000
0100
0000
0000
0101
0000
0000
0100
0000
0000
0101
0000
0000
1000
0100
,  // measure 25
0000
0000
1000
0000
0000
1001
0000
0000
0001
0000
0000
1001
0000
0000
0110
0000
,  // measure 26
0000
0000
0100
0000
0000
1100
0000
0000
0100
0000
0000
1100
0000
0000
1000
0001
,  // measure 27
0000
0000
0010
0000
0000
0011
0000
0000
0010
0000
0000
0011
0000
0000
1001
0000
,  // measure 28
0000
0000
0010
0000
0000
0110
0000
0000
0100
0000
0000
0110
0000
0000
1000
0000
,  // measure 29
0001
1000
0001
0000
0010
0000
0100
0000
1000
0001
0000
0001
1000
0000
0010
0000
,  // measure 30
0100
0010
0100
0000
0001
0100
0001
0000
1000
0100
0000
0100
1000
0000
0010
0000
,  // measure 31
0100
0001
0100
0000
0001
1000
0001
0000
0010
0100
0000
0100
0010
0000
0001
0000
,  // measure 32
1000
0100
1000
0000
0010
0100
0010
0000
1000
0001
0000
0001
0100
0000
0001
0000
,  // measure 33
1000
0000
0100
0000
0010
0000
0001
0000
1000
0010
0100
0010
1000
0000
0001
0000
,  // measure 34
1000
0100
0000
0100
0010
0000
0010
0001
0000
0001
0010
0100
1000
0001
1000
0001
,  // measure 35
1000
0000
0001
0000
0000
0100
0000
0000
1000
0000
0000
0100
0000
0000
0001
0000
,  // measure 36
2000
3200
0320
0032
,  // measure 37
1003
0000
0010
0000
0100
0000
0010
0000
1000
0001
1000
0000
0100
0000
0010
0000
,  // measure 38
0001
0100
0020
0000
0000
0000
0100
0000
0000
0000
0100
0000
0000
0000
0130
0000
,  // measure 39
0001
0000
0010
0000
1000
0000
0010
0000
0001
0000
0100
0010
0000
0010
0100
0000
,  // measure 40
0001
0000
0100
0000
1000
0000
0100
0000
0001
0000
0010
0100
0000
0100
0010
0000
,  // measure 41
0001
0000
0010
0000
0100
0000
0010
0000
0001
1000
0001
0000
0100
0000
0010
0000
,  // measure 42
1000
0010
0200
0000
0000
0000
0010
0000
0000
0000
0010
0000
0000
0000
0310
0000
,  // measure 43
1000
0000
0100
0000
0001
0000
0100
0000
1000
0000
0001
0100
0000
0100
0001
0000
,  // measure 44
1000
0000
0010
0100
0000
0100
0001
0000
1000
0000
0001
0010
0100
1000
0001
0000
,  // measure 45
0200
1000
0000
1000
0000
0001
0000
0301
,  // measure 46
0020
1000
0000
1000
0000
0001
0000
0031
,  // measure 47
0200
0000
0000
0000
1000
0000
0000
0000
0010
0000
0000
0010
0000
0000
0310
0000
,  // measure 48
2000
0000
0000
0000
0100
0000
0000
0000
0001
0000
0000
0001
0000
0000
3001
0000
,  // measure 49
1000
0010
0100
1000
0100
0001
1000
0100
,  // measure 50
0010
1000
0010
0001
1000
0010
0100
0001
,  // measure 51
1000
0001
0000
0001
0010
0000
0010
0100
0000
0100
1000
0001
0100
0010
0100
0000
,  // measure 52
0202
0000
0000
0303
,  // measure 53
0022
0000
0000
0033
,  // measure 54
0002
0000
0000
0023
0000
0000
1030
0000
,  // measure 55
0020
0000
0000
0032
0000
0000
0000
0000
,  // measure 56
0000
0003
0000
0100
0000
0100
0000
0010
,  // measure 57
2000
0000
0000
0000
0000
0000
3100
0010
,  // measure 58
0200
0000
0000
0320
0000
0000
0000
0031
,  // measure 59
2000
0000
0000
0002
0000
0000
0000
0000
,  // measure 60
0000
3000
0000
1003
0010
0100
0001
1000
,  // measure 61
1200
0010
1000
0310
,  // measure 62
0201
0010
0001
0310
,  // measure 63
1001
0000
0000
0000
1000
0001
1000
0000
0010
0100
0010
0000
1000
0010
0100
0000
,  // measure 64
0110
0000
0000
0000
0000
0000
0000
0000
0010
0000
1000
0001
1000
0000
0010
0000
,  // measure 65
0110
0000
1000
0100
0000
0100
1000
0000
0001
0000
0100
0001
0000
0001
0100
0000
,  // measure 66
1001
0000
0010
1000
0000
1000
0010
0000
1000
0000
0001
0010
0001
0010
0100
0000
,  // measure 67
1000
0010
0000
0010
0100
0000
0100
0001
0000
0001
1000
0100
0010
0001
0100
0010
,  // measure 68
0200
0302
2003
3020
,  // measure 69
1030
0001
1000
0000
0100
0000
0010
0000
0100
1000
0000
1000
0001
0000
0100
0001
,  // measure 70
0100
0000
0001
0000
1000
0100
1000
0000
0001
0010
0100
1000
0001
0000
0100
0010
,  // measure 71
0100
0000
0001
0000
1000
0100
1000
0000
0001
0010
0000
0010
0100
0000
0010
0000
,  // measure 72
0001
1000
0001
0000
1000
0000
1000
0000
0001
0100
0010
0100
0001
0010
0100
0000
,  // measure 73
1000
0001
1000
0000
0001
0000
0100
0001
1000
0100
1000
0100
1000
0000
0001
0000
,  // measure 74
0010
0100
0010
0000
0001
1000
0000
0001
1000
0010
0100
0010
1000
0010
0100
0000
,  // measure 75
0001
1000
0001
0000
0100
0010
0000
1000
0100
0010
0001
0100
0010
0100
0001
0010
,  // measure 76
0100
0000
0000
0000
0100
0000
0000
0000
0110
0000
1000
0100
0010
0001
1000
0000
,  // measure 77
1001
0000
0000
0000
;

//---------------dance-single - ----------------
#NOTES:
     dance-single:
     :
     Beginner:
     2:
     0.096,0.159,0.067,0.000,0.000:
0001
0000
0000
0000
,
0001
0000
0000
0000
,
1000
0000
0000
0000
,
1000
0000
0000
0000
,
1001
0000
0000
0000
,
0000
0000
0000
0000
,
0000
0000
0000
0000
,
0000
0000
0000
0000
,
0010
0000
0000
0000
,
0000
0000
0000
0000
,
0010
0000
0000
0000
,
0010
0000
0000
0000
,
1001
0000
0000
0000
,
0000
0000
0000
0000
,
1000
0000
0000
0000
,
0000
0000
0000
0000
,
1000
0000
0000
0000
,
0000
0000
0000
0000
,
1000
0000
0000
0000
,
0000
0000
0000
0000
,
1001
0000
0000
0000
,
0001
0000
0000
0000
,
1000
0000
0000
0000
,
0001
0000
0000
0000
,
1000
0000
0000
0000
,
0001
0000
0000
0000
,
0010
0000
0000
0000
,
0100
0000
0000
0000
,
1000
0000
0000
0000
,
0001
0000
0000
0000
,
1000
0000
0000
0000
,
0100
0000
0000
0000
,
0010
0000
0000
0000
,
0100
0000
0000
0000
,
0010
0000
0000
0000
,
0001
0000
0000
0000
,
1001
0000
0000
0000
,
1000
0000
0000
0000
,
0001
0000
1000
0000
,
0001
0000
0000
0000
,
1000
0000
0000
0000
,
0001
0000
0000
0000
,
1000
0000
0001
0000
,
1000
0000
0000
0000
,
0100
0000
0000
0000
,
0010
0000
0000
0000
,
0100
0000
0000
0000
,
0010
0000
0000
0000
,
0001
0000
1000
0000
,
0001
0000
1000
0000
,
0001
0000
1000
0000
,
0010
0000
0000
0000
,
0110
0000
0000
0000
,
0000
0000
0000
0000
,
0000
0000
0000
0000
,
0000
0000
0000
0000
,
0001
0000
0000
0000
,
0000
0000
0000
0000
,
0000
0000
0000
0000
,
0000
0000
0000
0000
,
1001
0000
0000
0000
,
1000
0000
0000
0000
,
0001
0000
0000
0000
,
1000
0000
0000
0000
,
1001
0000
0000
0000
,
0001
0000
0000
0000
,
1000
0000
0000
0000
,
0001
0000
0000
0000
,
0100
0000
0010
0000
,
0100
0000
0000
0000
,
0010
0000
0100
0000
,
0010
0000
0000
0000
,
1000
0000
0001
0000
,
1000
0000
0000
0000
,
0001
0000
1000
0000
,
0001
0000
0000
0000
,
1001
0000
0000
0000
;
