#TITLE:クルクル☆ラブ;
#SUBTITLE:~Opioid Peptide MIX~;
#ARTIST:イオンチャンネル;
#TITLETRANSLIT:CURUCURU LOVE;
#SUBTITLETRANSLIT:~Opioid Peptide MIX~;
#ARTISTTRANSLIT:ION CHANNEL;
#CREDIT:DigiMindAxel;
#BANNER:CURUCURU LOVE ~Opioid Peptide MIX~.png;
#BACKGROUND:CURUCURU LOVE ~Opioid Peptide MIX~-bg.png;
#LYRICSPATH:;
#CDTITLE:beatmania IIDX.png;
#MUSIC:CURUCURU LOVE ~Opioid Peptide MIX~.mp3;
#METERTYPE:DDR X;
#OFFSET:-9.872;
#SAMPLESTART:35.772;
#SAMPLELENGTH:12.000;
#SELECTABLE:YES;
#BPMS:0.000=185.000;
#STOPS:;
#BGCHANGES:-32.000=CURUCURU LOVE ~Opioid Peptide MIX~.avi=1.000=1=1=0,
99999=-nosongbg-=1.000=0=0=0 // don't automatically add -songbackground-
;

//---------------dance-single - ----------------
#NOTES:
     dance-single:
     :
     Easy:
     5:
     0.206,0.273,0.096,0.072,0.000:
1000
0000
0001
0000
,
1000
0000
0001
0000
,
1000
0000
0001
0000
,
0200
0000
0000
0000
,
0310
0100
0010
0000
,
1000
0001
1000
0000
,
0001
0010
0001
0000
,
1000
0100
1000
0000
,
0001
1000
0001
0000
,
0100
0001
0100
0000
,
0010
0100
0010
0000
,
1000
0001
1000
0000
,
1001
0000
0001
0000
,
1000
0000
0001
0000
,
0110
0000
0100
0000
,
0010
0000
0000
0000
,
1001
0000
1000
0000
,
0001
0000
0000
0000
,
0110
0000
0100
0000
,
0110
0000
0000
0000
,
0010
0100
0010
0000
,
1000
0100
0010
0001
,
1000
0001
1000
0000
,
0001
0010
0100
1000
,
0001
1000
0001
0000
,
1000
0001
0100
0010
,
1000
0000
0000
0000
,
0001
1000
0001
1000
,
0001
0100
0010
0000
,
0100
0010
0100
0001
,
0010
0100
1000
0000
,
0010
0100
0010
0000
,
1000
0001
0100
0000
,
0001
1000
0100
0010
,
0001
1000
0001
0000
,
1001
0000
0000
0000
,
2000
0000
0000
0000
,
3200
0000
0000
0300
,
2000
0000
0000
0000
,
3002
0000
0000
0003
,
0020
0000
0000
0000
,
0032
0000
0000
0003
,
0200
0000
0000
0000
,
0320
0000
0000
0030
,
0000
0000
0000
0000
,
1001
0000
1000
0000
,
0001
0000
1000
0000
,
0100
0000
1000
0000
,
0100
0000
1000
0000
,
0010
0000
0100
0000
,
0010
0000
0100
0000
,
0001
0000
0100
0000
,
0001
0000
1000
0000
,
1001
0000
0000
0000
,
0000
0000
0000
0000
,
0001
0000
0000
0000
,
0000
0000
0000
0000
,
0100
0000
0000
0000
,
0000
0000
0000
0000
,
0010
0000
1000
0000
,
0010
0000
0000
0000
,
1001
0000
0000
0000
,
0000
0000
0000
0000
,
0000
0000
0000
0000
,
0000
0000
0000
0000
,
0010
0000
0000
0000
,
0000
0000
0000
0000
,
0010
0000
0010
0000
,
0010
0000
0000
0000
,
0110
0000
0100
0000
,
0010
0000
0100
0000
,
0010
0000
0100
0000
,
0010
0000
0100
0000
,
0001
0000
1000
0000
,
0001
0000
1000
0000
,
0001
0000
0000
0000
,
1001
0000
0000
0000
,
1000
0000
0100
0000
,
1000
0000
0100
0000
,
0010
0000
0100
0000
,
0010
0000
0100
0000
,
0010
0000
0001
0000
,
0010
0000
0001
0000
,
0010
0000
0010
0000
,
1001
0000
0000
0000
,
0010
0000
0000
0000
;

//---------------dance-single - ----------------
#NOTES:
     dance-single:
     :
     Medium:
     9:
     0.415,0.478,0.257,0.096,0.000:
0001
1000
0100
0100
,
1000
0001
0100
0100
,
0001
0010
0100
1000
,
0002
0000
0000
0000
,
1003
0001
0000
0100
0000
0001
0000
0100
,
0000
0001
0000
0100
0001
0010
0100
1000
,
0000
0001
0000
1000
0000
0001
0000
1000
,
0000
0100
0000
1000
0001
0010
0100
1000
,
0000
0010
0000
0100
0000
0010
0000
0100
,
0000
0010
0000
0100
0001
0010
0100
1000
,
0000
0001
0000
0100
0000
0001
0000
1000
,
0000
0001
0000
0100
0001
0010
0100
1000
,
0001
0001
1001
1001
,
1000
0010
0110
0110
,
0100
0001
0010
0100
,
1000
0000
0000
0000
,
0010
0010
0110
0110
,
0100
0001
1001
1001
,
1100
0000
0011
0000
,
2002
0000
0000
3003
,
0001
1000
0100
0010
,
0001
1000
0001
0000
1000
0100
1000
0000
,
0001
0100
0010
1000
,
0010
0100
0010
0000
1000
0001
1000
0000
,
0100
1000
0010
0100
,
0001
1000
0001
0000
1000
0100
1000
0000
,
0001
0100
0010
0100
,
0101
0101
1001
1001
,
0001
0100
0001
1000
0000
0100
0000
0001
,
0000
0100
0000
1000
0000
0001
0000
2000
,
0000
0000
0000
0000
3001
0000
1000
0010
,
0100
0010
0100
0100
,
1001
0000
1000
0001
0000
0010
0000
1000
,
0000
0010
0000
0001
0000
0100
0000
0020
,
0000
0000
0000
0000
0130
0000
0001
0010
,
0200
0000
0000
0300
,
1000
0001
0000
1000
0000
0100
0000
1000
,
0001
1000
0000
0010
0100
0010
0100
0000
,
0001
1000
0000
0010
0000
1000
0000
0001
,
1000
0001
0000
0010
0100
0010
0100
0000
,
1000
0001
0000
0010
0000
0001
0000
1000
,
0001
1000
0000
0010
0100
0010
0100
0000
,
0001
1000
0000
0010
0000
1000
0000
0001
,
1000
0001
0000
0010
0100
0010
0100
0000
,
2002
0000
0000
3003
,
0001
1000
0000
0100
0000
0010
0000
0001
,
0000
1000
0000
0010
0000
1000
0010
1000
,
0000
0001
0000
1000
0000
0100
0000
0010
,
0000
0001
0000
1000
0000
0010
0100
0010
,
0000
1000
0000
0100
0000
0010
0000
0001
,
0000
0100
0000
0010
0000
1000
0001
1000
,
0000
0001
0000
0100
0000
0010
0000
0100
,
0001
1000
0001
1000
0001
1000
0001
1000
,
0001
0000
0000
0001
0000
0000
0000
0000
,
0100
0000
0000
0100
0000
0000
0000
0000
,
0010
0000
0000
0010
0000
0000
0000
0000
,
1000
0000
0000
1000
0000
0000
0000
0000
,
0100
0000
0000
0100
0000
0000
0000
0000
,
0010
0000
0000
0010
0000
0000
0000
0000
,
1001
0000
0110
0000
,
1001
0000
0000
0000
,
0220
0000
0000
0000
,
0000
0000
0000
0000
,
0000
0000
0000
0330
,
0000
0000
0000
0000
,
2002
0000
0000
0000
,
0000
0000
0000
3003
,
1001
0000
0001
0000
,
0001
0001
0001
0001
,
1000
0100
0010
0100
,
1000
0100
0010
0001
,
0100
0010
0100
0001
,
0100
0010
0100
0001
,
1000
0100
0010
0001
,
0010
0100
1000
0001
,
1000
0001
1000
0001
1000
0001
1000
0001
,
1000
0000
0000
0000
,
1001
0001
0101
0000
,
0001
0010
0100
0000
0010
0001
1000
0000
,
1100
0100
1100
0000
,
0010
0100
0001
0100
0010
0000
0000
0000
,
1001
1000
1100
0000
,
0010
0001
1000
0000
0100
1000
0010
0000
,
0110
0100
1001
0000
,
0110
0000
0000
0000
,
0010
0000
0000
0000
;

//---------------dance-single - ----------------
#NOTES:
     dance-single:
     :
     Hard:
     11:
     0.571,0.546,0.153,0.305,0.000: // measure 1
1100
0000
1000
0000
0010
0100
0010
0100
,  // measure 2
0001
0000
0001
0000
0100
0010
0100
0010
,  // measure 3
1000
0000
1100
0000
0010
0001
0100
0010
,  // measure 4
0200
0000
0000
0300
,  // measure 5
0001
1000
0100
1000
0000
1000
0001
0000
,  // measure 6
1000
0001
0010
0001
1000
0010
0100
0001
,  // measure 7
1000
0001
0010
0001
0000
0001
1000
0000
,  // measure 8
0100
0010
0001
0010
0001
1000
0010
0100
,  // measure 9
0010
1000
0100
1000
0000
1000
0001
0000
,  // measure 10
0100
0010
1000
0100
1000
0001
0100
0010
,  // measure 11
0100
0001
0010
0001
0000
0001
1000
0000
,  // measure 12
0100
1000
0010
1000
0100
0010
0001
1000
,  // measure 13
0200
1000
0000
0310
,  // measure 14
0002
0100
0000
0013
,  // measure 15
1001
0000
0010
0000
0100
0000
1000
0001
,  // measure 16
0200
0000
0000
0300
,  // measure 17
1002
1000
0000
0013
,  // measure 18
0200
0010
0000
1300
,  // measure 19
1001
0000
0110
0000
,  // measure 20
2002
0000
0000
3003
,  // measure 21
1000
0001
0010
0001
1000
0000
0001
1000
,  // measure 22
0000
0100
0000
0010
0000
0010
0000
0001
,  // measure 23
1000
0100
0010
0100
1000
0000
0100
1000
,  // measure 24
0000
0001
0000
0200
0000
0000
0301
0000
,  // measure 25
1000
0010
0100
0010
1000
0000
0001
1000
,  // measure 26
0000
0100
0000
0010
0000
0010
0000
0001
,  // measure 27
1000
0100
0010
0100
1000
0000
0010
0000
,  // measure 28
0100
0010
0100
0010
1000
0100
1000
0100
,  // measure 29
2000
0000
0001
3001
0000
1000
0100
1000
,  // measure 30
0100
0010
0001
0010
0001
1000
0001
2000
,  // measure 31
0000
0000
0000
0000
3001
0000
1000
0100
,  // measure 32
0010
0101
0010
0101
,  // measure 33
0002
0000
1000
1003
0000
0001
0100
0001
,  // measure 34
0100
0010
1000
0010
1000
0001
1000
0002
,  // measure 35
0000
0000
0000
0000
1003
0000
0001
0100
,  // measure 36
0020
0000
0000
0030
,  // measure 37
1000
0001
0000
1000
0100
0010
0000
0001
,  // measure 38
1000
0100
0000
1000
1000
0001
0001
0000
,  // measure 39
1000
0001
0000
0100
0010
1000
0000
0100
,  // measure 40
0010
0100
0000
1000
1000
0001
0001
0000
,  // measure 41
1000
0001
0000
0100
0001
1000
0000
0100
,  // measure 42
1000
0010
0000
0100
0100
0010
0010
0000
,  // measure 43
1000
0001
0000
0010
0100
1000
0000
0001
,  // measure 44
0100
0001
0000
1000
1000
0100
0100
0000
,  // measure 45
2200
0000
0000
3300
,  // measure 46
1000
0001
1000
0010
1000
0001
1000
0010
,  // measure 47
1000
0001
1000
0010
1000
0100
0010
0001
,  // measure 48
0000
1000
0100
1000
0001
1000
0100
1000
,  // measure 49
0001
1000
0100
1000
0001
0100
0010
1000
,  // measure 50
0000
0001
1000
0001
0100
0001
1000
0001
,  // measure 51
0100
0001
1000
0001
0100
0001
0010
0100
,  // measure 52
0000
1000
0010
0100
0010
1000
0010
0100
,  // measure 53
0001
0010
0001
1000
0100
1000
0001
0010
,  // measure 54
0002
0000
1000
1003
0000
0001
1000
0000
,  // measure 55
0020
0000
0100
0130
0000
0001
1000
0000
,  // measure 56
0200
0000
1000
1300
0000
0010
0100
0000
,  // measure 57
0002
0000
1000
1003
0000
0001
0010
0000
,  // measure 58
0200
0000
0010
0310
0000
0001
0100
0000
,  // measure 59
0002
0000
1000
1003
0000
0100
1000
0000
,  // measure 60
1001
0000
0110
0000
,  // measure 61
2002
0000
0000
3003
,  // measure 62
0110
0000
0000
0200
0000
0320
0000
2030
,  // measure 63
0000
3200
0000
2300
0000
3020
0000
0230
,  // measure 64
0000
0000
0010
0310
,  // measure 65
0000
0000
0000
0000
,  // measure 66
0110
0000
0000
0020
0000
0230
0000
0302
,  // measure 67
0000
0023
0000
0032
0000
2003
0000
3001
,  // measure 68
1000
0000
1000
0000
,  // measure 69
1000
0001
1000
0001
,  // measure 70
1000
0100
1000
0000
0100
0010
0100
0000
,  // measure 71
1000
0100
1000
0000
0001
0100
0001
0000
,  // measure 72
0100
0010
0100
0000
0001
0100
0001
0000
,  // measure 73
1000
0001
1000
0000
0100
1000
0100
0000
,  // measure 74
1000
0001
1000
0000
0001
0010
0001
0000
,  // measure 75
0100
0010
0100
0000
0001
1000
0001
0000
,  // measure 76
1000
0100
0010
0001
0010
0100
1000
0001
,  // measure 77
2000
0000
0000
3000
,  // measure 78
0001
1000
0100
1000
0001
0000
1001
0000
,  // measure 79
1000
0100
0001
0100
1000
0010
0100
0000
,  // measure 80
0001
1000
0100
1000
0001
0000
1001
0000
,  // measure 81
1000
0010
0001
0010
1000
0100
0010
0000
,  // measure 82
0001
1000
0100
1000
0001
0000
1001
0000
,  // measure 83
1000
0100
0001
0100
1000
0010
0100
0000
,  // measure 84
0001
1000
0100
1000
0001
0100
0010
0000
,  // measure 85
0110
0000
0000
0000
,  // measure 86
0100
0000
0000
0000
;

//---------------dance-single - ----------------
#NOTES:
     dance-single:
     :
     Challenge:
     14:
     0.719,0.853,0.265,0.241,0.257:
1001
0000
0001
0000
0001
0010
1000
0010
,
0001
0000
1000
0000
1000
0010
0001
0010
,
1000
0001
0100
0010
1000
0010
0100
0001
,
2000
3000
2000
3000
0002
0003
0002
0003
,
1000
0000
0001
0010
0001
0000
1000
0000
0000
0000
1000
0000
0001
0000
0010
0000
,
0000
0000
0001
0000
1000
0000
0100
0000
0010
0100
0010
0000
0001
1000
0001
0000
,
1000
0000
0010
0100
0010
0000
1000
0000
0000
0000
1000
0000
0001
0000
0010
0000
,
0000
0000
0001
0000
1000
0000
0100
0000
1000
0001
1000
0000
0100
1000
0100
0000
,
0010
0000
0001
1000
0001
0000
0010
0000
0000
0000
0010
0000
0001
0000
0100
0000
,
0000
0000
0001
0000
1000
0000
0100
0000
0010
0100
0010
0000
0001
1000
0001
0000
,
0010
0000
0001
1000
0001
0000
0010
0000
0000
0000
0010
0000
0100
0000
1000
0000
,
0000
0000
0010
0000
0100
0000
0001
0000
0010
0001
0010
0000
0100
0010
0100
0000
,
1000
0001
1000
0001
1000
0100
0001
0100
,
1000
0001
1000
0001
1000
0100
0001
0100
,
1100
0000
1001
0000
0001
0010
0100
1000
,
0001
0100
0010
0100
,
0001
1000
0001
1000
0001
0010
1000
0010
,
0001
1000
0001
1000
0001
0010
1000
0010
,
0011
0100
0110
1000
,
1002
0003
0002
0003
2000
3000
2000
3000
,
0001
1000
0100
1000
0001
0010
0100
0010
,
0001
0100
1000
0100
0010
1000
0001
0010
,
0001
1000
0010
0100
0010
1000
0100
0010
,
0001
0010
1000
0010
0100
1000
0001
0000
,
1000
0001
0010
0001
1000
0010
0100
0010
,
1000
0100
0001
1000
0100
0010
1000
0001
,
1000
0100
1000
0001
0100
0010
0100
0000
,
0001
0100
1000
0100
0001
0010
1000
0010
,
0001
0000
0000
1001
0000
1100
0000
1001
,
0000
0101
0000
0110
0000
0101
0000
0001
,
2000
0000
0000
0000
0000
0000
0000
0000
3001
1000
0001
0000
0010
0000
0100
0000
,
1000
0000
0010
0000
0100
0000
0010
0000
1000
0000
0000
1000
0001
0000
0010
0000
,
0011
0000
0000
1001
0000
0011
0000
1001
,
0000
1010
0000
0110
0000
1010
0000
1000
,
0002
0000
0000
0000
0000
0000
0000
0000
1003
0001
1000
0000
0100
0000
0010
0000
,
0022
0000
0000
0033
,
0002
0000
1000
0000
0000
0000
0010
0000
0000
0000
1003
0000
0001
1000
0001
0000
,
0010
0100
0010
0000
0011
0000
1100
0000
,
2000
0000
0100
0000
0000
0000
0001
0000
0000
0000
3100
0000
1000
0001
1000
0000
,
0100
0010
0100
0000
1100
0000
0011
0000
,
0002
0000
1000
0000
0000
0000
0100
0000
0000
0000
1003
0000
0001
0010
0001
0000
,
1000
0010
0100
0001
1001
0000
1001
0000
,
0002
0000
1000
0000
0000
0000
0100
0000
0000
0000
1003
0000
0001
0010
0001
0000
,
1000
0010
0100
0001
1001
0000
1001
0000
,
0020
0000
0100
0100
0000
0100
0130
0000
,
0001
0000
1000
0000
0100
0000
1000
0100
1000
0100
1000
0000
0001
0000
0000
0000
,
1000
0000
1000
0000
0001
0000
1000
0100
1000
0100
1000
0000
0010
0000
0100
0000
,
0001
0000
0010
0000
0100
0000
0010
0001
0010
0001
0010
0000
0100
0000
0000
0000
,
1000
0000
1000
0000
0001
0000
1000
0010
1000
0010
1000
0000
0010
0000
0100
0000
,
0010
0000
1000
0000
0100
0000
1000
0100
1000
0100
1000
0000
0001
0000
0000
0000
,
0010
0000
0010
0000
0001
0000
0100
0010
0100
0010
0100
0000
0001
0000
0010
0000
,
0100
0000
1000
0000
0100
0000
0010
0100
0010
0100
0010
0000
0100
0000
0000
0000
,
1000
0001
1000
0001
1000
0001
0100
0001
0100
0001
0100
0001
1000
0001
1000
0001
,
2000
0000
0100
0100
0000
0001
3001
0000
,
0020
0000
0001
0001
0000
0100
0130
0000
,
2000
0000
0001
0001
0000
0100
3100
0000
,
0020
0000
0100
0100
0000
0001
0031
0000
,
0200
0000
0010
0010
0000
0001
0301
0000
,
2000
0000
0001
0001
0000
0010
3010
0000
,
1001
0000
0110
0000
,
2001
3000
2000
3000
0002
0003
0002
0003
,
1001
0000
0000
1000
0000
0100
0000
0001
,
0000
0100
0000
1000
0000
0010
0000
0200
,
0000
0000
0000
0000
0001
0000
0001
0301
,
0000
0000
0000
0000
,
1001
0000
0000
0001
0000
0100
0000
1000
,
0000
0100
0000
0001
0000
1000
0000
0002
,
1000
0000
0000
0000
1000
0000
1003
0001
,
1000
1000
0001
0001
,
1000
0001
0010
0000
0100
0000
0010
0000
,
0001
1000
0010
0000
1000
0000
0001
0001
,
0001
0100
0010
0000
1000
0000
0001
0000
,
1000
0000
0001
0000
0010
0000
0000
0000
0100
0000
0000
0010
0001
0000
0001
0000
,
0001
1000
0010
0000
1000
0000
0001
0000
,
0100
0010
1000
0000
0001
1000
0001
0000
,
0010
0001
0010
0001
0010
0001
1000
0001
1000
0001
1000
0001
0100
0010
0100
0010
,
0200
0000
0000
0300
,
0001
0000
1000
0000
0100
0000
1000
0001
1000
0001
1000
0000
0001
0000
0010
0000
,
0001
1000
0100
0010
1000
0010
0001
1000
,
0001
0000
0100
0000
0010
0000
0100
0001
0100
0001
0100
0000
0001
0000
1000
0000
,
0100
1000
0010
0001
0010
0100
0001
1000
,
0100
0000
1000
0000
0010
0000
0100
0010
0100
0010
0100
0000
0010
0000
1000
0000
,
0001
1000
0010
0001
0010
0100
0001
1000
,
0001
0010
0001
0010
0001
1000
0001
1000
0001
0010
0001
0010
0001
0010
0100
0010
,
0100
0000
0000
0000
,
1000
0000
0000
0000
;

//---------------dance-single - ----------------
#NOTES:
     dance-single:
     :
     Beginner:
     3:
     0.130,0.236,0.153,0.000,0.000:
1000
0000
0000
0000
,
0001
0000
0000
0000
,
1000
0000
0000
0000
,
0000
0000
0000
0000
,
1001
0000
0000
0000
,
0001
0000
0000
0000
,
0010
0000
0000
0000
,
0001
0000
0000
0000
,
1000
0000
0000
0000
,
0100
0000
0000
0000
,
1000
0000
0000
0000
,
0100
0000
0000
0000
,
1001
0000
0000
0000
,
0010
0000
0000
0000
,
0110
0000
0000
0000
,
0000
0000
0000
0000
,
1001
0000
0000
0000
,
0100
0000
0000
0000
,
0110
0000
0110
0000
,
0110
0000
0000
0000
,
0010
0000
0000
0000
,
0100
0000
0001
0000
,
0100
0000
0000
0000
,
0010
0000
1000
0000
,
0010
0000
0000
0000
,
1000
0000
0001
0000
,
1000
0000
0000
0000
,
0001
0000
0001
0000
,
1001
0000
0000
0000
,
1000
0000
0100
0000
,
0010
0000
0000
0000
,
0001
0000
0100
0000
,
0001
0000
0000
0000
,
0010
0000
0100
0000
,
1000
0000
0000
0000
,
1001
0000
0000
0000
,
0001
0000
0000
0000
,
0100
0000
0000
0000
,
0010
0000
0000
0000
,
1000
0000
0000
0000
,
0010
0000
0000
0000
,
0100
0000
0000
0000
,
0001
0000
0000
0000
,
1000
0000
0000
0000
,
1001
0000
0000
0000
,
0001
0000
0000
0000
,
0010
0000
0000
0000
,
0001
0000
0000
0000
,
0100
0000
0000
0000
,
0010
0000
0000
0000
,
1000
0000
0000
0000
,
0100
0000
0000
0000
,
1000
0000
1000
0000
,
1001
0000
0000
0000
,
0000
0000
0000
0000
,
0000
0000
0000
0000
,
0000
0000
0000
0000
,
0010
0000
0000
0000
,
0000
0000
0000
0000
,
0110
0000
0100
0000
,
0010
0000
0000
0000
,
1001
0000
0000
0000
,
0000
0000
0000
0000
,
0000
0000
0000
0000
,
0000
0000
0000
0000
,
0001
0000
0000
0000
,
0000
0000
0000
0000
,
1000
0000
1000
0000
,
1000
0000
0000
0000
,
1001
0000
0001
0000
,
0100
0000
0010
0000
,
1000
0000
0001
0000
,
0000
0000
0000
0000
,
1000
0000
0010
0000
,
0100
0000
0001
0000
,
1000
0000
0000
0000
,
1001
0000
0000
0000
,
1001
0000
0001
0000
,
0001
0000
0000
0000
,
1001
0000
1000
0000
,
1000
0000
0000
0000
,
0110
0000
0010
0000
,
0010
0000
0000
0000
,
0110
0000
0100
0000
,
0010
0000
0000
0000
;
