#TITLE:CLAMARE;
#SUBTITLE:;
#ARTIST:MAX MAXIMIZER;
#TITLETRANSLIT:;
#SUBTITLETRANSLIT:;
#ARTISTTRANSLIT:;
#CREDIT:DigiMindAxel;
#BANNER:CLAMARE.png;
#BACKGROUND:CLAMARE-bg.png;
#LYRICSPATH:;
#CDTITLE:REFLEC BEAT.png;
#MUSIC:CLAMARE.mp3;
#METERTYPE:DDR X;
#OFFSET:-9.310;
#SAMPLESTART:28.546;
#SAMPLELENGTH:12.000;
#SELECTABLE:YES;
#BPMS:0.000=112.000,24.000=224.000,40.000=112.000,44.000=224.000,176.000=112.000,202.000=224.000;
#STOPS:176.000=1.071
,178.000=1.071
,180.000=1.071
,182.000=1.071
,201.000=0.536
,311.000=0.536
;
#BGCHANGES:;

//---------------dance-single - ----------------
#NOTES:
     dance-single:
     :
     Easy:
     6:
     0.277,0.308,0.066,0.099,0.000:
1000
0000
1000
0000
,
1000
0000
0000
0000
1000
0000
0000
1000
,
0001
0000
0001
0000
,
0001
0000
0000
0000
0001
0000
1000
0001
,
1000
0000
1000
0000
,
1001
0000
0001
0000
,
1001
0000
0001
0000
,
0001
0000
1000
0000
,
1000
0000
0001
0000
,
1000
0001
1000
0001
,
2002
0000
0000
3003
,
0001
0000
0100
0000
,
0001
0000
1000
0000
,
0100
0000
0010
0000
,
0100
1000
0100
1000
,
0100
0000
0010
0000
,
0001
0000
1000
0000
,
0010
0000
0000
0000
,
0100
0010
0100
0010
,
0100
0000
0001
0000
,
0010
0000
0001
0000
,
1000
0000
0100
0000
,
0010
0100
0010
0100
,
0010
0000
0001
0000
,
1000
0000
0100
0000
,
1000
0000
0001
0000
,
1000
0001
1000
0001
,
1000
0100
1000
0100
,
1000
0100
1000
0000
,
0001
0100
0001
0100
,
0001
0100
0001
0000
,
0010
0001
0010
0001
,
0010
0001
0010
0000
,
0001
1000
0001
1000
,
0001
1000
0001
0000
,
1000
0100
1000
0100
,
1000
0100
1000
0000
,
0010
0100
0010
0100
,
0010
0100
0010
0000
,
1000
0001
1000
0001
,
1000
0001
1000
0000
,
1001
0000
0000
0000
,
0220
0000
0000
0000
,
0330
0000
0000
0000
,
0010
0000
0010
0000
,
0010
0000
0010
0000
,
0010
0000
0000
0000
,
0010
0000
0000
0000
,
0010
0000
0000
0000
,
0010
0000
0220
0000
,
0000
0330
1000
0001
,
1000
0001
1000
0100
,
1000
0100
1000
0001
,
1000
0001
1000
0100
,
1000
0100
0010
0001
,
0010
0001
1000
0001
,
1000
0001
0010
0001
,
0010
0001
1000
0001
,
1000
0001
0100
0001
,
0100
0001
1000
0001
,
1000
0001
1000
0010
,
1000
0010
1000
0001
,
1000
0001
0100
0010
,
0100
0010
1000
0001
,
1000
0001
0100
0010
,
0100
0010
1000
0100
,
1000
0001
0200
0000
,
0000
0000
0000
0000
,
0000
0000
0301
0001
,
0000
1001
0000
0000
,
1000
1000
0010
0010
,
0000
0100
0100
0000
,
0001
0001
1000
1000
,
0000
0100
0100
0000
,
0020
0000
0032
0000
,
2003
0000
0000
0000
,
3001
0000
0000
0000
,
1000
0001
1000
0001
,
2002
0000
0000
0000
,
0000
0000
0000
0000
,
0000
0000
0000
0000
,
0000
0000
0000
0000
,
0000
0000
3003
0000
;

//---------------dance-single - ----------------
#NOTES:
     dance-single:
     :
     Medium:
     8:
     0.457,0.513,0.357,0.199,0.050:
2002
0000
0000
3003
0100
0000
0000
0000
,
0100
0000
0000
0000
0100
0000
0000
0001
,
2002
0000
0000
3003
0100
0000
0000
0000
,
0100
0000
0000
0000
0100
0000
1001
1001
,
2002
0000
0000
3003
1001
0000
0000
0000
,
1100
0000
0000
0000
0100
0000
1001
1001
,
1001
0000
0010
0000
,
1010
0000
0001
0000
,
0011
0010
0001
0010
,
0001
1000
0100
0010
,
2002
0000
0000
3003
,
1000
0100
1000
0100
,
1000
0001
1000
0001
,
0010
0001
0010
0001
,
0100
0000
0010
0100
0000
0010
0100
0000
0010
0100
0000
0010
,
0100
0001
1000
0001
,
1000
0000
0100
0000
1000
0000
0100
1000
,
0002
0000
0000
0000
,
0103
0000
0010
0100
0000
0010
0100
0000
0010
0100
0000
0010
,
0100
0000
0001
0000
1000
0000
0100
1000
,
0001
0000
0010
0000
0100
0000
0010
0001
,
1000
0000
0010
1000
0010
0000
0100
0001
,
0100
0000
0001
1000
0000
0001
1000
0000
0001
1000
0000
0001
,
1000
0100
0010
0100
,
1000
0001
0100
0001
,
1001
0000
1001
0000
,
1001
1001
0100
0110
,
1001
1000
0100
1000
,
0100
0010
0100
0010
,
0001
0010
0001
0100
,
0010
0100
0010
0100
,
0001
1000
0001
1000
,
0100
1000
0100
1000
,
0110
0100
0110
0100
,
1001
1001
1001
1001
,
0001
0010
0100
1000
,
0100
0010
0001
1000
,
0001
0010
0100
1000
,
0100
0010
0001
1000
,
0110
0010
0110
0010
,
1001
1001
1001
1001
,
2002
0000
0000
3003
,
0010
0100
0010
0100
0010
0100
0010
0100
,
0010
0000
0200
0000
,
0310
0000
0010
0000
,
0100
0000
0100
0000
,
0010
0000
0000
0000
,
0010
0000
0000
0000
,
0100
0001
0100
0001
,
0100
0000
0220
0000
,
0000
0000
0330
0000
0001
0000
1000
0100
,
0000
1000
0100
0000
1000
0001
1000
0000
,
0010
0100
0010
0000
1000
0000
0001
0100
,
0000
0001
0100
0000
0001
1000
0001
0000
,
0010
0100
0010
0000
0001
0000
1000
0100
,
0000
1000
0100
0000
0010
0001
0010
0000
,
0001
1000
0001
0000
1000
0000
0010
0100
,
0000
0010
0100
0000
0001
1000
0001
0000
,
0010
0001
0010
0000
0001
0000
1000
0010
,
0000
1000
0010
0000
0100
0010
0100
0000
,
0001
1000
0001
0000
0010
0000
0100
1000
,
0000
0100
1000
0000
0001
1000
0001
0000
,
0010
0001
0010
0001
0010
0000
0001
1000
,
0000
0001
1000
0000
0100
1000
0100
0000
,
0010
0100
0010
0100
0010
0001
0010
0000
,
0100
1000
0010
0000
0100
0001
0010
0000
,
0001
1000
0001
1000
0020
0000
0000
0000
,
0000
0000
0100
0000
0000
0100
0000
0000
,
0100
0100
0130
0202
,
0303
2002
0000
3003
,
0101
0000
0101
0000
0100
0010
0100
0010
,
0000
0000
1000
0001
1000
0001
0000
0000
,
1001
0000
1001
0000
0001
0010
0001
0010
,
0000
0110
0110
0000
,
2002
3000
0200
0303
,
0001
0000
0001
0000
0001
1000
0000
0100
,
1000
0000
0000
0000
,
0001
0100
0010
0100
0001
1000
0100
0000
,
2002
0000
0000
0000
,
0000
0000
0000
0000
,
0000
0000
0000
0000
,
0000
0000
0000
0000
,
0000
0000
3003
0000
;

//---------------dance-single - ----------------
#NOTES:
     dance-single:
     :
     Hard:
     14:
     0.642,0.718,0.423,0.249,0.278: // measure 1
1002
0203
0320
0000
,  // measure 2
1000
0000
0000
0000
0000
0000
0000
0000
0000
0000
0000
0000
1000
0000
0000
0000
0000
0000
0030
0000
0000
1000
0001
1000
,  // measure 3
0002
0023
0230
0000
,  // measure 4
1000
0000
0000
0000
0000
0000
0000
0000
0000
0000
0000
0000
1000
0000
0000
0300
0000
0000
1000
0001
1000
0001
1000
0001
,  // measure 5
2000
0000
3200
0000
0320
0000
0000
0030
,  // measure 6
0012
0000
0000
0000
0000
0000
0000
0000
0000
0000
0000
0000
1003
0000
0000
0000
0000
0000
0001
1000
0001
1000
0001
1000
,  // measure 7
0002
0000
0013
0000
,  // measure 8
0210
0000
1300
0000
,  // measure 9
1001
0001
1001
1000
,  // measure 10
0001
0100
0001
0100
0001
0100
0010
1000
0010
1000
0001
1000
,  // measure 11
0002
0000
0000
0003
,  // measure 12
1001
1000
1100
1100
,  // measure 13
1001
0000
0000
0000
0001
0000
0000
0000
0101
0000
0000
0000
0001
1000
0001
0000
,  // measure 14
1000
0001
0101
0101
,  // measure 15
0010
0100
0010
0100
0010
0100
0010
0100
0010
0100
0010
0100
,  // measure 16
0010
1000
1100
1100
,  // measure 17
1001
0000
0000
0000
0001
0000
0000
0000
0101
0000
0000
0000
0001
1000
0001
0000
,  // measure 18
2000
0000
0000
0000
,  // measure 19
3010
0100
0010
0100
0010
0100
0010
0100
0010
0100
0010
0100
,  // measure 20
0010
0000
0000
0000
1000
0000
0000
0000
1001
0000
0000
0000
1000
0100
1000
0000
,  // measure 21
0100
0000
0000
0000
0010
0000
0000
0000
0110
0000
0000
0000
0100
0001
0100
0000
,  // measure 22
0001
0000
0000
0000
0010
0100
0010
0000
0100
0000
0000
0000
1000
0010
1000
0000
,  // measure 23
0010
0100
0010
0100
0010
0100
0010
0100
0010
0100
0010
0100
,  // measure 24
0010
0100
0101
0101
,  // measure 25
1001
0000
0000
0000
1000
0000
0000
0000
1100
0000
0000
0000
1000
0001
1000
0000
,  // measure 26
0001
0000
0011
0000
,  // measure 27
1100
1100
1001
1001
,  // measure 28
0001
0100
0001
0100
0010
0100
0001
0000
,  // measure 29
0010
0100
1000
0100
0010
0001
0100
0000
,  // measure 30
0010
1000
0100
1000
0001
0100
0001
0000
,  // measure 31
1002
1000
1000
1003
,  // measure 32
0100
1000
0001
1000
0100
1000
0001
0000
,  // measure 33
0010
0000
0000
0100
0000
0000
1000
0000
0000
0100
0000
0000
0010
0000
0000
0001
0000
0000
1000
0000
0000
0000
0010
0000
,  // measure 34
0100
0000
0000
0110
0000
0001
1000
0000
0000
1001
0000
0000
,  // measure 35
0110
0110
1001
1001
,  // measure 36
1000
0100
1000
0100
1000
0001
0100
0001
,  // measure 37
1000
0100
0010
0001
0010
0100
1000
0000
,  // measure 38
0001
0100
0001
0100
0001
1000
0100
1000
,  // measure 39
0001
0100
0010
1000
0010
0100
0001
0000
,  // measure 40
1001
0000
0000
0001
1000
0000
0000
0000
1100
0000
0000
1000
0100
0000
0000
0000
,  // measure 41
0011
0000
0000
0010
0001
0000
0000
0000
0110
0000
0000
0010
0100
0000
0000
0000
,  // measure 42
2002
0000
0000
3003
,  // measure 43
1000
0001
0010
0100
1000
0001
0010
0100
,  // measure 44
1000
0000
0002
0000
,  // measure 45
1003
0000
0100
0000
,  // measure 46
0010
0000
0001
0000
,  // measure 47
0110
0000
0010
0000
1000
0100
0010
0000
,  // measure 48
0110
0000
0100
0000
0001
0010
0100
0000
,  // measure 49
0110
0010
1000
0100
0010
0100
1000
0000
,  // measure 50
0110
0000
0220
0000
,  // measure 51
0000
0000
0330
0000
0010
0100
0010
0100
,  // measure 52
0001
0010
0001
1000
0100
0010
0100
1000
,  // measure 53
0010
0100
0001
0000
0100
0010
0100
0010
,  // measure 54
1000
0100
1000
0001
0100
0010
0100
0001
,  // measure 55
1000
0100
0010
0000
0001
1000
0001
1000
,  // measure 56
0100
0010
0100
1000
0001
0100
0010
0100
,  // measure 57
0001
0010
0100
0000
1000
0001
1000
0001
,  // measure 58
0100
0010
0100
0001
0010
0100
1000
0010
,  // measure 59
0110
0000
0110
0000
0001
0100
0001
1000
,  // measure 60
0100
0010
0100
1000
0001
0100
0001
1000
,  // measure 61
0100
0010
0001
0000
1000
0100
1000
0001
,  // measure 62
0100
0010
0100
0001
1000
0100
1000
0001
,  // measure 63
0010
0100
1000
0000
0100
0010
0100
0010
,  // measure 64
0001
0100
0001
1000
0100
1000
0001
0010
,  // measure 65
0100
1000
0001
0000
1000
0100
0001
0100
,  // measure 66
1000
0010
0001
0010
1000
0100
0010
0001
,  // measure 67
0010
0100
1000
0001
0102
0000
0000
0000
,  // measure 68
0000
0000
0013
0100
1000
0001
0000
0000
,  // measure 69
0010
0001
0100
0010
1000
0100
2200
0000
,  // measure 70
3300
2002
0000
3003
,  // measure 71
0010
1000
0001
0000
0010
0100
1000
0001
,  // measure 72
0000
0000
1000
0010
0100
0001
0000
0000
,  // measure 73
1000
0001
0100
0000
0001
0010
0100
2000
,  // measure 74
0000
0000
3010
0100
0001
0010
0000
0000
,  // measure 75
1002
0100
2000
3003
,  // measure 76
1000
0100
1000
0100
1000
0100
1000
0100
1000
0000
0001
0000
0100
0001
0100
0001
,  // measure 77
1000
0010
0000
0000
0000
0000
0000
0000
,  // measure 78
0100
0010
0100
0010
0100
0010
0100
0010
0100
0010
0100
0010
0100
0000
0000
0000
,  // measure 79
2002
0000
0000
0000
,  // measure 80
0000
0000
0000
0000
,  // measure 81
0000
0000
0000
0000
,  // measure 82
0000
0000
0000
0000
,  // measure 83
0000
0000
3003
0000
;

//---------------dance-single - ----------------
#NOTES:
     dance-single:
     :
     Challenge:
     16:
     0.797,0.889,0.315,0.216,0.688: // measure 1
1002
0000
0000
2003
0000
0000
3002
0010
0000
0000
0000
0000
,  // measure 2
1000
0000
1000
0000
0000
0000
0000
0000
0000
0000
0000
0000
0010
0000
0010
0000
0000
0000
0003
0000
0000
1000
0001
1000
,  // measure 3
0002
0000
0000
0203
0000
0000
0320
1000
0000
0000
0000
0000
,  // measure 4
0100
0000
0100
0000
0000
0000
0000
0000
0000
0000
0000
0000
1000
0000
1030
0000
0000
0000
0001
1000
0001
1000
0010
0100
,  // measure 5
0020
0000
0000
0000
0000
0000
2030
0000
0000
0000
0000
0000
3002
0000
1000
0000
0000
0000
0000
0000
0000
0003
0000
0000
,  // measure 6
0220
0000
0000
0000
0000
0000
0000
0000
0000
0330
0000
0000
0100
0000
0100
0000
0000
0000
0001
1000
0001
1000
0100
0010
,  // measure 7
0200
0000
1300
0000
,  // measure 8
0020
0000
0001
0000
0000
0000
0031
0000
0000
0000
0000
0000
,  // measure 9
0011
0011
1100
1100
,  // measure 10
1000
0001
1000
0001
1000
0010
0100
0001
0100
0010
1000
0001
,  // measure 11
2000
0000
0000
3000
,  // measure 12
0001
1000
1001
0000
1000
0100
1100
0000
,  // measure 13
1001
0000
0000
0001
1000
0000
0000
0000
1001
0000
0000
0000
0001
0100
0001
0000
,  // measure 14
0100
0010
0110
0000
0010
1000
1010
0000
,  // measure 15
1000
0010
1000
0010
0100
0001
0100
0001
0010
0100
1000
0100
,  // measure 16
0010
0001
0011
0000
0001
1000
1010
0000
,  // measure 17
1001
0000
0000
1000
0001
0000
0000
0000
0101
0000
0000
0000
0100
0010
0100
0000
,  // measure 18
0002
1000
1000
1003
,  // measure 19
0001
0010
0001
0010
0100
1000
0100
1000
0010
0100
0001
0100
,  // measure 20
0010
0000
1000
0000
1010
0000
0000
0000
1000
0000
0001
0000
0010
0001
0010
0000
,  // measure 21
0001
0000
1000
0000
1001
0000
0000
0000
0001
0000
1000
0000
0100
1000
0100
0000
,  // measure 22
1000
0000
0001
0000
0100
0010
0100
0000
0001
0000
1000
0000
0001
1000
0001
0000
,  // measure 23
0100
0010
0100
0001
0100
0010
1000
0100
1000
0100
0010
0001
,  // measure 24
0010
0100
0110
0000
1000
0010
1010
0000
,  // measure 25
0101
0000
0000
0001
0100
0000
0000
0000
1001
0000
0000
0000
0001
0000
1000
0100
,  // measure 26
1000
0001
0100
0000
0101
0000
0100
0000
,  // measure 27
0110
0000
0000
0010
0100
0000
0000
0100
0001
0000
0000
0000
1001
0000
0000
0000
,  // measure 28
1000
0001
1000
0100
0010
0001
1000
0001
,  // measure 29
1000
0010
0100
0001
1000
0001
1000
0010
,  // measure 30
1000
0100
0010
0100
1000
0001
0100
0001
,  // measure 31
0010
0100
0010
0100
0010
0100
1000
0001
1000
0001
1000
0001
,  // measure 32
1000
0010
0100
0010
1000
0001
0010
0001
,  // measure 33
1000
0000
0000
0100
0000
0000
0010
0000
0000
0100
0000
0000
1000
0000
0000
0001
0000
0000
0100
0000
0010
0000
0100
0000
,  // measure 34
0001
0100
0010
0100
0000
0000
0010
1000
0100
1000
0000
0000
,  // measure 35
1100
0011
1001
1001
,  // measure 36
0001
0000
1000
0000
0010
0000
1000
0000
0100
0000
0010
0000
0100
1000
0100
0000
,  // measure 37
1000
0000
0001
0000
1000
0000
0001
0000
0100
0000
0001
0000
0010
0100
0010
0000
,  // measure 38
0100
1000
0100
1000
0001
0100
0010
0100
,  // measure 39
0001
0000
1000
0000
0100
0000
0010
0000
0001
0000
0010
0000
0100
0010
0100
0000
,  // measure 40
1000
0001
1000
0000
0001
0000
0100
0000
0010
0100
0010
0000
0100
0000
0001
0000
,  // measure 41
1000
0100
1000
0000
0010
0000
0100
0000
0001
1000
0001
0000
0010
0000
0100
0000
,  // measure 42
0020
0000
0000
0000
,  // measure 43
0031
1000
0001
1000
0001
1000
0001
1000
0010
0100
0010
0100
0010
0100
0010
0100
,  // measure 44
0010
0000
2000
0000
,  // measure 45
3001
0000
0010
0000
,  // measure 46
0100
0000
1000
0000
,  // measure 47
1001
0000
0000
0000
0001
0000
1000
0001
0000
0000
0000
0010
0100
0000
1000
0000
,  // measure 48
1001
0000
0001
0000
0010
0000
0001
1000
0000
0000
0000
0100
0010
0000
0001
0000
,  // measure 49
1001
0000
1000
0000
0001
0000
0010
0100
0000
0000
0000
1000
0001
0000
0100
0000
,  // measure 50
0101
0000
0220
0000
,  // measure 51
0000
0000
0000
0000
0330
0000
0000
0000
1000
0000
0010
0000
1000
0001
1000
0000
,  // measure 52
0010
1000
0100
0010
0001
0001
1000
1000
,  // measure 53
0010
0100
0010
0100
0010
0100
0010
0100
0010
0000
0100
0000
0001
1000
0001
0000
,  // measure 54
0100
0001
0010
0100
1000
0100
0010
0001
,  // measure 55
1000
0001
1000
0001
1000
0001
1000
0001
1000
0000
0100
0000
1000
0000
0010
0100
,  // measure 56
0010
1000
0100
0010
0100
1000
0001
0100
,  // measure 57
0001
0000
0100
0000
0010
0100
0010
0100
0010
0000
1000
0000
0100
0000
1000
0100
,  // measure 58
1000
0000
0001
0000
0100
0000
0010
0100
0010
0000
1000
0000
0100
0000
0010
0001
,  // measure 59
0010
0001
0010
0001
0010
0001
0010
0001
0010
0000
0001
0000
1000
0000
0100
0000
,  // measure 60
0010
0100
1000
0001
1000
0010
1000
0001
,  // measure 61
0010
0100
0010
0100
0010
0100
0010
0100
0010
0000
0001
0000
0100
0000
0010
0000
,  // measure 62
1000
0100
0010
0100
1000
0010
0100
0010
,  // measure 63
0100
0001
0100
0001
0100
0001
0100
0001
0100
0000
0001
0000
1000
0000
0100
0000
,  // measure 64
1000
0001
1000
0000
0100
0000
1000
0000
0001
1000
0001
0000
1000
0000
0100
0000
,  // measure 65
0010
0001
0010
0000
0001
1000
0001
1000
0001
0010
0001
0000
0010
0100
0010
0000
,  // measure 66
0100
1000
0100
0000
1000
0001
1000
0000
0001
0100
0001
0000
1000
0010
1000
0000
,  // measure 67
0010
0100
0010
0100
0010
0100
0010
0100
0020
0000
0000
0000
0000
0000
0000
0000
,  // measure 68
0000
0000
1000
1000
1000
1000
0000
0000
,  // measure 69
1030
0001
1000
0001
0100
0000
0010
0000
1000
0000
0001
0000
0100
0010
0100
0010
,  // measure 70
0100
2002
0000
3003
,  // measure 71
0001
1000
0010
0000
1000
0000
0000
0000
0001
0000
0001
0000
0100
0000
0110
0000
,  // measure 72
0000
0000
1000
1000
0010
0110
0000
0000
,  // measure 73
0010
0001
0010
0000
0100
1000
0100
0000
1000
0000
1000
0000
0010
0000
0010
0000
,  // measure 74
0100
0010
0100
0010
0100
0000
0001
0000
1000
0000
1000
0000
0000
0000
0000
0000
,  // measure 75
0001
1000
0001
1000
0010
1000
0010
1000
0020
0000
0000
0000
0030
0000
0000
0000
,  // measure 76
1000
0001
1000
0001
1000
0100
1000
0100
0010
0000
0001
0000
0100
0001
1000
0100
,  // measure 77
1000
0002
0000
0000
0000
0000
0000
0000
,  // measure 78
1003
0010
1000
0010
1000
0001
1000
0001
1000
0010
1000
0010
1000
0000
0000
0000
,  // measure 79
2002
0000
0000
0000
,  // measure 80
0000
0000
0000
0000
,  // measure 81
0000
0000
0000
0000
,  // measure 82
0000
0000
0000
0000
,  // measure 83
0000
0000
3003
0000
;

//---------------dance-single - ----------------
#NOTES:
     dance-single:
     :
     Beginner:
     3:
     0.145,0.194,0.041,0.000,0.000:
0001
0000
0000
0000
,
0000
0000
0000
0000
,
1000
0000
0000
0000
,
0000
0000
0000
0000
,
0001
0000
1000
0000
,
0001
0000
1000
0000
,
0010
0000
0000
0000
,
0100
0000
0000
0000
,
0010
0000
0000
0000
,
0100
0000
0000
0000
,
0001
0000
0000
0000
,
1000
0000
0001
0000
,
1000
0000
0001
0000
,
1000
0000
0001
0000
,
1000
0000
0000
0000
,
0100
0000
0010
0000
,
0100
0000
0010
0000
,
0100
0000
0000
0000
,
0110
0000
0000
0000
,
0001
0000
1000
0000
,
0001
0000
1000
0000
,
0010
0000
0100
0000
,
0010
0000
0100
0000
,
0001
0000
1000
0000
,
0001
0000
1000
0000
,
0100
0000
0000
0000
,
1000
0000
0000
0000
,
0001
0000
1000
0000
,
0001
0000
1000
0000
,
0100
0000
0010
0000
,
0100
0000
0010
0000
,
0001
0000
0100
0000
,
0001
0000
0100
0000
,
0010
0000
1000
0000
,
0010
0000
0000
0000
,
1000
0000
0001
0000
,
1000
0000
0001
0000
,
0010
0000
0001
0000
,
0010
0000
0001
0000
,
0100
0000
0010
0000
,
0100
0000
0010
0000
,
1000
0000
0000
0000
,
1001
0000
0000
0000
,
0001
0000
0000
0000
,
1001
0000
1000
0000
,
1000
0000
1000
0000
,
1000
0000
0000
0000
,
1000
0000
0000
0000
,
1000
0000
0000
0000
,
1000
0000
0000
0000
,
0000
0000
0001
0000
,
1000
0000
0001
0000
,
1000
0000
0010
0000
,
0100
0000
0010
0000
,
0100
0000
0001
0000
,
1000
0000
0001
0000
,
1000
0000
0100
0000
,
1000
0000
0100
0000
,
0000
0000
0010
0000
,
0001
0000
0010
0000
,
0001
0000
1000
0000
,
0001
0000
1000
0000
,
0001
0000
0100
0000
,
0010
0000
0100
0000
,
0010
0000
1000
0000
,
1000
0000
1000
0000
,
1000
0000
1001
0000
,
0000
0000
0000
0000
,
0000
0000
0001
0000
,
0000
0000
0000
0000
,
0000
0000
1000
0000
,
0000
0000
0001
0000
,
0000
0000
1000
0000
,
0000
0000
0100
0000
,
0000
0000
0010
0000
,
0000
0000
0000
0000
,
0010
0000
0000
0000
,
0010
0000
0000
0000
,
0110
0000
0000
0000
;
